  0
SECTION
  2
HEADER
  9
$ACADVER
  1
AC1009
  9
$DWGCODEPAGE
  3
ansi_1255
  9
$INSBASE
 10
0.0
 20
0.0
 30
0.0
  9
$EXTMIN
 10
0.0
 20
0.0
 30
0.0
  9
$EXTMAX
 10
210.0
 20
297.0
 30
0.0
  9
$LIMMIN
 10
0.0
 20
0.0
  9
$LIMMAX
 10
210.0
 20
297.0
  9
$ORTHOMODE
 70
     0
  9
$REGENMODE
 70
     1
  9
$FILLMODE
 70
     1
  9
$QTEXTMODE
 70
     0
  9
$MIRRTEXT
 70
     1
  9
$DRAGMODE
 70
     2
  9
$LTSCALE
 40
1.0
  9
$OSMODE
 70
    37
  9
$ATTMODE
 70
     1
  9
$TEXTSIZE
 40
2.0
  9
$TRACEWID
 40
1.0
  9
$TEXTSTYLE
  7
STANDARD
  9
$CLAYER
  8
0
  9
$CELTYPE
  6
BYLAYER
  9
$CECOLOR
 62
   256
  9
$DIMSCALE
 40
1.0
  9
$DIMASZ
 40
2.0
  9
$DIMEXO
 40
1.0
  9
$DIMDLI
 40
3.75
  9
$DIMRND
 40
0.0
  9
$DIMDLE
 40
0.0
  9
$DIMEXE
 40
1.0
  9
$DIMTP
 40
0.0
  9
$DIMTM
 40
0.0
  9
$DIMTXT
 40
3.5
  9
$DIMCEN
 40
2.5
  9
$DIMTSZ
 40
0.0
  9
$DIMTOL
 70
     0
  9
$DIMLIM
 70
     0
  9
$DIMTIH
 70
     1
  9
$DIMTOH
 70
     1
  9
$DIMSE1
 70
     0
  9
$DIMSE2
 70
     0
  9
$DIMTAD
 70
     1
  9
$DIMZIN
 70
     0
  9
$DIMBLK
  1

  9
$DIMASO
 70
     1
  9
$DIMSHO
 70
     1
  9
$DIMPOST
  1

  9
$DIMAPOST
  1

  9
$DIMALT
 70
     0
  9
$DIMALTD
 70
     3
  9
$DIMALTF
 40
0.0393700787
  9
$DIMLFAC
 40
1.0
  9
$DIMTOFL
 70
     1
  9
$DIMTVP
 40
0.0
  9
$DIMTIX
 70
     0
  9
$DIMSOXD
 70
     0
  9
$DIMSAH
 70
     0
  9
$DIMBLK1
  1

  9
$DIMBLK2
  1

  9
$DIMSTYLE
  2
ISO-25
  9
$DIMCLRD
 70
     0
  9
$DIMCLRE
 70
     0
  9
$DIMCLRT
 70
     0
  9
$DIMTFAC
 40
1.0
  9
$DIMGAP
 40
1.524
  9
$LUNITS
 70
     2
  9
$LUPREC
 70
     2
  9
$SKETCHINC
 40
1.0
  9
$FILLETRAD
 40
10.0
  9
$AUNITS
 70
     0
  9
$AUPREC
 70
     2
  9
$MENU
  1
.
  9
$ELEVATION
 40
0.0
  9
$PELEVATION
 40
0.0
  9
$THICKNESS
 40
0.0
  9
$LIMCHECK
 70
     0
  9
$CHAMFERA
 40
0.0
  9
$CHAMFERB
 40
0.0
  9
$SKPOLY
 70
     0
  9
$TDCREATE
 40
2458264.54665191
  9
$TDUPDATE
 40
2458264.546658901
  9
$TDINDWG
 40
0.0000000116
  9
$TDUSRTIMER
 40
0.0000000116
  9
$USRTIMER
 70
     1
  9
$ANGBASE
 50
0.0
  9
$ANGDIR
 70
     0
  9
$PDMODE
 70
     0
  9
$PDSIZE
 40
-1.0
  9
$PLINEWID
 40
0.0
  9
$COORDS
 70
     1
  9
$SPLFRAME
 70
     0
  9
$SPLINETYPE
 70
     6
  9
$SPLINESEGS
 70
     8
  9
$ATTDIA
 70
     0
  9
$ATTREQ
 70
     1
  9
$HANDLING
 70
     1
  9
$HANDSEED
  5
3AD
  9
$SURFTAB1
 70
     6
  9
$SURFTAB2
 70
     6
  9
$SURFTYPE
 70
     6
  9
$SURFU
 70
     6
  9
$SURFV
 70
     6
  9
$UCSNAME
  2

  9
$UCSORG
 10
0.0
 20
0.0
 30
0.0
  9
$UCSXDIR
 10
1.0
 20
0.0
 30
0.0
  9
$UCSYDIR
 10
0.0
 20
1.0
 30
0.0
  9
$PUCSNAME
  2

  9
$PUCSORG
 10
0.0
 20
0.0
 30
0.0
  9
$PUCSXDIR
 10
1.0
 20
0.0
 30
0.0
  9
$PUCSYDIR
 10
0.0
 20
1.0
 30
0.0
  9
$USERI1
 70
     0
  9
$USERI2
 70
     0
  9
$USERI3
 70
     0
  9
$USERI4
 70
     0
  9
$USERI5
 70
     0
  9
$USERR1
 40
0.0
  9
$USERR2
 40
0.0
  9
$USERR3
 40
0.0
  9
$USERR4
 40
0.0
  9
$USERR5
 40
0.0
  9
$WORLDVIEW
 70
     1
  9
$SHADEDGE
 70
     3
  9
$SHADEDIF
 70
    70
  9
$TILEMODE
 70
     1
  9
$MAXACTVP
 70
    64
  9
$PLIMCHECK
 70
     0
  9
$PEXTMIN
 10
1.0000000000E+20
 20
1.0000000000E+20
 30
1.0000000000E+20
  9
$PEXTMAX
 10
-1.0000000000E+20
 20
-1.0000000000E+20
 30
-1.0000000000E+20
  9
$PLIMMIN
 10
0.0
 20
0.0
  9
$PLIMMAX
 10
420.0
 20
297.0
  9
$UNITMODE
 70
     0
  9
$VISRETAIN
 70
     1
  9
$PLINEGEN
 70
     0
  9
$PSLTSCALE
 70
     1
  0
ENDSEC
  0
SECTION
  2
TABLES
  0
TABLE
  2
VPORT
 70
     1
  0
VPORT
  2
*ACTIVE
 70
     0
 10
0.0
 20
0.0
 11
1.0
 21
1.0
 12
105.0
 22
148.5
 13
0.0
 23
0.0
 14
10.0
 24
10.0
 15
10.0
 25
10.0
 16
0.0
 26
0.0
 36
1.0
 17
0.0
 27
0.0
 37
0.0
 40
297.0
 41
0.7070707071
 42
50.0
 43
0.0
 44
0.0
 50
0.0
 51
0.0
 71
     0
 72
  2000
 73
     1
 74
     3
 75
     0
 76
     0
 77
     0
 78
     0
  0
ENDTAB
  0
TABLE
  2
LTYPE
 70
     6
  0
LTYPE
  2
CONTINUOUS
 70
     0
  3
Solid line
 72
    65
 73
     0
 40
0.0
  0
LTYPE
  2
HIDDEN
 70
     0
  3
Hidden __ __ __ __ __ __ __ __ __ __ __ __ __ __
 72
    65
 73
     2
 40
1.905
 49
1.27
 49
-0.635
  0
LTYPE
  2
PHANTOM
 70
     0
  3
Phantom ______  __  __  ______  __  __  ______
 72
    65
 73
     6
 40
12.7
 49
6.35
 49
-1.27
 49
1.27
 49
-1.27
 49
1.27
 49
-1.27
  0
LTYPE
  2
CENTER
 70
     0
  3
Center ____ _ ____ _ ____ _ ____ _ ____ _ ____
 72
    65
 73
     4
 40
10.16
 49
6.35
 49
-1.27
 49
1.27
 49
-1.27
  0
LTYPE
  2
CENTERX2
 70
     0
  3
Center (2x) ________  __  ________  __  _____
 72
    65
 73
     4
 40
20.32
 49
12.7
 49
-2.54
 49
2.54
 49
-2.54
  0
LTYPE
  2
DOT2
 70
     0
  3
Dot (.5x) ........................................
 72
    65
 73
     2
 40
0.635
 49
0.0
 49
-0.635
  0
ENDTAB
  0
TABLE
  2
LAYER
 70
    53
  0
LAYER
  2
0
 70
     0
 62
     7
  6
CONTINUOUS
  0
LAYER
  2
SLD-0
 70
     0
 62
     7
  6
CONTINUOUS
  0
LAYER
  2
LEVEL0
 70
     0
 62
     7
  6
CONTINUOUS
  0
LAYER
  2
1
 70
     0
 62
     7
  6
CONTINUOUS
  0
LAYER
  2
2
 70
     0
 62
     7
  6
CONTINUOUS
  0
LAYER
  2
3
 70
     0
 62
     7
  6
CONTINUOUS
  0
LAYER
  2
4
 70
     0
 62
     7
  6
CONTINUOUS
  0
LAYER
  2
5
 70
     0
 62
     7
  6
CONTINUOUS
  0
LAYER
  2
6
 70
     0
 62
     7
  6
CONTINUOUS
  0
LAYER
  2
7
 70
     0
 62
     7
  6
CONTINUOUS
  0
LAYER
  2
8
 70
     0
 62
     7
  6
CONTINUOUS
  0
LAYER
  2
9
 70
     0
 62
     7
  6
CONTINUOUS
  0
LAYER
  2
10
 70
     0
 62
     7
  6
CONTINUOUS
  0
LAYER
  2
11
 70
     0
 62
     7
  6
CONTINUOUS
  0
LAYER
  2
12
 70
     0
 62
     7
  6
CONTINUOUS
  0
LAYER
  2
13
 70
     0
 62
     7
  6
CONTINUOUS
  0
LAYER
  2
14
 70
     0
 62
     7
  6
CONTINUOUS
  0
LAYER
  2
15
 70
     0
 62
     7
  6
CONTINUOUS
  0
LAYER
  2
16
 70
     0
 62
     7
  6
CONTINUOUS
  0
LAYER
  2
17
 70
     0
 62
     7
  6
CONTINUOUS
  0
LAYER
  2
18
 70
     0
 62
     7
  6
CONTINUOUS
  0
LAYER
  2
19
 70
     0
 62
     7
  6
CONTINUOUS
  0
LAYER
  2
20
 70
     0
 62
     7
  6
CONTINUOUS
  0
LAYER
  2
21
 70
     0
 62
     7
  6
CONTINUOUS
  0
LAYER
  2
22
 70
     0
 62
     7
  6
CONTINUOUS
  0
LAYER
  2
23
 70
     0
 62
     7
  6
CONTINUOUS
  0
LAYER
  2
24
 70
     0
 62
     7
  6
CONTINUOUS
  0
LAYER
  2
25
 70
     0
 62
     7
  6
CONTINUOUS
  0
LAYER
  2
26
 70
     0
 62
     7
  6
CONTINUOUS
  0
LAYER
  2
27
 70
     0
 62
     7
  6
CONTINUOUS
  0
LAYER
  2
28
 70
     0
 62
     7
  6
CONTINUOUS
  0
LAYER
  2
29
 70
     0
 62
     7
  6
CONTINUOUS
  0
LAYER
  2
30
 70
     0
 62
     7
  6
CONTINUOUS
  0
LAYER
  2
31
 70
     0
 62
     7
  6
CONTINUOUS
  0
LAYER
  2
32
 70
     0
 62
     7
  6
CONTINUOUS
  0
LAYER
  2
33
 70
     0
 62
     7
  6
CONTINUOUS
  0
LAYER
  2
34
 70
     0
 62
     7
  6
CONTINUOUS
  0
LAYER
  2
35
 70
     0
 62
     7
  6
CONTINUOUS
  0
LAYER
  2
36
 70
     0
 62
     7
  6
CONTINUOUS
  0
LAYER
  2
37
 70
     0
 62
     7
  6
CONTINUOUS
  0
LAYER
  2
38
 70
     0
 62
     7
  6
CONTINUOUS
  0
LAYER
  2
39
 70
     0
 62
     7
  6
CONTINUOUS
  0
LAYER
  2
40
 70
     0
 62
     7
  6
CONTINUOUS
  0
LAYER
  2
41
 70
     0
 62
     7
  6
CONTINUOUS
  0
LAYER
  2
42
 70
     0
 62
     7
  6
CONTINUOUS
  0
LAYER
  2
43
 70
     0
 62
     7
  6
CONTINUOUS
  0
LAYER
  2
44
 70
     0
 62
     7
  6
CONTINUOUS
  0
LAYER
  2
45
 70
     0
 62
     7
  6
CONTINUOUS
  0
LAYER
  2
46
 70
     0
 62
     7
  6
CONTINUOUS
  0
LAYER
  2
47
 70
     0
 62
     7
  6
CONTINUOUS
  0
LAYER
  2
48
 70
     0
 62
     7
  6
CONTINUOUS
  0
LAYER
  2
49
 70
     0
 62
     7
  6
CONTINUOUS
  0
LAYER
  2
50
 70
     0
 62
     7
  6
CONTINUOUS
  0
ENDTAB
  0
TABLE
  2
STYLE
 70
     1
  0
STYLE
  2
STANDARD
 70
     0
 40
0.0
 41
1.0
 50
0.0
 71
     0
 42
2.0
  3
txt
  4

  0
ENDTAB
  0
TABLE
  2
VIEW
 70
     0
  0
ENDTAB
  0
TABLE
  2
UCS
 70
     0
  0
ENDTAB
  0
TABLE
  2
APPID
 70
     1
  0
APPID
  2
ACAD
 70
     0
  0
ENDTAB
  0
TABLE
  2
DIMSTYLE
 70
     2
  0
DIMSTYLE
  2
ISO-25
 70
     0
  3

  4

  5

  6

  7

 40
1.0
 41
2.5
 42
0.625
 43
3.75
 44
1.25
 45
0.0
 46
0.0
 47
0.0
 48
0.0
140
2.5
141
2.5
142
0.0
143
0.0393700787
144
1.0
145
0.0
146
1.0
147
0.625
 71
     0
 72
     0
 73
     0
 74
     0
 75
     0
 76
     0
 77
     1
 78
     8
170
     0
171
     3
172
     1
173
     0
174
     0
175
     0
176
     0
177
     0
178
     0
  0
DIMSTYLE
  2
SLDDIMSTYLE0
 70
     0
  3

  4

  5

  6
CLOSED
  7
CLOSED
 40
1.0
 41
2.0
 42
0.0625
 43
0.38
 44
0.0
 45
0.000000001
 46
0.0
 47
0.8
 48
0.2
140
3.5
141
0.09
142
0.0
143
0.0393700787
144
1.0
145
0.0
146
1.0
147
0.875
 71
     1
 72
     0
 73
     0
 74
     0
 75
     0
 76
     0
 77
     1
 78
    12
170
     1
171
     3
172
     0
173
     1
174
     0
175
     0
176
     0
177
     0
178
     0
  0
ENDTAB
  0
ENDSEC
  0
SECTION
  2
BLOCKS
  0
BLOCK
  8
0
  2
$MODEL_SPACE
 70
     0
 10
0.0
 20
0.0
 30
0.0
  3
$MODEL_SPACE
  1

  0
ENDBLK
  5
21
  8
0
  0
BLOCK
 67
     1
  8
0
  2
$PAPER_SPACE
 70
     0
 10
0.0
 20
0.0
 30
0.0
  3
$PAPER_SPACE
  1

  0
ENDBLK
  5
1D
 67
     1
  8
0
  0
BLOCK
  8
0
  2
SW_NOTE_0
 70
     0
 10
0.0
 20
0.0
 30
0.0
  3
SW_NOTE_0
  1

  0
TEXT
  5
C4
  8
0
  6
CONTINUOUS
 62
     0
 10
0.0
 20
0.5298900929
 30
0.0
 40
1.5
  1
UNLESS OTHERWISE SPECIFIED:
 41
0.6740740741
 11
0.0
 21
0.0
 31
0.0
 73
     1
  0
TEXT
  5
C5
  8
0
  6
CONTINUOUS
 62
     0
 10
0.0
 20
-1.9701098512
 30
0.0
 40
1.5
  1
DIMENSIONS ARE IN MILLIMETERS
 41
0.6637931034
 11
0.0
 21
-2.4999999441
 31
0.0
 73
     1
  0
ENDBLK
  5
C3
  8
0
  0
BLOCK
  8
0
  2
SW_NOTE_1
 70
     0
 10
0.0
 20
0.0
 30
0.0
  3
SW_NOTE_1
  1

  0
TEXT
  5
CE
  8
0
  6
CONTINUOUS
 62
     0
 10
0.0
 20
0.5608003483
 30
0.0
 40
1.5875
  1
INFORMATION CONTAINED HEREIN IS PROPRIETARY AND MAY NOT BE USED,
 41
0.65078125
 11
0.0
 21
0.0
 31
0.0
 73
     1
  0
TEXT
  5
CF
  8
0
  6
CONTINUOUS
 62
     0
 10
0.0
 20
-1.5558662928
 30
0.0
 40
1.5875
  1
REPRODUCED OR COPIED WITHOUT WRITTEN CONSENT OF WALL-SMART 
 41
0.6525423729
 11
0.0
 21
-2.1166666411
 31
0.0
 73
     1
  0
ENDBLK
  5
CD
  8
0
  0
BLOCK
  8
0
  2
SW_NOTE_2
 70
     0
 10
0.0
 20
0.0
 30
0.0
  3
SW_NOTE_2
  1

  0
TEXT
  5
DC
  8
LEVEL0
 62
     0
 10
0.0
 20
0.7477337977
 30
0.0
 40
2.1166666667
  1
by
 41
0.7
 11
0.0
 21
0.0
 31
0.0
 73
     1
  0
TEXT
  5
DD
  8
LEVEL0
 62
     0
 10
4.7306790948
 20
-0.1483993113
 30
0.0
 40
3.175
  1
Wall
 41
0.7
 11
4.7306790948
 21
-1.2700000079
 31
0.0
 73
     1
  0
TEXT
  5
DE
  8
LEVEL0
 62
     0
 10
12.1448924765
 20
0.7765245934
 30
0.0
 40
2.38125
  1
-Smart Ltd.
 41
0.7
 11
12.1448924765
 21
-0.064675929
 31
0.0
 73
     1
  0
ENDBLK
  5
DB
  8
0
  0
BLOCK
  8
0
  2
_CLOSED
 70
     0
 10
0.0
 20
0.0
 30
0.0
  3
_CLOSED
  1

  0
LINE
  5
259
  8
0
  6
BYBLOCK
 62
     0
 10
-1.0
 20
0.166667
 30
0.0
 11
0.0
 21
0.0
 31
0.0
  0
LINE
  5
25A
  8
0
  6
BYBLOCK
 62
     0
 10
0.0
 20
0.0
 30
0.0
 11
-1.0
 21
-0.166667
 31
0.0
  0
LINE
  5
25B
  8
0
  6
BYBLOCK
 62
     0
 10
-1.0
 20
0.166667
 30
0.0
 11
-1.0
 21
-0.166667
 31
0.0
  0
LINE
  5
25C
  8
0
  6
BYBLOCK
 62
     0
 10
0.0
 20
0.0
 30
0.0
 11
-1.0
 21
0.0
 31
0.0
  0
ENDBLK
  5
258
  8
0
  0
BLOCK
  8
0
  2
_D
 70
     0
 10
0.0
 20
0.0
 30
0.0
  3
_D
  1

  0
INSERT
  5
260
  8
LEVEL0
  2
_CLOSED
 10
159.6623700202
 20
125.5362960315
 30
-1.5
 41
2.0
 42
2.0
 50
0.0
  0
INSERT
  5
261
  8
LEVEL0
  2
_CLOSED
 10
63.1623700202
 20
125.5362960315
 30
-1.5
 41
2.0
 42
2.0
 50
180.0
  0
LINE
  5
262
  8
LEVEL0
 10
83.0683593078
 20
144.3500113478
 30
0.0
 11
82.3574218222
 21
144.3500113478
 31
0.0
  0
LINE
  5
263
  8
LEVEL0
 10
82.3574218222
 20
144.3500113478
 30
0.0
 11
82.3574218222
 21
135.2986222869
 31
0.0
  0
LINE
  5
264
  8
LEVEL0
 10
82.3574218222
 20
135.2986222869
 30
0.0
 11
83.0683593078
 21
135.2986222869
 31
0.0
  0
LINE
  5
265
  8
LEVEL0
 10
112.242925926
 20
144.3500113478
 30
0.0
 11
112.9538634115
 21
144.3500113478
 31
0.0
  0
LINE
  5
266
  8
LEVEL0
 10
112.9538634115
 20
144.3500113478
 30
0.0
 11
112.9538634115
 21
135.2986222869
 31
0.0
  0
LINE
  5
267
  8
LEVEL0
 10
112.9538634115
 20
135.2986222869
 30
0.0
 11
112.242925926
 21
135.2986222869
 31
0.0
  0
LINE
  5
268
  8
LEVEL0
 10
159.6623700202
 20
125.5362960315
 30
0.0
 11
63.1623700202
 21
125.5362960315
 31
0.0
  0
TEXT
  5
269
  8
LEVEL0
 10
80.5311630968
 20
126.8261774935
 30
-1.5
 40
3.5
  1
 
 50
0.0
 41
0.7
 11
80.5311630968
 21
125.5897672768
 31
-1.5
 73
     1
  0
TEXT
  5
26A
  8
LEVEL0
 10
83.9570312084
 20
136.5885046803
 30
-1.5
 40
3.5
  1
3.799
 50
0.0
 41
0.7
 11
83.9570312084
 21
135.3520944636
 31
-1.5
 73
     1
  0
TEXT
  5
26B
  8
LEVEL0
 10
95.5945316957
 20
136.5885046803
 30
-1.5
 40
3.5
  1
 
 50
0.0
 41
0.7
 11
95.5945316957
 21
135.3520944636
 31
-1.5
 73
     1
  0
TEXT
  5
26C
  8
LEVEL0
 10
96.8875874089
 20
141.0607270341
 30
-1.5
 40
3.5
  1
+
 50
0.0
 41
0.7
 11
96.8875874089
 21
139.8243168174
 31
-1.5
 73
     1
  0
TEXT
  5
26D
  8
LEVEL0
 10
97.5268234754
 20
136.5350325036
 30
-1.5
 40
3.5
  1
-
 50
0.0
 41
0.7
 11
97.5268234754
 21
135.2986222869
 31
-1.5
 73
     1
  0
TEXT
  5
26E
  8
LEVEL0
 10
99.7167544694
 20
141.0607270341
 30
-1.5
 40
3.5
  1
0.031
 50
0.0
 41
0.7
 11
99.7167544694
 21
139.8243168174
 31
-1.5
 73
     1
  0
TEXT
  5
26F
  8
LEVEL0
 10
99.7167544694
 20
136.5350325036
 30
-1.5
 40
3.5
  1
0.008
 50
0.0
 41
0.7
 11
99.7167544694
 21
135.2986222869
 31
-1.5
 73
     1
  0
TEXT
  5
270
  8
LEVEL0
 10
87.836198348
 20
126.7727053169
 30
-1.5
 40
3.5
  1
96.5
 50
0.0
 41
0.7
 11
87.836198348
 21
125.5362951001
 31
-1.5
 73
     1
  0
TEXT
  5
271
  8
LEVEL0
 10
96.8875874089
 20
126.7727053169
 30
-1.5
 40
3.5
  1
 
 50
0.0
 41
0.7
 11
96.8875874089
 21
125.5362951001
 31
-1.5
 73
     1
  0
TEXT
  5
272
  8
LEVEL0
 10
98.180643122
 20
131.2983998473
 30
-1.5
 40
3.5
  1
+
 50
0.0
 41
0.7
 11
98.180643122
 21
130.0619896306
 31
-1.5
 73
     1
  0
TEXT
  5
273
  8
LEVEL0
 10
98.8198791885
 20
126.7727053169
 30
-1.5
 40
3.5
  1
-
 50
0.0
 41
0.7
 11
98.8198791885
 21
125.5362951001
 31
-1.5
 73
     1
  0
TEXT
  5
274
  8
LEVEL0
 10
101.0098101826
 20
131.2983998473
 30
-1.5
 40
3.5
  1
0.8
 50
0.0
 41
0.7
 11
101.0098101826
 21
130.0619896306
 31
-1.5
 73
     1
  0
TEXT
  5
275
  8
LEVEL0
 10
101.0098101826
 20
126.7727053169
 30
-1.5
 40
3.5
  1
0.2
 50
0.0
 41
0.7
 11
101.0098101826
 21
125.5362951001
 31
-1.5
 73
     1
  0
TEXT
  5
276
  8
LEVEL0
 10
113.4870666567
 20
126.8261774935
 30
-1.5
 40
3.5
  1
 
 50
0.0
 41
0.7
 11
113.4870666567
 21
125.5897672768
 31
-1.5
 73
     1
  0
ENDBLK
  5
25F
  8
0
  0
BLOCK
  8
0
  2
_D_1
 70
     0
 10
0.0
 20
0.0
 30
0.0
  3
_D_1
  1

  0
INSERT
  5
27B
  8
LEVEL0
  2
_CLOSED
 10
145.7244996509
 20
191.3966821052
 30
-1.5
 41
2.0
 42
2.0
 50
90.0
  0
INSERT
  5
27C
  8
LEVEL0
  2
_CLOSED
 10
145.7244996509
 20
102.5566821052
 30
-1.5
 41
2.0
 42
2.0
 50
270.0
  0
LINE
  5
27D
  8
LEVEL0
 10
126.9107843345
 20
135.6134587166
 30
0.0
 11
126.9107843345
 21
134.902521231
 31
0.0
  0
LINE
  5
27E
  8
LEVEL0
 10
126.9107843345
 20
134.902521231
 30
0.0
 11
135.9621733954
 21
134.902521231
 31
0.0
  0
LINE
  5
27F
  8
LEVEL0
 10
135.9621733954
 20
134.902521231
 30
0.0
 11
135.9621733954
 21
135.6134587166
 31
0.0
  0
LINE
  5
280
  8
LEVEL0
 10
126.9107843345
 20
164.7880253347
 30
0.0
 11
126.9107843345
 21
165.4989628203
 31
0.0
  0
LINE
  5
281
  8
LEVEL0
 10
126.9107843345
 20
165.4989628203
 30
0.0
 11
135.9621733954
 21
165.4989628203
 31
0.0
  0
LINE
  5
282
  8
LEVEL0
 10
135.9621733954
 20
165.4989628203
 30
0.0
 11
135.9621733954
 21
164.7880253347
 31
0.0
  0
LINE
  5
283
  8
LEVEL0
 10
145.7244996509
 20
191.3966821052
 30
0.0
 11
145.7244996509
 21
102.5566821052
 31
0.0
  0
TEXT
  5
284
  8
LEVEL0
 10
144.4346181888
 20
133.0762625055
 30
-1.5
 40
3.5
  1
 
 50
90.0
 41
0.7
 11
145.6710284055
 21
133.0762625055
 31
-1.5
 73
     1
  0
TEXT
  5
285
  8
LEVEL0
 10
134.6722910021
 20
136.5021306172
 30
-1.5
 40
3.5
  1
3.498
 50
90.0
 41
0.7
 11
135.9087012188
 21
136.5021306172
 31
-1.5
 73
     1
  0
TEXT
  5
286
  8
LEVEL0
 10
134.672291002
 20
148.1396311044
 30
-1.5
 40
3.5
  1
 
 50
90.0
 41
0.7
 11
135.9087012188
 21
148.1396311044
 31
-1.5
 73
     1
  0
TEXT
  5
287
  8
LEVEL0
 10
130.2000686483
 20
149.4326868176
 30
-1.5
 40
3.5
  1
+
 50
90.0
 41
0.7
 11
131.436478865
 21
149.4326868176
 31
-1.5
 73
     1
  0
TEXT
  5
288
  8
LEVEL0
 10
134.7257631787
 20
150.0719228841
 30
-1.5
 40
3.5
  1
-
 50
90.0
 41
0.7
 11
135.9621733954
 21
150.0719228841
 31
-1.5
 73
     1
  0
TEXT
  5
289
  8
LEVEL0
 10
130.2000686483
 20
152.2618538782
 30
-1.5
 40
3.5
  1
0.031
 50
90.0
 41
0.7
 11
131.436478865
 21
152.2618538782
 31
-1.5
 73
     1
  0
TEXT
  5
28A
  8
LEVEL0
 10
134.7257631787
 20
152.2618538782
 30
-1.5
 40
3.5
  1
0.008
 50
90.0
 41
0.7
 11
135.9621733954
 21
152.2618538782
 31
-1.5
 73
     1
  0
TEXT
  5
28B
  8
LEVEL0
 10
144.4880903655
 20
140.3812977567
 30
-1.5
 40
3.5
  1
88.8
 50
90.0
 41
0.7
 11
145.7245005822
 21
140.3812977567
 31
-1.5
 73
     1
  0
TEXT
  5
28C
  8
LEVEL0
 10
144.4880903655
 20
149.4326868176
 30
-1.5
 40
3.5
  1
 
 50
90.0
 41
0.7
 11
145.7245005822
 21
149.4326868176
 31
-1.5
 73
     1
  0
TEXT
  5
28D
  8
LEVEL0
 10
139.962395835
 20
150.7257425308
 30
-1.5
 40
3.5
  1
+
 50
90.0
 41
0.7
 11
141.1988060517
 21
150.7257425308
 31
-1.5
 73
     1
  0
TEXT
  5
28E
  8
LEVEL0
 10
144.4880903655
 20
151.3649785973
 30
-1.5
 40
3.5
  1
-
 50
90.0
 41
0.7
 11
145.7245005822
 21
151.3649785973
 31
-1.5
 73
     1
  0
TEXT
  5
28F
  8
LEVEL0
 10
139.962395835
 20
153.5549095913
 30
-1.5
 40
3.5
  1
0.8
 50
90.0
 41
0.7
 11
141.1988060517
 21
153.5549095913
 31
-1.5
 73
     1
  0
TEXT
  5
290
  8
LEVEL0
 10
144.4880903655
 20
153.5549095913
 30
-1.5
 40
3.5
  1
0.2
 50
90.0
 41
0.7
 11
145.7245005822
 21
153.5549095913
 31
-1.5
 73
     1
  0
TEXT
  5
291
  8
LEVEL0
 10
144.4346181888
 20
166.0321660654
 30
-1.5
 40
3.5
  1
 
 50
90.0
 41
0.7
 11
145.6710284055
 21
166.0321660654
 31
-1.5
 73
     1
  0
ENDBLK
  5
27A
  8
0
  0
ENDSEC
  0
SECTION
  2
ENTITIES
  0
LINE
  5
A9
  8
0
  6
CONTINUOUS
 62
     7
 10
42.8
 20
292.0
 30
0.0
 11
42.8
 21
268.0
 31
0.0
  0
LINE
  5
AA
  8
0
  6
CONTINUOUS
 62
     7
 10
12.8
 20
268.0
 30
0.0
 11
205.0
 21
268.0
 31
0.0
  0
LINE
  5
AB
  8
0
  6
CONTINUOUS
 62
     7
 10
42.8
 20
278.0
 30
0.0
 11
180.4248726022
 21
278.0
 31
0.0
  0
LINE
  5
AC
  8
0
  6
CONTINUOUS
 62
     7
 10
113.4615961302
 20
292.0
 30
0.0
 11
113.4615961302
 21
278.0
 31
0.0
  0
LINE
  5
AD
  8
0
  6
CONTINUOUS
 62
     7
 10
12.8
 20
5.0
 30
0.0
 11
205.0
 21
5.0
 31
0.0
  0
LINE
  5
AE
  8
0
  6
CONTINUOUS
 62
     7
 10
155.4473267752
 20
278.0
 30
0.0
 11
155.4473267752
 21
268.0
 31
0.0
  0
LINE
  5
AF
  8
0
  6
CONTINUOUS
 62
     7
 10
155.4473267752
 20
273.0
 30
0.0
 11
180.4248726022
 21
273.0
 31
0.0
  0
LINE
  5
B0
  8
0
  6
CONTINUOUS
 62
     7
 10
181.5094118155
 20
15.0
 30
0.0
 11
181.5094118155
 21
5.0
 31
0.0
  0
LINE
  5
B1
  8
0
  6
CONTINUOUS
 62
     7
 10
42.8
 20
8.6608213005
 30
0.0
 11
181.5094118155
 21
8.6608213005
 31
0.0
  0
LINE
  5
B2
  8
0
  6
CONTINUOUS
 62
     7
 10
80.1156862878
 20
15.0
 30
0.0
 11
80.1156862878
 21
8.6608213005
 31
0.0
  0
LINE
  5
B3
  8
0
  6
CONTINUOUS
 62
     7
 10
42.8
 20
15.0
 30
0.0
 11
42.8
 21
5.0
 31
0.0
  0
LINE
  5
B4
  8
0
  6
CONTINUOUS
 62
     7
 10
180.4248726022
 20
292.0
 30
0.0
 11
180.4248726022
 21
268.0
 31
0.0
  0
LINE
  5
B5
  8
0
  6
CONTINUOUS
 62
     7
 10
113.4615961302
 20
278.0
 30
0.0
 11
113.4615961302
 21
268.0
 31
0.0
  0
LINE
  5
B6
  8
LEVEL0
 10
113.4615961302
 20
285.0
 30
0.0
 11
180.4248726022
 21
285.0
 31
0.0
  0
LINE
  5
B7
  8
0
  6
CONTINUOUS
 62
     7
 10
12.8
 20
15.0
 30
0.0
 11
205.0
 21
15.0
 31
0.0
  0
LINE
  5
B8
  8
0
  6
CONTINUOUS
 62
     7
 10
12.8
 20
292.0
 30
0.0
 11
12.8
 21
5.0
 31
0.0
  0
LINE
  5
B9
  8
0
  6
CONTINUOUS
 62
     7
 10
205.0
 20
5.0
 30
0.0
 11
205.0
 21
292.0
 31
0.0
  0
LINE
  5
BA
  8
0
  6
CONTINUOUS
 62
     7
 10
205.0
 20
292.0
 30
0.0
 11
12.8
 21
292.0
 31
0.0
  0
TEXT
  5
BB
  8
LEVEL0
 10
33.653596926
 20
240.1381457288
 30
0.0
 40
5.0
  1
CUTTING TEMPLATE:
 41
0.7
 11
33.653596926
 21
238.3718454192
 31
0.0
 73
     1
  0
TEXT
  5
BC
  8
0
  6
CONTINUOUS
 62
     7
 10
170.0980061344
 20
274.8428363498
 30
0.0
 40
1.5875
  1
A
 41
0.7
 11
170.0980061344
 21
274.2820360015
 31
0.0
 73
     1
  0
TEXT
  5
BD
  8
0
  6
CONTINUOUS
 62
     7
 10
140.4765975439
 20
280.4497490796
 30
0.0
 40
2.6458333333
  1
507-SPC
 41
0.7
 11
140.4765975439
 21
279.5150818324
 31
0.0
 73
     1
  0
TEXT
  5
BE
  8
0
  6
CONTINUOUS
 62
     7
 10
184.0688595478
 20
9.1526715573
 30
0.0
 40
3.175
  1
SHEET 3/3
 41
0.7
 11
184.0688595478
 21
8.0310708607
 31
0.0
 73
     1
  0
TEXT
  5
BF
  8
0
  6
CONTINUOUS
 62
     7
 10
116.2525541477
 20
280.4497490214
 30
0.0
 40
2.6458333333
  1
DWG NO.
 41
0.7
 11
116.2525541477
 21
279.5150817742
 31
0.0
 73
     1
  0
TEXT
  5
C0
  8
0
  6
CONTINUOUS
 62
     7
 10
157.3443201828
 20
274.8428363498
 30
0.0
 40
1.5875
  1
REVISION
 41
0.7
 11
157.3443201828
 21
274.2820360015
 31
0.0
 73
     1
  0
INSERT
  5
C6
  8
0
  6
CONTINUOUS
 62
     7
  2
SW_NOTE_0
 10
43.9520812658
 20
12.0751158369
 30
0.0
  0
TEXT
  5
C7
  8
0
  6
CONTINUOUS
 62
     7
 10
134.6432078407
 20
286.9278877669
 30
0.0
 40
2.6458333333
  1
WALL-SMART 
 41
0.7
 11
134.6432078407
 21
285.9932205197
 31
0.0
 73
     1
  0
TEXT
  5
C8
  8
0
  6
CONTINUOUS
 62
     7
 10
45.1820877436
 20
284.4436303044
 30
0.0
 40
2.6458333333
  1
Model:
 41
0.7
 11
45.1820877436
 21
283.5089630572
 31
0.0
 73
     1
  0
TEXT
  5
C9
  8
0
  6
CONTINUOUS
 62
     7
 10
157.3443201828
 20
269.9249480082
 30
0.0
 40
1.5875
  1
DATE
 41
0.7
 11
157.3443201828
 21
269.3641476599
 31
0.0
 73
     1
  0
TEXT
  5
CA
  8
0
  6
CONTINUOUS
 62
     7
 10
164.1248947157
 20
269.9249480082
 30
0.0
 40
1.5875
  1
28/DEC./2015
 41
0.7
 11
164.1248947157
 21
269.3641476599
 31
0.0
 73
     1
  0
INSERT
  5
D0
  8
0
  6
CONTINUOUS
 62
     7
  2
SW_NOTE_1
 10
81.18189317
 20
11.6410186433
 30
0.0
  0
TEXT
  5
D1
  8
0
  6
CONTINUOUS
 62
     7
 10
153.3937671239
 20
9.9726575277
 30
0.0
 40
1.5875
  1
z
 41
0.7
 11
153.3937671239
 21
9.4118571794
 31
0.0
 73
     1
  0
TEXT
  5
D2
  8
0
  6
CONTINUOUS
 62
     7
 10
18.1023487411
 20
5.9192645127
 30
0.0
 40
1.5875
  1
www.wall-smart.com
 41
0.7
 11
18.1023487411
 21
5.3584641644
 31
0.0
 73
     1
  0
TEXT
  5
D3
  8
0
  6
CONTINUOUS
 62
     7
 10
115.4469512422
 20
271.2521669076
 30
0.0
 40
3.7041666667
  1
PRODUCT SPEC.
 41
0.7
 11
115.4469512422
 21
269.9436327616
 31
0.0
 73
     1
  0
TEXT
  5
D4
  8
LEVEL0
 10
45.1820877436
 20
271.1899202512
 30
0.0
 40
2.6458333333
  1
Model No.:
 41
0.7
 11
45.1820877436
 21
270.255253004
 31
0.0
 73
     1
  0
TEXT
  5
D5
  8
LEVEL0
 10
67.1632710216
 20
271.1587971267
 30
0.0
 40
2.1166666667
  1
507
 41
0.7
 11
67.1632710216
 21
270.411063329
 31
0.0
 73
     1
  0
TEXT
  5
D6
  8
0
  6
CONTINUOUS
 62
     7
 10
62.0559094545
 20
284.4125070635
 30
0.0
 40
2.1166666667
  1
WS for PALLADIOM 1G US SOLID.B
 41
0.6416666667
 11
62.0559094545
 21
283.6647732658
 31
0.0
 73
     1
  0
TEXT
  5
D7
  8
0
  6
CONTINUOUS
 62
     7
 10
116.2525541477
 20
286.9278877086
 30
0.0
 40
2.6458333333
  1
Family:
 41
0.7
 11
116.2525541477
 21
285.9932204615
 31
0.0
 73
     1
  0
TEXT
  5
D8
  8
LEVEL0
 10
43.9520812658
 20
6.3285029227
 30
0.0
 40
1.5875
  1
Phone: (201) 205-2056 / info@wall-smart.com    
 41
0.6404255319
 11
43.9520812658
 21
5.7677025744
 31
0.0
 73
     1
  0
INSERT
  5
DF
  8
LEVEL0
  2
SW_NOTE_2
 10
14.6631189528
 20
9.3685418519
 30
0.0
  0
POLYLINE
  5
E0
  8
0
  6
CONTINUOUS
 62
     7
 66
     1
 10
0.0
 20
0.0
 30
0.0
 70
   128
  0
VERTEX
  5
292
  8
0
  6
CONTINUOUS
 62
     7
 10
100.9145852701
 20
207.6841697743
 30
0.0
  0
VERTEX
  5
293
  8
0
  6
CONTINUOUS
 62
     7
 10
100.7324440447
 20
208.3395227428
 30
0.0
  0
VERTEX
  5
294
  8
0
  6
CONTINUOUS
 62
     7
 10
100.5186933501
 20
208.6085177438
 30
0.0
  0
VERTEX
  5
295
  8
0
  6
CONTINUOUS
 62
     7
 10
100.2402900932
 20
208.8093668602
 30
0.0
  0
VERTEX
  5
296
  8
0
  6
CONTINUOUS
 62
     7
 10
99.5777765497
 20
208.9811289269
 30
0.0
  0
VERTEX
  5
297
  8
0
  6
CONTINUOUS
 62
     7
 10
98.8905468085
 20
209.0126954153
 30
0.0
  0
SEQEND
  5
378
  8
0
  6
CONTINUOUS
 62
     7
  0
POLYLINE
  5
E1
  8
0
  6
CONTINUOUS
 62
     7
 66
     1
 10
0.0
 20
0.0
 30
0.0
 70
   128
  0
VERTEX
  5
298
  8
0
  6
CONTINUOUS
 62
     7
 10
98.8280468085
 20
206.3284005435
 30
0.0
  0
VERTEX
  5
299
  8
0
  6
CONTINUOUS
 62
     7
 10
99.5339226871
 20
206.3617840761
 30
0.0
  0
VERTEX
  5
29A
  8
0
  6
CONTINUOUS
 62
     7
 10
100.21482419
 20
206.5374871203
 30
0.0
  0
VERTEX
  5
29B
  8
0
  6
CONTINUOUS
 62
     7
 10
100.5052078295
 20
206.7374524912
 30
0.0
  0
VERTEX
  5
29C
  8
0
  6
CONTINUOUS
 62
     7
 10
100.7282245612
 20
207.0109068907
 30
0.0
  0
VERTEX
  5
29D
  8
0
  6
CONTINUOUS
 62
     7
 10
100.9145852701
 20
207.6841697743
 30
0.0
  0
SEQEND
  5
379
  8
0
  6
CONTINUOUS
 62
     7
  0
LINE
  5
E2
  8
0
  6
CONTINUOUS
 62
     7
 10
97.4274057829
 20
206.3460287486
 30
0.0
 11
98.8280468085
 21
206.3284005435
 31
0.0
  0
LINE
  5
E3
  8
0
  6
CONTINUOUS
 62
     7
 10
98.8905468085
 20
209.0126954153
 30
0.0
 11
97.4274057829
 21
209.0126954153
 31
0.0
  0
LINE
  5
E4
  8
0
  6
CONTINUOUS
 62
     7
 10
97.4274057829
 20
209.0126954153
 30
0.0
 11
97.4274057829
 21
206.3460287486
 31
0.0
  0
POLYLINE
  5
E5
  8
0
  6
CONTINUOUS
 62
     7
 66
     1
 10
0.0
 20
0.0
 30
0.0
 70
   128
  0
VERTEX
  5
29E
  8
0
  6
CONTINUOUS
 62
     7
 10
59.1172682485
 20
90.2317652488
 30
0.0
  0
VERTEX
  5
29F
  8
0
  6
CONTINUOUS
 62
     7
 10
59.0841719942
 20
90.469749901
 30
0.0
  0
VERTEX
  5
2A0
  8
0
  6
CONTINUOUS
 62
     7
 10
58.9824963409
 20
90.6874564784
 30
0.0
  0
VERTEX
  5
2A1
  8
0
  6
CONTINUOUS
 62
     7
 10
58.8269828727
 20
90.8706917168
 30
0.0
  0
VERTEX
  5
2A2
  8
0
  6
CONTINUOUS
 62
     7
 10
58.6276278165
 20
91.0048822275
 30
0.0
  0
VERTEX
  5
2A3
  8
0
  6
CONTINUOUS
 62
     7
 10
58.1615879461
 20
91.1169257369
 30
0.0
  0
VERTEX
  5
2A4
  8
0
  6
CONTINUOUS
 62
     7
 10
57.6805695306
 20
91.1374142873
 30
0.0
  0
SEQEND
  5
37A
  8
0
  6
CONTINUOUS
 62
     7
  0
POLYLINE
  5
E6
  8
0
  6
CONTINUOUS
 62
     7
 66
     1
 10
0.0
 20
0.0
 30
0.0
 70
   128
  0
VERTEX
  5
2A5
  8
0
  6
CONTINUOUS
 62
     7
 10
57.6563307485
 20
89.2963686142
 30
0.0
  0
VERTEX
  5
2A6
  8
0
  6
CONTINUOUS
 62
     7
 10
58.1475029986
 20
89.3196807542
 30
0.0
  0
VERTEX
  5
2A7
  8
0
  6
CONTINUOUS
 62
     7
 10
58.6215875258
 20
89.4414706439
 30
0.0
  0
VERTEX
  5
2A8
  8
0
  6
CONTINUOUS
 62
     7
 10
58.8264869999
 20
89.5765522059
 30
0.0
  0
VERTEX
  5
2A9
  8
0
  6
CONTINUOUS
 62
     7
 10
58.9845714692
 20
89.764376288
 30
0.0
  0
VERTEX
  5
2AA
  8
0
  6
CONTINUOUS
 62
     7
 10
59.1172682485
 20
90.2317652488
 30
0.0
  0
SEQEND
  5
37B
  8
0
  6
CONTINUOUS
 62
     7
  0
LINE
  5
E7
  8
0
  6
CONTINUOUS
 62
     7
 10
56.6493195306
 20
89.3040809539
 30
0.0
 11
57.6563307485
 21
89.2963686142
 31
0.0
  0
LINE
  5
E8
  8
0
  6
CONTINUOUS
 62
     7
 10
57.6805695306
 20
91.1374142873
 30
0.0
 11
56.6493195306
 21
91.1374142873
 31
0.0
  0
LINE
  5
E9
  8
0
  6
CONTINUOUS
 62
     7
 10
56.6493195306
 20
91.1374142873
 30
0.0
 11
56.6493195306
 21
89.3040809539
 31
0.0
  0
LINE
  5
EA
  8
0
  6
CONTINUOUS
 62
     7
 10
181.7390631203
 20
86.2015168514
 30
0.0
 11
179.1300887613
 21
86.2015168514
 31
0.0
  0
LINE
  5
EB
  8
0
  6
CONTINUOUS
 62
     7
 10
181.7390631203
 20
86.7656194155
 30
0.0
 11
181.7390631203
 21
86.2015168514
 31
0.0
  0
LINE
  5
EC
  8
0
  6
CONTINUOUS
 62
     7
 10
179.6236785049
 20
86.7656194155
 30
0.0
 11
181.7390631203
 21
86.7656194155
 31
0.0
  0
LINE
  5
ED
  8
0
  6
CONTINUOUS
 62
     7
 10
179.6236785049
 20
91.7015168514
 30
0.0
 11
179.6236785049
 21
86.7656194155
 31
0.0
  0
LINE
  5
EE
  8
0
  6
CONTINUOUS
 62
     7
 10
179.1300887613
 20
91.7015168514
 30
0.0
 11
179.6236785049
 21
91.7015168514
 31
0.0
  0
LINE
  5
EF
  8
0
  6
CONTINUOUS
 62
     7
 10
179.1300887613
 20
86.2015168514
 30
0.0
 11
179.1300887613
 21
91.7015168514
 31
0.0
  0
ARC
  5
F0
  8
0
  6
CONTINUOUS
 62
     7
 10
168.86406684
 20
88.9952783051
 30
0.0
 40
2.849387170292381
 50
87.7881171335
 51
180.2374840875
  0
ARC
  5
F1
  8
0
  6
CONTINUOUS
 62
     7
 10
168.9166146442
 20
88.9108637955
 30
0.0
 40
2.902818614157689
 50
178.5667906415
 51
220.5858111301
  0
ARC
  5
F2
  8
0
  6
CONTINUOUS
 62
     7
 10
168.8681302083
 20
88.9512316706
 30
0.0
 40
2.892929490184553
 50
221.8178048039
 51
272.2290609654
  0
ARC
  5
F3
  8
0
  6
CONTINUOUS
 62
     7
 10
169.06871494
 20
88.9367402036
 30
0.0
 40
2.877596873231913
 50
268.2462599427
 51
323.2259833906
  0
LINE
  5
F4
  8
0
  6
CONTINUOUS
 62
     7
 10
170.9417874793
 20
87.5412604411
 30
0.0
 11
171.3736785049
 21
87.2140368834
 31
0.0
  0
ARC
  5
F5
  8
0
  6
CONTINUOUS
 62
     7
 10
169.0085844561
 20
89.1209078273
 30
0.0
 40
2.496509522013182
 50
269.2830102311
 51
320.7472583009
  0
ARC
  5
F6
  8
0
  6
CONTINUOUS
 62
     7
 10
168.8481110494
 20
88.9608866636
 30
0.0
 40
2.339864465147135
 50
180.3643323163
 51
273.1661208158
  0
ARC
  5
F7
  8
0
  6
CONTINUOUS
 62
     7
 10
168.8488388928
 20
88.9397891404
 30
0.0
 40
2.340553265138221
 50
87.6897045619
 51
179.8477637875
  0
ARC
  5
F8
  8
0
  6
CONTINUOUS
 62
     7
 10
169.016187612
 20
88.8005032366
 30
0.0
 40
2.479011686134287
 50
39.0350252217
 51
91.687396493
  0
LINE
  5
F9
  8
0
  6
CONTINUOUS
 62
     7
 10
171.3736785049
 20
90.6923021078
 30
0.0
 11
170.9417874793
 21
90.3617732616
 31
0.0
  0
ARC
  5
FA
  8
0
  6
CONTINUOUS
 62
     7
 10
169.0713297661
 20
88.9673186398
 30
0.0
 40
2.87686942347879
 50
36.8415677305
 51
91.9380124231
  0
LINE
  5
FB
  8
0
  6
CONTINUOUS
 62
     7
 10
158.9634220947
 20
86.2015168514
 30
0.0
 11
155.8608579921
 21
86.2015168514
 31
0.0
  0
LINE
  5
FC
  8
0
  6
CONTINUOUS
 62
     7
 10
158.9634220947
 20
86.7656194155
 30
0.0
 11
158.9634220947
 21
86.2015168514
 31
0.0
  0
LINE
  5
FD
  8
0
  6
CONTINUOUS
 62
     7
 10
156.3544477357
 20
86.7656194155
 30
0.0
 11
158.9634220947
 21
86.7656194155
 31
0.0
  0
LINE
  5
FE
  8
0
  6
CONTINUOUS
 62
     7
 10
156.3544477357
 20
88.8810040308
 30
0.0
 11
156.3544477357
 21
86.7656194155
 31
0.0
  0
LINE
  5
FF
  8
0
  6
CONTINUOUS
 62
     7
 10
158.9634220947
 20
88.8810040308
 30
0.0
 11
156.3544477357
 21
88.8810040308
 31
0.0
  0
LINE
  5
100
  8
0
  6
CONTINUOUS
 62
     7
 10
158.9634220947
 20
89.445106595
 30
0.0
 11
158.9634220947
 21
88.8810040308
 31
0.0
  0
LINE
  5
101
  8
0
  6
CONTINUOUS
 62
     7
 10
156.3544477357
 20
89.445106595
 30
0.0
 11
158.9634220947
 21
89.445106595
 31
0.0
  0
LINE
  5
102
  8
0
  6
CONTINUOUS
 62
     7
 10
156.3544477357
 20
91.1374142873
 30
0.0
 11
156.3544477357
 21
89.445106595
 31
0.0
  0
LINE
  5
103
  8
0
  6
CONTINUOUS
 62
     7
 10
158.9634220947
 20
91.1374142873
 30
0.0
 11
156.3544477357
 21
91.1374142873
 31
0.0
  0
LINE
  5
104
  8
0
  6
CONTINUOUS
 62
     7
 10
158.9634220947
 20
91.7015168514
 30
0.0
 11
158.9634220947
 21
91.1374142873
 31
0.0
  0
LINE
  5
105
  8
0
  6
CONTINUOUS
 62
     7
 10
155.8608579921
 20
91.7015168514
 30
0.0
 11
158.9634220947
 21
91.7015168514
 31
0.0
  0
LINE
  5
106
  8
0
  6
CONTINUOUS
 62
     7
 10
155.8608579921
 20
86.2015168514
 30
0.0
 11
155.8608579921
 21
91.7015168514
 31
0.0
  0
LINE
  5
107
  8
0
  6
CONTINUOUS
 62
     7
 10
145.0018836331
 20
86.2015168514
 30
0.0
 11
147.6108579921
 21
91.7015168514
 31
0.0
  0
LINE
  5
108
  8
0
  6
CONTINUOUS
 62
     7
 10
145.5406456524
 20
86.2015168514
 30
0.0
 11
145.0018836331
 21
86.2015168514
 31
0.0
  0
LINE
  5
109
  8
0
  6
CONTINUOUS
 62
     7
 10
146.3768836331
 20
87.9643373642
 30
0.0
 11
145.5406456524
 21
86.2015168514
 31
0.0
  0
LINE
  5
10A
  8
0
  6
CONTINUOUS
 62
     7
 10
148.8701728959
 20
87.9643373642
 30
0.0
 11
146.3768836331
 21
87.9643373642
 31
0.0
  0
LINE
  5
10B
  8
0
  6
CONTINUOUS
 62
     7
 10
149.6832738575
 20
86.2015168514
 30
0.0
 11
148.8701728959
 21
87.9643373642
 31
0.0
  0
LINE
  5
10C
  8
0
  6
CONTINUOUS
 62
     7
 10
150.2198323511
 20
86.2015168514
 30
0.0
 11
149.6832738575
 21
86.2015168514
 31
0.0
  0
LINE
  5
10D
  8
0
  6
CONTINUOUS
 62
     7
 10
147.6813708126
 20
91.7015168514
 30
0.0
 11
150.2198323511
 21
86.2015168514
 31
0.0
  0
LINE
  5
10E
  8
0
  6
CONTINUOUS
 62
     7
 10
147.6108579921
 20
91.7015168514
 30
0.0
 11
147.6813708126
 21
91.7015168514
 31
0.0
  0
ARC
  5
10F
  8
0
  6
CONTINUOUS
 62
     7
 10
136.5100813303
 20
88.9917482227
 30
0.0
 40
2.851161472758274
 50
359.0586409382
 51
90.919569452
  0
ARC
  5
110
  8
0
  6
CONTINUOUS
 62
     7
 10
136.4483842071
 20
88.9726505757
 30
0.0
 40
2.869936179740686
 50
89.681783507
 51
180.9058603623
  0
ARC
  5
111
  8
0
  6
CONTINUOUS
 62
     7
 10
136.4312909771
 20
88.9125032116
 30
0.0
 40
2.852522531071378
 50
179.7032308191
 51
271.0840270477
  0
POLYLINE
  5
112
  8
0
  6
CONTINUOUS
 62
     7
 66
     1
 10
0.0
 20
0.0
 30
0.0
 70
   128
  0
VERTEX
  5
2AB
  8
0
  6
CONTINUOUS
 62
     7
 10
138.0640831524
 20
86.5254351206
 30
0.0
  0
VERTEX
  5
2AC
  8
0
  6
CONTINUOUS
 62
     7
 10
137.2117693684
 20
86.1517414437
 30
0.0
  0
VERTEX
  5
2AD
  8
0
  6
CONTINUOUS
 62
     7
 10
136.4852570306
 20
86.0604912103
 30
0.0
  0
SEQEND
  5
37C
  8
0
  6
CONTINUOUS
 62
     7
  0
LINE
  5
113
  8
0
  6
CONTINUOUS
 62
     7
 10
138.6744597549
 20
85.7784399283
 30
0.0
 11
138.0640831524
 21
86.5254351206
 31
0.0
  0
LINE
  5
114
  8
0
  6
CONTINUOUS
 62
     7
 10
139.2903451716
 20
85.7784399283
 30
0.0
 11
138.6744597549
 21
85.7784399283
 31
0.0
  0
LINE
  5
115
  8
0
  6
CONTINUOUS
 62
     7
 10
138.4452930883
 20
86.8140969796
 30
0.0
 11
139.2903451716
 21
85.7784399283
 31
0.0
  0
ARC
  5
116
  8
0
  6
CONTINUOUS
 62
     7
 10
136.5324352143
 20
88.8981169894
 30
0.0
 40
2.828809758017066
 50
312.5478661197
 51
0.94773104
  0
LINE
  5
117
  8
0
  6
CONTINUOUS
 62
     7
 10
121.6973964536
 20
90.1678630052
 30
0.0
 11
121.1718555883
 21
86.2015168514
 31
0.0
  0
LINE
  5
118
  8
0
  6
CONTINUOUS
 62
     7
 10
123.6904853959
 20
86.2015168514
 30
0.0
 11
121.6973964536
 21
90.1678630052
 31
0.0
  0
LINE
  5
119
  8
0
  6
CONTINUOUS
 62
     7
 10
123.8017634408
 20
86.2015168514
 30
0.0
 11
123.6904853959
 21
86.2015168514
 31
0.0
  0
LINE
  5
11A
  8
0
  6
CONTINUOUS
 62
     7
 10
125.7871400434
 20
90.1590489026
 30
0.0
 11
123.8017634408
 21
86.2015168514
 31
0.0
  0
LINE
  5
11B
  8
0
  6
CONTINUOUS
 62
     7
 10
126.3137826716
 20
86.2015168514
 30
0.0
 11
125.7871400434
 21
90.1590489026
 31
0.0
  0
LINE
  5
11C
  8
0
  6
CONTINUOUS
 62
     7
 10
126.8095759408
 20
86.2015168514
 30
0.0
 11
126.3137826716
 21
86.2015168514
 31
0.0
  0
LINE
  5
11D
  8
0
  6
CONTINUOUS
 62
     7
 10
126.0791071908
 20
91.7015168514
 30
0.0
 11
126.8095759408
 21
86.2015168514
 31
0.0
  0
LINE
  5
11E
  8
0
  6
CONTINUOUS
 62
     7
 10
126.0074926075
 20
91.7015168514
 30
0.0
 11
126.0791071908
 21
91.7015168514
 31
0.0
  0
LINE
  5
11F
  8
0
  6
CONTINUOUS
 62
     7
 10
123.7422682485
 20
87.1886963385
 30
0.0
 11
126.0074926075
 21
91.7015168514
 31
0.0
  0
LINE
  5
120
  8
0
  6
CONTINUOUS
 62
     7
 10
121.4715350754
 20
91.7015168514
 30
0.0
 11
123.7422682485
 21
87.1886963385
 31
0.0
  0
LINE
  5
121
  8
0
  6
CONTINUOUS
 62
     7
 10
121.4010222549
 20
91.7015168514
 30
0.0
 11
121.4715350754
 21
91.7015168514
 31
0.0
  0
LINE
  5
122
  8
0
  6
CONTINUOUS
 62
     7
 10
120.6749605562
 20
86.2015168514
 30
0.0
 11
121.4010222549
 21
91.7015168514
 31
0.0
  0
LINE
  5
123
  8
0
  6
CONTINUOUS
 62
     7
 10
121.1718555883
 20
86.2015168514
 30
0.0
 11
120.6749605562
 21
86.2015168514
 31
0.0
  0
LINE
  5
124
  8
0
  6
CONTINUOUS
 62
     7
 10
112.9185502998
 20
86.2015168514
 30
0.0
 11
112.4249605562
 21
86.2015168514
 31
0.0
  0
LINE
  5
125
  8
0
  6
CONTINUOUS
 62
     7
 10
112.9185502998
 20
91.7015168514
 30
0.0
 11
112.9185502998
 21
86.2015168514
 31
0.0
  0
LINE
  5
126
  8
0
  6
CONTINUOUS
 62
     7
 10
112.4249605562
 20
91.7015168514
 30
0.0
 11
112.9185502998
 21
91.7015168514
 31
0.0
  0
LINE
  5
127
  8
0
  6
CONTINUOUS
 62
     7
 10
112.4249605562
 20
86.2015168514
 30
0.0
 11
112.4249605562
 21
91.7015168514
 31
0.0
  0
LINE
  5
128
  8
0
  6
CONTINUOUS
 62
     7
 10
100.57880671
 20
86.2015168514
 30
0.0
 11
103.187781069
 21
91.7015168514
 31
0.0
  0
LINE
  5
129
  8
0
  6
CONTINUOUS
 62
     7
 10
101.1175687293
 20
86.2015168514
 30
0.0
 11
100.57880671
 21
86.2015168514
 31
0.0
  0
LINE
  5
12A
  8
0
  6
CONTINUOUS
 62
     7
 10
101.95380671
 20
87.9643373642
 30
0.0
 11
101.1175687293
 21
86.2015168514
 31
0.0
  0
LINE
  5
12B
  8
0
  6
CONTINUOUS
 62
     7
 10
104.4470959729
 20
87.9643373642
 30
0.0
 11
101.95380671
 21
87.9643373642
 31
0.0
  0
LINE
  5
12C
  8
0
  6
CONTINUOUS
 62
     7
 10
105.2601969344
 20
86.2015168514
 30
0.0
 11
104.4470959729
 21
87.9643373642
 31
0.0
  0
LINE
  5
12D
  8
0
  6
CONTINUOUS
 62
     7
 10
105.796755428
 20
86.2015168514
 30
0.0
 11
105.2601969344
 21
86.2015168514
 31
0.0
  0
LINE
  5
12E
  8
0
  6
CONTINUOUS
 62
     7
 10
103.2582938895
 20
91.7015168514
 30
0.0
 11
105.796755428
 21
86.2015168514
 31
0.0
  0
LINE
  5
12F
  8
0
  6
CONTINUOUS
 62
     7
 10
103.187781069
 20
91.7015168514
 30
0.0
 11
103.2582938895
 21
91.7015168514
 31
0.0
  0
LINE
  5
130
  8
0
  6
CONTINUOUS
 62
     7
 10
96.5595759408
 20
86.2015168514
 30
0.0
 11
93.9506015818
 21
86.2015168514
 31
0.0
  0
LINE
  5
131
  8
0
  6
CONTINUOUS
 62
     7
 10
96.5595759408
 20
86.7656194155
 30
0.0
 11
96.5595759408
 21
86.2015168514
 31
0.0
  0
LINE
  5
132
  8
0
  6
CONTINUOUS
 62
     7
 10
94.4441913254
 20
86.7656194155
 30
0.0
 11
96.5595759408
 21
86.7656194155
 31
0.0
  0
LINE
  5
133
  8
0
  6
CONTINUOUS
 62
     7
 10
94.4441913254
 20
91.7015168514
 30
0.0
 11
94.4441913254
 21
86.7656194155
 31
0.0
  0
LINE
  5
134
  8
0
  6
CONTINUOUS
 62
     7
 10
93.9506015818
 20
91.7015168514
 30
0.0
 11
94.4441913254
 21
91.7015168514
 31
0.0
  0
LINE
  5
135
  8
0
  6
CONTINUOUS
 62
     7
 10
93.9506015818
 20
86.2015168514
 30
0.0
 11
93.9506015818
 21
91.7015168514
 31
0.0
  0
LINE
  5
136
  8
0
  6
CONTINUOUS
 62
     7
 10
84.1493195306
 20
86.2015168514
 30
0.0
 11
83.655729787
 21
86.2015168514
 31
0.0
  0
LINE
  5
137
  8
0
  6
CONTINUOUS
 62
     7
 10
84.1493195306
 20
88.7399783898
 30
0.0
 11
84.1493195306
 21
86.2015168514
 31
0.0
  0
LINE
  5
138
  8
0
  6
CONTINUOUS
 62
     7
 10
84.5426488575
 20
88.7399783898
 30
0.0
 11
84.1493195306
 21
88.7399783898
 31
0.0
  0
POLYLINE
  5
139
  8
0
  6
CONTINUOUS
 62
     7
 66
     1
 10
0.0
 20
0.0
 30
0.0
 70
   128
  0
VERTEX
  5
2AE
  8
0
  6
CONTINUOUS
 62
     7
 10
85.9429894024
 20
88.8303229411
 30
0.0
  0
VERTEX
  5
2AF
  8
0
  6
CONTINUOUS
 62
     7
 10
85.1609596305
 20
88.7506151483
 30
0.0
  0
VERTEX
  5
2B0
  8
0
  6
CONTINUOUS
 62
     7
 10
84.5426488575
 20
88.7399783898
 30
0.0
  0
SEQEND
  5
37D
  8
0
  6
CONTINUOUS
 62
     7
  0
ARC
  5
13A
  8
0
  6
CONTINUOUS
 62
     7
 10
85.6808083321
 20
90.1657131441
 30
0.0
 40
1.360884237491612
 50
281.1077641283
 51
2.5498276925
  0
POLYLINE
  5
13B
  8
0
  6
CONTINUOUS
 62
     7
 66
     1
 10
0.0
 20
0.0
 30
0.0
 70
   128
  0
VERTEX
  5
2B1
  8
0
  6
CONTINUOUS
 62
     7
 10
84.7343555883
 20
91.7015168514
 30
0.0
  0
VERTEX
  5
2B2
  8
0
  6
CONTINUOUS
 62
     7
 10
85.4383914505
 20
91.6848661805
 30
0.0
  0
VERTEX
  5
2B3
  8
0
  6
CONTINUOUS
 62
     7
 10
85.9870599152
 20
91.6188846398
 30
0.0
  0
SEQEND
  5
37E
  8
0
  6
CONTINUOUS
 62
     7
  0
LINE
  5
13C
  8
0
  6
CONTINUOUS
 62
     7
 10
83.655729787
 20
91.7015168514
 30
0.0
 11
84.7343555883
 21
91.7015168514
 31
0.0
  0
LINE
  5
13D
  8
0
  6
CONTINUOUS
 62
     7
 10
83.655729787
 20
86.2015168514
 30
0.0
 11
83.655729787
 21
91.7015168514
 31
0.0
  0
ARC
  5
13E
  8
0
  6
CONTINUOUS
 62
     7
 10
72.8254343029
 20
88.9092894975
 30
0.0
 40
2.849248480895757
 50
179.6382638802
 51
271.0185395445
  0
ARC
  5
13F
  8
0
  6
CONTINUOUS
 62
     7
 10
72.9064828047
 20
88.9124390403
 30
0.0
 40
2.852109852752986
 50
269.3892764432
 51
0.8293260368
  0
ARC
  5
140
  8
0
  6
CONTINUOUS
 62
     7
 10
72.9037999009
 20
88.9887365187
 30
0.0
 40
2.854708752485604
 50
359.2971866415
 51
91.4409829523
  0
ARC
  5
141
  8
0
  6
CONTINUOUS
 62
     7
 10
72.8416236579
 20
88.9767505078
 30
0.0
 40
2.865808103506875
 50
90.1921683904
 51
180.9891460389
  0
LINE
  5
142
  8
0
  6
CONTINUOUS
 62
     7
 10
61.3031656844
 20
86.2015168514
 30
0.0
 11
60.8095759408
 21
86.2015168514
 31
0.0
  0
LINE
  5
143
  8
0
  6
CONTINUOUS
 62
     7
 10
61.3031656844
 20
88.8810040308
 30
0.0
 11
61.3031656844
 21
86.2015168514
 31
0.0
  0
LINE
  5
144
  8
0
  6
CONTINUOUS
 62
     7
 10
63.4890631203
 20
88.8810040308
 30
0.0
 11
61.3031656844
 21
88.8810040308
 31
0.0
  0
LINE
  5
145
  8
0
  6
CONTINUOUS
 62
     7
 10
63.4890631203
 20
89.445106595
 30
0.0
 11
63.4890631203
 21
88.8810040308
 31
0.0
  0
LINE
  5
146
  8
0
  6
CONTINUOUS
 62
     7
 10
61.3031656844
 20
89.445106595
 30
0.0
 11
63.4890631203
 21
89.445106595
 31
0.0
  0
LINE
  5
147
  8
0
  6
CONTINUOUS
 62
     7
 10
61.3031656844
 20
91.1374142873
 30
0.0
 11
61.3031656844
 21
89.445106595
 31
0.0
  0
LINE
  5
148
  8
0
  6
CONTINUOUS
 62
     7
 10
63.4890631203
 20
91.1374142873
 30
0.0
 11
61.3031656844
 21
91.1374142873
 31
0.0
  0
LINE
  5
149
  8
0
  6
CONTINUOUS
 62
     7
 10
63.4890631203
 20
91.7015168514
 30
0.0
 11
63.4890631203
 21
91.1374142873
 31
0.0
  0
LINE
  5
14A
  8
0
  6
CONTINUOUS
 62
     7
 10
60.8095759408
 20
91.7015168514
 30
0.0
 11
63.4890631203
 21
91.7015168514
 31
0.0
  0
LINE
  5
14B
  8
0
  6
CONTINUOUS
 62
     7
 10
60.8095759408
 20
86.2015168514
 30
0.0
 11
60.8095759408
 21
91.7015168514
 31
0.0
  0
ARC
  5
14C
  8
0
  6
CONTINUOUS
 62
     7
 10
51.3809907321
 20
87.5917155569
 30
0.0
 40
1.531745787812249
 50
268.504937706
 51
358.4009757834
  0
ARC
  5
14D
  8
0
  6
CONTINUOUS
 62
     7
 10
50.50942333
 20
87.1554128844
 30
0.0
 40
2.434735508554022
 50
9.3023210632
 51
62.9551751299
  0
POLYLINE
  5
14E
  8
0
  6
CONTINUOUS
 62
     7
 66
     1
 10
0.0
 20
0.0
 30
0.0
 70
   128
  0
VERTEX
  5
2B4
  8
0
  6
CONTINUOUS
 62
     7
 10
50.8771841139
 20
89.8714888065
 30
0.0
  0
VERTEX
  5
2B5
  8
0
  6
CONTINUOUS
 62
     7
 10
51.2868940929
 20
89.5591795976
 30
0.0
  0
VERTEX
  5
2B6
  8
0
  6
CONTINUOUS
 62
     7
 10
51.6164669665
 20
89.3239126847
 30
0.0
  0
SEQEND
  5
37F
  8
0
  6
CONTINUOUS
 62
     7
  0
ARC
  5
14F
  8
0
  6
CONTINUOUS
 62
     7
 10
51.4514430074
 20
90.6121703094
 30
0.0
 40
0.937220553314481
 50
181.8370458065
 51
232.213166648
  0
ARC
  5
150
  8
0
  6
CONTINUOUS
 62
     7
 10
51.2480454965
 20
90.5479563139
 30
0.0
 40
0.7341369708921869
 50
84.2815888554
 51
177.3322738918
  0
ARC
  5
151
  8
0
  6
CONTINUOUS
 62
     7
 10
51.1927594921
 20
89.9119605083
 30
0.0
 40
1.37250193599281
 50
28.8068298205
 51
84.6305591338
  0
LINE
  5
152
  8
0
  6
CONTINUOUS
 62
     7
 10
52.8416272229
 20
90.9115529091
 30
0.0
 11
52.3954132806
 21
90.5733117232
 31
0.0
  0
ARC
  5
153
  8
0
  6
CONTINUOUS
 62
     7
 10
51.2929785493
 20
90.09272982
 30
0.0
 40
1.751794498613012
 50
27.8669273328
 51
87.2743519006
  0
ARC
  5
154
  8
0
  6
CONTINUOUS
 62
     7
 10
51.322079156
 20
90.5426041375
 30
0.0
 40
1.3010679258524
 50
87.6123216292
 51
179.2784410561
  0
POLYLINE
  5
155
  8
0
  6
CONTINUOUS
 62
     7
 66
     1
 10
0.0
 20
0.0
 30
0.0
 70
   128
  0
VERTEX
  5
2B7
  8
0
  6
CONTINUOUS
 62
     7
 10
50.3285062293
 20
89.7216490629
 30
0.0
  0
VERTEX
  5
2B8
  8
0
  6
CONTINUOUS
 62
     7
 10
50.0838744331
 20
90.1655016814
 30
0.0
  0
VERTEX
  5
2B9
  8
0
  6
CONTINUOUS
 62
     7
 10
50.0211144024
 20
90.5589888065
 30
0.0
  0
SEQEND
  5
380
  8
0
  6
CONTINUOUS
 62
     7
  0
POLYLINE
  5
156
  8
0
  6
CONTINUOUS
 62
     7
 66
     1
 10
0.0
 20
0.0
 30
0.0
 70
   128
  0
VERTEX
  5
2BA
  8
0
  6
CONTINUOUS
 62
     7
 10
51.2297482165
 20
88.9735521078
 30
0.0
  0
VERTEX
  5
2BB
  8
0
  6
CONTINUOUS
 62
     7
 10
50.7046016396
 20
89.3689245003
 30
0.0
  0
VERTEX
  5
2BC
  8
0
  6
CONTINUOUS
 62
     7
 10
50.3285062293
 20
89.7216490629
 30
0.0
  0
SEQEND
  5
381
  8
0
  6
CONTINUOUS
 62
     7
  0
POLYLINE
  5
157
  8
0
  6
CONTINUOUS
 62
     7
 66
     1
 10
0.0
 20
0.0
 30
0.0
 70
   128
  0
VERTEX
  5
2BD
  8
0
  6
CONTINUOUS
 62
     7
 10
52.2213347549
 20
88.0965489026
 30
0.0
  0
VERTEX
  5
2BE
  8
0
  6
CONTINUOUS
 62
     7
 10
51.6949002364
 20
88.6198003263
 30
0.0
  0
VERTEX
  5
2BF
  8
0
  6
CONTINUOUS
 62
     7
 10
51.2297482165
 20
88.9735521078
 30
0.0
  0
SEQEND
  5
382
  8
0
  6
CONTINUOUS
 62
     7
  0
POLYLINE
  5
158
  8
0
  6
CONTINUOUS
 62
     7
 66
     1
 10
0.0
 20
0.0
 30
0.0
 70
   128
  0
VERTEX
  5
2C0
  8
0
  6
CONTINUOUS
 62
     7
 10
52.4185502998
 20
87.5566851206
 30
0.0
  0
VERTEX
  5
2C1
  8
0
  6
CONTINUOUS
 62
     7
 10
52.3509418437
 20
87.8749641402
 30
0.0
  0
VERTEX
  5
2C2
  8
0
  6
CONTINUOUS
 62
     7
 10
52.2213347549
 20
88.0965489026
 30
0.0
  0
SEQEND
  5
383
  8
0
  6
CONTINUOUS
 62
     7
  0
ARC
  5
159
  8
0
  6
CONTINUOUS
 62
     7
 10
51.4209177828
 20
87.6211067605
 30
0.0
 40
0.9997103513329599
 50
265.4163390921
 51
356.3052823965
  0
POLYLINE
  5
15A
  8
0
  6
CONTINUOUS
 62
     7
 66
     1
 10
0.0
 20
0.0
 30
0.0
 70
   128
  0
VERTEX
  5
2C3
  8
0
  6
CONTINUOUS
 62
     7
 10
50.13349421
 20
87.5412604411
 30
0.0
  0
VERTEX
  5
2C4
  8
0
  6
CONTINUOUS
 62
     7
 10
50.6935535218
 20
86.8559994921
 30
0.0
  0
VERTEX
  5
2C5
  8
0
  6
CONTINUOUS
 62
     7
 10
50.9979649809
 20
86.6856467739
 30
0.0
  0
VERTEX
  5
2C6
  8
0
  6
CONTINUOUS
 62
     7
 10
51.3410262613
 20
86.6245937744
 30
0.0
  0
SEQEND
  5
384
  8
0
  6
CONTINUOUS
 62
     7
  0
LINE
  5
15B
  8
0
  6
CONTINUOUS
 62
     7
 10
49.6685502998
 20
87.2625144475
 30
0.0
 11
50.13349421
 21
87.5412604411
 31
0.0
  0
ARC
  5
15C
  8
0
  6
CONTINUOUS
 62
     7
 10
51.4035953071
 20
87.9120885909
 30
0.0
 40
1.852654243267021
 50
200.5251266023
 51
268.064601581
  0
LINE
  5
15D
  8
0
  6
CONTINUOUS
 62
     7
 10
97.4274057829
 20
201.8332082358
 30
0.0
 11
96.7094570649
 21
201.8332082358
 31
0.0
  0
LINE
  5
15E
  8
0
  6
CONTINUOUS
 62
     7
 10
97.4274057829
 20
205.5255159281
 30
0.0
 11
97.4274057829
 21
201.8332082358
 31
0.0
  0
LINE
  5
15F
  8
0
  6
CONTINUOUS
 62
     7
 10
97.9995211675
 20
205.5255159281
 30
0.0
 11
97.4274057829
 21
205.5255159281
 31
0.0
  0
POLYLINE
  5
160
  8
0
  6
CONTINUOUS
 62
     7
 66
     1
 10
0.0
 20
0.0
 30
0.0
 70
   128
  0
VERTEX
  5
2C7
  8
0
  6
CONTINUOUS
 62
     7
 10
100.0363801419
 20
205.6569261845
 30
0.0
  0
VERTEX
  5
2C8
  8
0
  6
CONTINUOUS
 62
     7
 10
98.8988822919
 20
205.5409875768
 30
0.0
  0
VERTEX
  5
2C9
  8
0
  6
CONTINUOUS
 62
     7
 10
97.9995211675
 20
205.5255159281
 30
0.0
  0
SEQEND
  5
385
  8
0
  6
CONTINUOUS
 62
     7
  0
ARC
  5
161
  8
0
  6
CONTINUOUS
 62
     7
 10
99.6550258579
 20
207.5993119344
 30
0.0
 40
1.979467981806079
 50
281.1077641283
 51
2.5498276925
  0
ARC
  5
162
  8
0
  6
CONTINUOUS
 62
     7
 10
99.6375477565
 20
207.7706967409
 30
0.0
 40
1.996725467492565
 50
357.6083961662
 51
76.5941590896
  0
POLYLINE
  5
163
  8
0
  6
CONTINUOUS
 62
     7
 66
     1
 10
0.0
 20
0.0
 30
0.0
 70
   128
  0
VERTEX
  5
2CA
  8
0
  6
CONTINUOUS
 62
     7
 10
98.2783673213
 20
209.8332082358
 30
0.0
  0
VERTEX
  5
2CB
  8
0
  6
CONTINUOUS
 62
     7
 10
99.3024194846
 20
209.8089890783
 30
0.0
  0
VERTEX
  5
2CC
  8
0
  6
CONTINUOUS
 62
     7
 10
100.100482706
 20
209.7130159281
 30
0.0
  0
SEQEND
  5
386
  8
0
  6
CONTINUOUS
 62
     7
  0
LINE
  5
164
  8
0
  6
CONTINUOUS
 62
     7
 10
96.7094570649
 20
209.8332082358
 30
0.0
 11
98.2783673213
 21
209.8332082358
 31
0.0
  0
LINE
  5
165
  8
0
  6
CONTINUOUS
 62
     7
 10
96.7094570649
 20
201.8332082358
 30
0.0
 11
96.7094570649
 21
209.8332082358
 31
0.0
  0
LINE
  5
166
  8
0
  6
CONTINUOUS
 62
     7
 10
62.2639442444
 20
209.0126954153
 30
0.0
 11
58.5556109111
 21
209.0126954153
 31
0.0
  0
LINE
  5
167
  8
0
  6
CONTINUOUS
 62
     7
 10
58.6533673213
 20
201.9694261845
 30
0.0
 11
62.2639442444
 21
209.0126954153
 31
0.0
  0
LINE
  5
168
  8
0
  6
CONTINUOUS
 62
     7
 10
59.273559629
 20
201.6280800307
 30
0.0
 11
58.6533673213
 21
201.9694261845
 31
0.0
  0
LINE
  5
169
  8
0
  6
CONTINUOUS
 62
     7
 10
63.4786878342
 20
209.8332082358
 30
0.0
 11
59.273559629
 21
201.6280800307
 31
0.0
  0
LINE
  5
16A
  8
0
  6
CONTINUOUS
 62
     7
 10
58.5556109111
 20
209.8332082358
 30
0.0
 11
63.4786878342
 21
209.8332082358
 31
0.0
  0
LINE
  5
16B
  8
0
  6
CONTINUOUS
 62
     7
 10
58.5556109111
 20
209.0126954153
 30
0.0
 11
58.5556109111
 21
209.8332082358
 31
0.0
  0
LINE
  5
16C
  8
0
  6
CONTINUOUS
 62
     7
 10
46.6581750137
 20
205.8332082358
 30
0.0
 11
47.4786878342
 21
209.8332082358
 31
0.0
  0
POLYLINE
  5
16D
  8
0
  6
CONTINUOUS
 62
     7
 66
     1
 10
0.0
 20
0.0
 30
0.0
 70
   128
  0
VERTEX
  5
2CD
  8
0
  6
CONTINUOUS
 62
     7
 10
48.4209955265
 20
206.2434646461
 30
0.0
  0
VERTEX
  5
2CE
  8
0
  6
CONTINUOUS
 62
     7
 10
47.4163364842
 20
206.0899004854
 30
0.0
  0
VERTEX
  5
2CF
  8
0
  6
CONTINUOUS
 62
     7
 10
46.6581750137
 20
205.8332082358
 30
0.0
  0
SEQEND
  5
387
  8
0
  6
CONTINUOUS
 62
     7
  0
ARC
  5
16E
  8
0
  6
CONTINUOUS
 62
     7
 10
48.5800379776
 20
204.4801758085
 30
0.0
 40
1.770446843633559
 50
359.9114306381
 51
95.1539315381
  0
ARC
  5
16F
  8
0
  6
CONTINUOUS
 62
     7
 10
48.3508428763
 20
204.4482089782
 30
0.0
 40
1.99985345536515
 50
269.1172907718
 51
0.8374697679
  0
ARC
  5
170
  8
0
  6
CONTINUOUS
 62
     7
 10
48.2686820324
 20
204.1874973736
 30
0.0
 40
1.739662599836962
 50
190.0306970487
 51
271.6915221213
  0
LINE
  5
171
  8
0
  6
CONTINUOUS
 62
     7
 10
45.8376621931
 20
203.8844902871
 30
0.0
 11
46.5556109111
 21
203.8844902871
 31
0.0
  0
ARC
  5
172
  8
0
  6
CONTINUOUS
 62
     7
 10
48.2812094443
 20
204.079385662
 30
0.0
 40
2.451307278939625
 50
184.5602119353
 51
269.9335694518
  0
ARC
  5
173
  8
0
  6
CONTINUOUS
 62
     7
 10
48.350437799
 20
204.3469587516
 30
0.0
 40
2.719833754642554
 50
268.4815919058
 51
2.1077309164
  0
ARC
  5
174
  8
0
  6
CONTINUOUS
 62
     7
 10
48.5834252015
 20
204.5758465098
 30
0.0
 40
2.488344801608947
 50
357.0316728818
 51
90.7511641758
  0
POLYLINE
  5
175
  8
0
  6
CONTINUOUS
 62
     7
 66
     1
 10
0.0
 20
0.0
 30
0.0
 70
   128
  0
VERTEX
  5
2D0
  8
0
  6
CONTINUOUS
 62
     7
 10
47.6084955265
 20
206.9085287486
 30
0.0
  0
VERTEX
  5
2D1
  8
0
  6
CONTINUOUS
 62
     7
 10
48.1309264437
 20
207.0297217829
 30
0.0
  0
VERTEX
  5
2D2
  8
0
  6
CONTINUOUS
 62
     7
 10
48.5508032188
 20
207.0639774666
 30
0.0
  0
SEQEND
  5
388
  8
0
  6
CONTINUOUS
 62
     7
  0
LINE
  5
176
  8
0
  6
CONTINUOUS
 62
     7
 10
48.0395852701
 20
209.0126954153
 30
0.0
 11
47.6084955265
 21
206.9085287486
 31
0.0
  0
LINE
  5
177
  8
0
  6
CONTINUOUS
 62
     7
 10
50.7607391162
 20
209.0126954153
 30
0.0
 11
48.0395852701
 21
209.0126954153
 31
0.0
  0
LINE
  5
178
  8
0
  6
CONTINUOUS
 62
     7
 10
50.7607391162
 20
209.8332082358
 30
0.0
 11
50.7607391162
 21
209.0126954153
 31
0.0
  0
LINE
  5
179
  8
0
  6
CONTINUOUS
 62
     7
 10
47.4786878342
 20
209.8332082358
 30
0.0
 11
50.7607391162
 21
209.8332082358
 31
0.0
  0
LINE
  5
17A
  8
0
  6
CONTINUOUS
 62
     7
 10
63.1623700202
 20
191.3966821052
 30
0.0
 11
159.6623700202
 21
191.3966821052
 31
0.0
  0
LINE
  5
17B
  8
0
  6
CONTINUOUS
 62
     7
 10
63.1623700202
 20
102.5566821052
 30
0.0
 11
63.1623700202
 21
191.3966821052
 31
0.0
  0
LINE
  5
17C
  8
0
  6
CONTINUOUS
 62
     7
 10
159.6623700202
 20
102.5566821052
 30
0.0
 11
63.1623700202
 21
102.5566821052
 31
0.0
  0
LINE
  5
17D
  8
0
  6
CONTINUOUS
 62
     7
 10
159.6623700202
 20
191.3966821052
 30
0.0
 11
159.6623700202
 21
102.5566821052
 31
0.0
  0
LINE
  5
17E
  8
0
  6
CONTINUOUS
 62
     7
 10
33.6623700202
 20
73.0566821052
 30
0.0
 11
33.6623700202
 21
220.8966821052
 31
0.0
  0
LINE
  5
17F
  8
0
  6
CONTINUOUS
 62
     7
 10
33.6623700202
 20
220.8966821052
 30
0.0
 11
189.1623700202
 21
220.8966821052
 31
0.0
  0
LINE
  5
180
  8
0
  6
CONTINUOUS
 62
     7
 10
189.1623700202
 20
220.8966821052
 30
0.0
 11
189.1623700202
 21
73.0566821052
 31
0.0
  0
LINE
  5
181
  8
0
  6
CONTINUOUS
 62
     7
 10
189.1623700202
 20
73.0566821052
 30
0.0
 11
33.6623700202
 21
73.0566821052
 31
0.0
  0
POLYLINE
  5
182
  8
0
  6
CONTINUOUS
 62
     7
 66
     1
 10
0.0
 20
0.0
 30
0.0
 70
   128
  0
VERTEX
  5
2D3
  8
0
  6
CONTINUOUS
 62
     7
 10
57.3248416803
 20
205.8300031076
 30
0.0
  0
VERTEX
  5
2D4
  8
0
  6
CONTINUOUS
 62
     7
 10
57.2271847097
 20
204.4243367105
 30
0.0
  0
VERTEX
  5
2D5
  8
0
  6
CONTINUOUS
 62
     7
 10
56.8062371591
 20
203.0847246155
 30
0.0
  0
VERTEX
  5
2D6
  8
0
  6
CONTINUOUS
 62
     7
 10
56.4192752517
 20
202.4968354587
 30
0.0
  0
VERTEX
  5
2D7
  8
0
  6
CONTINUOUS
 62
     7
 10
55.8943729862
 20
202.0291929913
 30
0.0
  0
VERTEX
  5
2D8
  8
0
  6
CONTINUOUS
 62
     7
 10
55.2592452914
 20
201.7282681789
 30
0.0
  0
VERTEX
  5
2D9
  8
0
  6
CONTINUOUS
 62
     7
 10
54.5636237316
 20
201.6280800307
 30
0.0
  0
SEQEND
  5
389
  8
0
  6
CONTINUOUS
 62
     7
  0
POLYLINE
  5
183
  8
0
  6
CONTINUOUS
 62
     7
 66
     1
 10
0.0
 20
0.0
 30
0.0
 70
   128
  0
VERTEX
  5
2DA
  8
0
  6
CONTINUOUS
 62
     7
 10
54.5636237316
 20
210.0383364409
 30
0.0
  0
VERTEX
  5
2DB
  8
0
  6
CONTINUOUS
 62
     7
 10
55.2599781799
 20
209.9388320641
 30
0.0
  0
VERTEX
  5
2DC
  8
0
  6
CONTINUOUS
 62
     7
 10
55.8959982582
 20
209.6383933149
 30
0.0
  0
VERTEX
  5
2DD
  8
0
  6
CONTINUOUS
 62
     7
 10
56.4186990403
 20
209.1672377651
 30
0.0
  0
VERTEX
  5
2DE
  8
0
  6
CONTINUOUS
 62
     7
 10
56.8054344177
 20
208.5783652476
 30
0.0
  0
VERTEX
  5
2DF
  8
0
  6
CONTINUOUS
 62
     7
 10
57.2262706196
 20
207.2370345954
 30
0.0
  0
VERTEX
  5
2E0
  8
0
  6
CONTINUOUS
 62
     7
 10
57.3248416803
 20
205.8300031076
 30
0.0
  0
SEQEND
  5
38A
  8
0
  6
CONTINUOUS
 62
     7
  0
POLYLINE
  5
184
  8
0
  6
CONTINUOUS
 62
     7
 66
     1
 10
0.0
 20
0.0
 30
0.0
 70
   128
  0
VERTEX
  5
2E1
  8
0
  6
CONTINUOUS
 62
     7
 10
51.8889442444
 20
205.8300031076
 30
0.0
  0
VERTEX
  5
2E2
  8
0
  6
CONTINUOUS
 62
     7
 10
51.9729269754
 20
207.228340963
 30
0.0
  0
VERTEX
  5
2E3
  8
0
  6
CONTINUOUS
 62
     7
 10
52.3534365766
 20
208.5713725671
 30
0.0
  0
VERTEX
  5
2E4
  8
0
  6
CONTINUOUS
 62
     7
 10
52.7286021567
 20
209.1618318488
 30
0.0
  0
VERTEX
  5
2E5
  8
0
  6
CONTINUOUS
 62
     7
 10
53.2434529267
 20
209.633943714
 30
0.0
  0
VERTEX
  5
2E6
  8
0
  6
CONTINUOUS
 62
     7
 10
53.8726427924
 20
209.9372232459
 30
0.0
  0
VERTEX
  5
2E7
  8
0
  6
CONTINUOUS
 62
     7
 10
54.5636237316
 20
210.0383364409
 30
0.0
  0
SEQEND
  5
38B
  8
0
  6
CONTINUOUS
 62
     7
  0
POLYLINE
  5
185
  8
0
  6
CONTINUOUS
 62
     7
 66
     1
 10
0.0
 20
0.0
 30
0.0
 70
   128
  0
VERTEX
  5
2E8
  8
0
  6
CONTINUOUS
 62
     7
 10
54.5636237316
 20
201.6280800307
 30
0.0
  0
VERTEX
  5
2E9
  8
0
  6
CONTINUOUS
 62
     7
 10
53.8733216568
 20
201.7281562747
 30
0.0
  0
VERTEX
  5
2EA
  8
0
  6
CONTINUOUS
 62
     7
 10
53.2444985892
 20
202.029859698
 30
0.0
  0
VERTEX
  5
2EB
  8
0
  6
CONTINUOUS
 62
     7
 10
52.7318593225
 20
202.5028737099
 30
0.0
  0
VERTEX
  5
2EC
  8
0
  6
CONTINUOUS
 62
     7
 10
52.358698819
 20
203.0935851223
 30
0.0
  0
VERTEX
  5
2ED
  8
0
  6
CONTINUOUS
 62
     7
 10
52.0559666934
 20
203.9741631992
 30
0.0
  0
VERTEX
  5
2EE
  8
0
  6
CONTINUOUS
 62
     7
 10
51.9234242775
 20
204.8975163093
 30
0.0
  0
VERTEX
  5
2EF
  8
0
  6
CONTINUOUS
 62
     7
 10
51.8889442444
 20
205.8300031076
 30
0.0
  0
SEQEND
  5
38C
  8
0
  6
CONTINUOUS
 62
     7
  0
POLYLINE
  5
186
  8
0
  6
CONTINUOUS
 62
     7
 66
     1
 10
0.0
 20
0.0
 30
0.0
 70
   128
  0
VERTEX
  5
2F0
  8
0
  6
CONTINUOUS
 62
     7
 10
89.6725980906
 20
203.3155800307
 30
0.0
  0
VERTEX
  5
2F1
  8
0
  6
CONTINUOUS
 62
     7
 10
89.5477021999
 20
204.2553151116
 30
0.0
  0
VERTEX
  5
2F2
  8
0
  6
CONTINUOUS
 62
     7
 10
89.5299698854
 20
205.0014774666
 30
0.0
  0
SEQEND
  5
38D
  8
0
  6
CONTINUOUS
 62
     7
  0
ARC
  5
187
  8
0
  6
CONTINUOUS
 62
     7
 10
92.0073376443
 20
204.0788515918
 30
0.0
 40
2.456337163328057
 50
198.1035706438
 51
273.8577293766
  0
POLYLINE
  5
188
  8
0
  6
CONTINUOUS
 62
     7
 66
     1
 10
0.0
 20
0.0
 30
0.0
 70
   128
  0
VERTEX
  5
2F3
  8
0
  6
CONTINUOUS
 62
     7
 10
94.6581750137
 20
205.0014774666
 30
0.0
  0
VERTEX
  5
2F4
  8
0
  6
CONTINUOUS
 62
     7
 10
94.6161145099
 20
204.113916264
 30
0.0
  0
VERTEX
  5
2F5
  8
0
  6
CONTINUOUS
 62
     7
 10
94.4468993896
 20
203.2427339349
 30
0.0
  0
VERTEX
  5
2F6
  8
0
  6
CONTINUOUS
 62
     7
 10
94.0135192544
 20
202.473296948
 30
0.0
  0
VERTEX
  5
2F7
  8
0
  6
CONTINUOUS
 62
     7
 10
93.4952834335
 20
202.0077754754
 30
0.0
  0
VERTEX
  5
2F8
  8
0
  6
CONTINUOUS
 62
     7
 10
92.8634176024
 20
201.7170739321
 30
0.0
  0
VERTEX
  5
2F9
  8
0
  6
CONTINUOUS
 62
     7
 10
92.1725980906
 20
201.6280800307
 30
0.0
  0
SEQEND
  5
38E
  8
0
  6
CONTINUOUS
 62
     7
  0
LINE
  5
189
  8
0
  6
CONTINUOUS
 62
     7
 10
94.6581750137
 20
209.8332082358
 30
0.0
 11
94.6581750137
 21
205.0014774666
 31
0.0
  0
LINE
  5
18A
  8
0
  6
CONTINUOUS
 62
     7
 10
93.9402262957
 20
209.8332082358
 30
0.0
 11
94.6581750137
 21
209.8332082358
 31
0.0
  0
LINE
  5
18B
  8
0
  6
CONTINUOUS
 62
     7
 10
93.9402262957
 20
205.0399390051
 30
0.0
 11
93.9402262957
 21
209.8332082358
 31
0.0
  0
POLYLINE
  5
18C
  8
0
  6
CONTINUOUS
 62
     7
 66
     1
 10
0.0
 20
0.0
 30
0.0
 70
   128
  0
VERTEX
  5
2FA
  8
0
  6
CONTINUOUS
 62
     7
 10
93.8584955265
 20
203.7979518256
 30
0.0
  0
VERTEX
  5
2FB
  8
0
  6
CONTINUOUS
 62
     7
 10
93.9318380572
 20
204.4913306444
 30
0.0
  0
VERTEX
  5
2FC
  8
0
  6
CONTINUOUS
 62
     7
 10
93.9402262957
 20
205.0399390051
 30
0.0
  0
SEQEND
  5
38F
  8
0
  6
CONTINUOUS
 62
     7
  0
ARC
  5
18D
  8
0
  6
CONTINUOUS
 62
     7
 10
92.1442877504
 20
204.2120745787
 30
0.0
 40
1.763520896976953
 50
269.6181241927
 51
346.4185603403
  0
ARC
  5
18E
  8
0
  6
CONTINUOUS
 62
     7
 10
92.0428544357
 20
204.2270231338
 30
0.0
 40
1.780689948323479
 50
188.1092719976
 51
272.8867655606
  0
POLYLINE
  5
18F
  8
0
  6
CONTINUOUS
 62
     7
 66
     1
 10
0.0
 20
0.0
 30
0.0
 70
   128
  0
VERTEX
  5
2FD
  8
0
  6
CONTINUOUS
 62
     7
 10
90.2479186034
 20
205.0399390051
 30
0.0
  0
VERTEX
  5
2FE
  8
0
  6
CONTINUOUS
 62
     7
 10
90.2536324015
 20
204.4435061507
 30
0.0
  0
VERTEX
  5
2FF
  8
0
  6
CONTINUOUS
 62
     7
 10
90.2799698854
 20
203.9758364409
 30
0.0
  0
SEQEND
  5
390
  8
0
  6
CONTINUOUS
 62
     7
  0
LINE
  5
190
  8
0
  6
CONTINUOUS
 62
     7
 10
90.2479186034
 20
209.8332082358
 30
0.0
 11
90.2479186034
 21
205.0399390051
 31
0.0
  0
LINE
  5
191
  8
0
  6
CONTINUOUS
 62
     7
 10
89.5299698854
 20
209.8332082358
 30
0.0
 11
90.2479186034
 21
209.8332082358
 31
0.0
  0
LINE
  5
192
  8
0
  6
CONTINUOUS
 62
     7
 10
89.5299698854
 20
205.0014774666
 30
0.0
 11
89.5299698854
 21
209.8332082358
 31
0.0
  0
LINE
  5
193
  8
0
  6
CONTINUOUS
 62
     7
 10
44.3624605562
 20
86.2015168514
 30
0.0
 11
44.2919477357
 21
86.2015168514
 31
0.0
  0
LINE
  5
194
  8
0
  6
CONTINUOUS
 62
     7
 10
46.0371400434
 20
90.4080473001
 30
0.0
 11
44.3624605562
 21
86.2015168514
 31
0.0
  0
LINE
  5
195
  8
0
  6
CONTINUOUS
 62
     7
 10
47.6919877998
 20
86.2015168514
 30
0.0
 11
46.0371400434
 21
90.4080473001
 31
0.0
  0
LINE
  5
196
  8
0
  6
CONTINUOUS
 62
     7
 10
47.7625006203
 20
86.2015168514
 30
0.0
 11
47.6919877998
 21
86.2015168514
 31
0.0
  0
LINE
  5
197
  8
0
  6
CONTINUOUS
 62
     7
 10
49.2454733767
 20
91.7015168514
 30
0.0
 11
47.7625006203
 21
86.2015168514
 31
0.0
  0
LINE
  5
198
  8
0
  6
CONTINUOUS
 62
     7
 10
48.7408660049
 20
91.7015168514
 30
0.0
 11
49.2454733767
 21
91.7015168514
 31
0.0
  0
LINE
  5
199
  8
0
  6
CONTINUOUS
 62
     7
 10
47.6589349152
 20
87.695507236
 30
0.0
 11
48.7408660049
 21
91.7015168514
 31
0.0
  0
LINE
  5
19A
  8
0
  6
CONTINUOUS
 62
     7
 10
46.0878211331
 20
91.7015168514
 30
0.0
 11
47.6589349152
 21
87.695507236
 31
0.0
  0
LINE
  5
19B
  8
0
  6
CONTINUOUS
 62
     7
 10
46.0162065498
 20
91.7015168514
 30
0.0
 11
46.0878211331
 21
91.7015168514
 31
0.0
  0
LINE
  5
19C
  8
0
  6
CONTINUOUS
 62
     7
 10
44.4153451716
 20
87.6679631655
 30
0.0
 11
46.0162065498
 21
91.7015168514
 31
0.0
  0
LINE
  5
19D
  8
0
  6
CONTINUOUS
 62
     7
 10
43.3389228959
 20
91.7015168514
 30
0.0
 11
44.4153451716
 21
87.6679631655
 31
0.0
  0
LINE
  5
19E
  8
0
  6
CONTINUOUS
 62
     7
 10
42.82880671
 20
91.7015168514
 30
0.0
 11
43.3389228959
 21
91.7015168514
 31
0.0
  0
LINE
  5
19F
  8
0
  6
CONTINUOUS
 62
     7
 10
44.2919477357
 20
86.2015168514
 30
0.0
 11
42.82880671
 21
91.7015168514
 31
0.0
  0
LINE
  5
1A0
  8
0
  6
CONTINUOUS
 62
     7
 10
56.6493195306
 20
86.2015168514
 30
0.0
 11
56.155729787
 21
86.2015168514
 31
0.0
  0
LINE
  5
1A1
  8
0
  6
CONTINUOUS
 62
     7
 10
56.6493195306
 20
88.7399783898
 30
0.0
 11
56.6493195306
 21
86.2015168514
 31
0.0
  0
LINE
  5
1A2
  8
0
  6
CONTINUOUS
 62
     7
 10
57.0503611972
 20
88.7399783898
 30
0.0
 11
56.6493195306
 21
88.7399783898
 31
0.0
  0
LINE
  5
1A3
  8
0
  6
CONTINUOUS
 62
     7
 10
59.07099421
 20
86.2015168514
 30
0.0
 11
57.0503611972
 21
88.7399783898
 31
0.0
  0
LINE
  5
1A4
  8
0
  6
CONTINUOUS
 62
     7
 10
59.6813708126
 20
86.2015168514
 30
0.0
 11
59.07099421
 21
86.2015168514
 31
0.0
  0
LINE
  5
1A5
  8
0
  6
CONTINUOUS
 62
     7
 10
57.6607377998
 20
88.7399783898
 30
0.0
 11
59.6813708126
 21
86.2015168514
 31
0.0
  0
ARC
  5
1A6
  8
0
  6
CONTINUOUS
 62
     7
 10
57.9711578335
 20
90.3548057203
 30
0.0
 40
1.644392868044966
 50
259.1187049276
 51
355.6703777637
  0
ARC
  5
1A7
  8
0
  6
CONTINUOUS
 62
     7
 10
58.2265762405
 20
90.2695334505
 30
0.0
 40
1.384827368978468
 50
358.3915847566
 51
78.5076765328
  0
POLYLINE
  5
1A8
  8
0
  6
CONTINUOUS
 62
     7
 66
     1
 10
0.0
 20
0.0
 30
0.0
 70
   128
  0
VERTEX
  5
300
  8
0
  6
CONTINUOUS
 62
     7
 10
57.2563908447
 20
91.7015168514
 30
0.0
  0
VERTEX
  5
301
  8
0
  6
CONTINUOUS
 62
     7
 10
57.9562703558
 20
91.6865630843
 30
0.0
  0
VERTEX
  5
302
  8
0
  6
CONTINUOUS
 62
     7
 10
58.5024845947
 20
91.6265969796
 30
0.0
  0
SEQEND
  5
391
  8
0
  6
CONTINUOUS
 62
     7
  0
LINE
  5
1A9
  8
0
  6
CONTINUOUS
 62
     7
 10
56.155729787
 20
91.7015168514
 30
0.0
 11
57.2563908447
 21
91.7015168514
 31
0.0
  0
LINE
  5
1AA
  8
0
  6
CONTINUOUS
 62
     7
 10
56.155729787
 20
86.2015168514
 30
0.0
 11
56.155729787
 21
91.7015168514
 31
0.0
  0
LINE
  5
1AB
  8
0
  6
CONTINUOUS
 62
     7
 10
67.0852169665
 20
86.2015168514
 30
0.0
 11
66.5916272229
 21
86.2015168514
 31
0.0
  0
LINE
  5
1AC
  8
0
  6
CONTINUOUS
 62
     7
 10
67.0852169665
 20
88.8810040308
 30
0.0
 11
67.0852169665
 21
86.2015168514
 31
0.0
  0
LINE
  5
1AD
  8
0
  6
CONTINUOUS
 62
     7
 10
69.2711144024
 20
88.8810040308
 30
0.0
 11
67.0852169665
 21
88.8810040308
 31
0.0
  0
LINE
  5
1AE
  8
0
  6
CONTINUOUS
 62
     7
 10
69.2711144024
 20
89.445106595
 30
0.0
 11
69.2711144024
 21
88.8810040308
 31
0.0
  0
LINE
  5
1AF
  8
0
  6
CONTINUOUS
 62
     7
 10
67.0852169665
 20
89.445106595
 30
0.0
 11
69.2711144024
 21
89.445106595
 31
0.0
  0
LINE
  5
1B0
  8
0
  6
CONTINUOUS
 62
     7
 10
67.0852169665
 20
91.1374142873
 30
0.0
 11
67.0852169665
 21
89.445106595
 31
0.0
  0
LINE
  5
1B1
  8
0
  6
CONTINUOUS
 62
     7
 10
69.2711144024
 20
91.1374142873
 30
0.0
 11
67.0852169665
 21
91.1374142873
 31
0.0
  0
LINE
  5
1B2
  8
0
  6
CONTINUOUS
 62
     7
 10
69.2711144024
 20
91.7015168514
 30
0.0
 11
69.2711144024
 21
91.1374142873
 31
0.0
  0
LINE
  5
1B3
  8
0
  6
CONTINUOUS
 62
     7
 10
66.5916272229
 20
91.7015168514
 30
0.0
 11
69.2711144024
 21
91.7015168514
 31
0.0
  0
LINE
  5
1B4
  8
0
  6
CONTINUOUS
 62
     7
 10
66.5916272229
 20
86.2015168514
 30
0.0
 11
66.5916272229
 21
91.7015168514
 31
0.0
  0
LINE
  5
1B5
  8
0
  6
CONTINUOUS
 62
     7
 10
77.3800887613
 20
86.2015168514
 30
0.0
 11
76.8864990177
 21
86.2015168514
 31
0.0
  0
LINE
  5
1B6
  8
0
  6
CONTINUOUS
 62
     7
 10
77.3800887613
 20
88.7399783898
 30
0.0
 11
77.3800887613
 21
86.2015168514
 31
0.0
  0
LINE
  5
1B7
  8
0
  6
CONTINUOUS
 62
     7
 10
77.781130428
 20
88.7399783898
 30
0.0
 11
77.3800887613
 21
88.7399783898
 31
0.0
  0
LINE
  5
1B8
  8
0
  6
CONTINUOUS
 62
     7
 10
79.8017634408
 20
86.2015168514
 30
0.0
 11
77.781130428
 21
88.7399783898
 31
0.0
  0
LINE
  5
1B9
  8
0
  6
CONTINUOUS
 62
     7
 10
80.4121400434
 20
86.2015168514
 30
0.0
 11
79.8017634408
 21
86.2015168514
 31
0.0
  0
LINE
  5
1BA
  8
0
  6
CONTINUOUS
 62
     7
 10
78.3915070306
 20
88.7399783898
 30
0.0
 11
80.4121400434
 21
86.2015168514
 31
0.0
  0
ARC
  5
1BB
  8
0
  6
CONTINUOUS
 62
     7
 10
78.7019270643
 20
90.3548057203
 30
0.0
 40
1.644392868044957
 50
259.1187049276
 51
355.6703777637
  0
ARC
  5
1BC
  8
0
  6
CONTINUOUS
 62
     7
 10
78.9573454713
 20
90.2695334505
 30
0.0
 40
1.384827368978373
 50
358.3915847566
 51
78.5076765328
  0
POLYLINE
  5
1BD
  8
0
  6
CONTINUOUS
 62
     7
 66
     1
 10
0.0
 20
0.0
 30
0.0
 70
   128
  0
VERTEX
  5
303
  8
0
  6
CONTINUOUS
 62
     7
 10
77.9871600754
 20
91.7015168514
 30
0.0
  0
VERTEX
  5
304
  8
0
  6
CONTINUOUS
 62
     7
 10
78.6870395865
 20
91.6865630843
 30
0.0
  0
VERTEX
  5
305
  8
0
  6
CONTINUOUS
 62
     7
 10
79.2332538254
 20
91.6265969796
 30
0.0
  0
SEQEND
  5
392
  8
0
  6
CONTINUOUS
 62
     7
  0
LINE
  5
1BE
  8
0
  6
CONTINUOUS
 62
     7
 10
76.8864990177
 20
91.7015168514
 30
0.0
 11
77.9871600754
 21
91.7015168514
 31
0.0
  0
LINE
  5
1BF
  8
0
  6
CONTINUOUS
 62
     7
 10
76.8864990177
 20
86.2015168514
 30
0.0
 11
76.8864990177
 21
91.7015168514
 31
0.0
  0
LINE
  5
1C0
  8
0
  6
CONTINUOUS
 62
     7
 10
87.7454733767
 20
86.2015168514
 30
0.0
 11
90.3544477357
 21
91.7015168514
 31
0.0
  0
LINE
  5
1C1
  8
0
  6
CONTINUOUS
 62
     7
 10
88.2842353959
 20
86.2015168514
 30
0.0
 11
87.7454733767
 21
86.2015168514
 31
0.0
  0
LINE
  5
1C2
  8
0
  6
CONTINUOUS
 62
     7
 10
89.1204733767
 20
87.9643373642
 30
0.0
 11
88.2842353959
 21
86.2015168514
 31
0.0
  0
LINE
  5
1C3
  8
0
  6
CONTINUOUS
 62
     7
 10
91.6137626395
 20
87.9643373642
 30
0.0
 11
89.1204733767
 21
87.9643373642
 31
0.0
  0
LINE
  5
1C4
  8
0
  6
CONTINUOUS
 62
     7
 10
92.4268636011
 20
86.2015168514
 30
0.0
 11
91.6137626395
 21
87.9643373642
 31
0.0
  0
LINE
  5
1C5
  8
0
  6
CONTINUOUS
 62
     7
 10
92.9634220947
 20
86.2015168514
 30
0.0
 11
92.4268636011
 21
86.2015168514
 31
0.0
  0
LINE
  5
1C6
  8
0
  6
CONTINUOUS
 62
     7
 10
90.4249605562
 20
91.7015168514
 30
0.0
 11
92.9634220947
 21
86.2015168514
 31
0.0
  0
LINE
  5
1C7
  8
0
  6
CONTINUOUS
 62
     7
 10
90.3544477357
 20
91.7015168514
 30
0.0
 11
90.4249605562
 21
91.7015168514
 31
0.0
  0
LINE
  5
1C8
  8
0
  6
CONTINUOUS
 62
     7
 10
100.0852169665
 20
86.2015168514
 30
0.0
 11
97.4762426075
 21
86.2015168514
 31
0.0
  0
LINE
  5
1C9
  8
0
  6
CONTINUOUS
 62
     7
 10
100.0852169665
 20
86.7656194155
 30
0.0
 11
100.0852169665
 21
86.2015168514
 31
0.0
  0
LINE
  5
1CA
  8
0
  6
CONTINUOUS
 62
     7
 10
97.9698323511
 20
86.7656194155
 30
0.0
 11
100.0852169665
 21
86.7656194155
 31
0.0
  0
LINE
  5
1CB
  8
0
  6
CONTINUOUS
 62
     7
 10
97.9698323511
 20
91.7015168514
 30
0.0
 11
97.9698323511
 21
86.7656194155
 31
0.0
  0
LINE
  5
1CC
  8
0
  6
CONTINUOUS
 62
     7
 10
97.4762426075
 20
91.7015168514
 30
0.0
 11
97.9698323511
 21
91.7015168514
 31
0.0
  0
LINE
  5
1CD
  8
0
  6
CONTINUOUS
 62
     7
 10
97.4762426075
 20
86.2015168514
 30
0.0
 11
97.4762426075
 21
91.7015168514
 31
0.0
  0
ARC
  5
1CE
  8
0
  6
CONTINUOUS
 62
     7
 10
108.7601397354
 20
88.7282215052
 30
0.0
 40
2.541279116111975
 50
263.8607475085
 51
3.4716050627
  0
ARC
  5
1CF
  8
0
  6
CONTINUOUS
 62
     7
 10
108.6619426129
 20
89.0507208024
 30
0.0
 40
2.640202566461708
 50
356.3383462128
 51
68.2636714941
  0
POLYLINE
  5
1D0
  8
0
  6
CONTINUOUS
 62
     7
 66
     1
 10
0.0
 20
0.0
 30
0.0
 70
   128
  0
VERTEX
  5
306
  8
0
  6
CONTINUOUS
 62
     7
 10
107.8945118383
 20
91.7015168514
 30
0.0
  0
VERTEX
  5
307
  8
0
  6
CONTINUOUS
 62
     7
 10
108.8808779265
 20
91.6575817807
 30
0.0
  0
VERTEX
  5
308
  8
0
  6
CONTINUOUS
 62
     7
 10
109.6397041459
 20
91.5031995437
 30
0.0
  0
SEQEND
  5
393
  8
0
  6
CONTINUOUS
 62
     7
  0
LINE
  5
1D1
  8
0
  6
CONTINUOUS
 62
     7
 10
106.7839349152
 20
91.7015168514
 30
0.0
 11
107.8945118383
 21
91.7015168514
 31
0.0
  0
LINE
  5
1D2
  8
0
  6
CONTINUOUS
 62
     7
 10
106.7839349152
 20
86.2015168514
 30
0.0
 11
106.7839349152
 21
91.7015168514
 31
0.0
  0
LINE
  5
1D3
  8
0
  6
CONTINUOUS
 62
     7
 10
108.4883619985
 20
86.2015168514
 30
0.0
 11
106.7839349152
 21
86.2015168514
 31
0.0
  0
ARC
  5
1D4
  8
0
  6
CONTINUOUS
 62
     7
 10
116.8959471234
 20
88.9092894975
 30
0.0
 40
2.849248480895757
 50
179.6382638802
 51
271.0185395445
  0
ARC
  5
1D5
  8
0
  6
CONTINUOUS
 62
     7
 10
116.9769956252
 20
88.9124390403
 30
0.0
 40
2.852109852753008
 50
269.3892764432
 51
0.8293260368
  0
ARC
  5
1D6
  8
0
  6
CONTINUOUS
 62
     7
 10
116.9743127214
 20
88.9887365187
 30
0.0
 40
2.854708752485618
 50
359.2971866415
 51
91.4409829523
  0
ARC
  5
1D7
  8
0
  6
CONTINUOUS
 62
     7
 10
116.9121364784
 20
88.9767505078
 30
0.0
 40
2.865808103506868
 50
90.1921683904
 51
180.9891460389
  0
ARC
  5
1D8
  8
0
  6
CONTINUOUS
 62
     7
 10
131.2015035526
 20
87.5917155569
 30
0.0
 40
1.53174578781218
 50
268.504937706
 51
358.4009757834
  0
ARC
  5
1D9
  8
0
  6
CONTINUOUS
 62
     7
 10
130.3299361506
 20
87.1554128844
 30
0.0
 40
2.434735508553802
 50
9.3023210632
 51
62.9551751299
  0
POLYLINE
  5
1DA
  8
0
  6
CONTINUOUS
 62
     7
 66
     1
 10
0.0
 20
0.0
 30
0.0
 70
   128
  0
VERTEX
  5
309
  8
0
  6
CONTINUOUS
 62
     7
 10
130.6976969344
 20
89.8714888065
 30
0.0
  0
VERTEX
  5
30A
  8
0
  6
CONTINUOUS
 62
     7
 10
131.1074069134
 20
89.5591795976
 30
0.0
  0
VERTEX
  5
30B
  8
0
  6
CONTINUOUS
 62
     7
 10
131.436979787
 20
89.3239126847
 30
0.0
  0
SEQEND
  5
394
  8
0
  6
CONTINUOUS
 62
     7
  0
ARC
  5
1DB
  8
0
  6
CONTINUOUS
 62
     7
 10
131.2719558279
 20
90.6121703094
 30
0.0
 40
0.9372205533147344
 50
181.8370458065
 51
232.213166648
  0
ARC
  5
1DC
  8
0
  6
CONTINUOUS
 62
     7
 10
131.0685583171
 20
90.5479563139
 30
0.0
 40
0.7341369708921579
 50
84.2815888554
 51
177.3322738918
  0
ARC
  5
1DD
  8
0
  6
CONTINUOUS
 62
     7
 10
131.0132723126
 20
89.9119605083
 30
0.0
 40
1.372501935992836
 50
28.8068298205
 51
84.6305591338
  0
LINE
  5
1DE
  8
0
  6
CONTINUOUS
 62
     7
 10
132.6621400434
 20
90.9115529091
 30
0.0
 11
132.2159261011
 21
90.5733117232
 31
0.0
  0
ARC
  5
1DF
  8
0
  6
CONTINUOUS
 62
     7
 10
131.1134913698
 20
90.09272982
 30
0.0
 40
1.751794498613352
 50
27.8669273328
 51
87.2743519006
  0
ARC
  5
1E0
  8
0
  6
CONTINUOUS
 62
     7
 10
131.1425919765
 20
90.5426041375
 30
0.0
 40
1.301067925852369
 50
87.6123216291
 51
179.2784410561
  0
POLYLINE
  5
1E1
  8
0
  6
CONTINUOUS
 62
     7
 66
     1
 10
0.0
 20
0.0
 30
0.0
 70
   128
  0
VERTEX
  5
30C
  8
0
  6
CONTINUOUS
 62
     7
 10
130.1490190498
 20
89.7216490629
 30
0.0
  0
VERTEX
  5
30D
  8
0
  6
CONTINUOUS
 62
     7
 10
129.9043872536
 20
90.1655016814
 30
0.0
  0
VERTEX
  5
30E
  8
0
  6
CONTINUOUS
 62
     7
 10
129.8416272229
 20
90.5589888065
 30
0.0
  0
SEQEND
  5
395
  8
0
  6
CONTINUOUS
 62
     7
  0
POLYLINE
  5
1E2
  8
0
  6
CONTINUOUS
 62
     7
 66
     1
 10
0.0
 20
0.0
 30
0.0
 70
   128
  0
VERTEX
  5
30F
  8
0
  6
CONTINUOUS
 62
     7
 10
131.050261037
 20
88.9735521078
 30
0.0
  0
VERTEX
  5
310
  8
0
  6
CONTINUOUS
 62
     7
 10
130.5251144601
 20
89.3689245003
 30
0.0
  0
VERTEX
  5
311
  8
0
  6
CONTINUOUS
 62
     7
 10
130.1490190498
 20
89.7216490629
 30
0.0
  0
SEQEND
  5
396
  8
0
  6
CONTINUOUS
 62
     7
  0
POLYLINE
  5
1E3
  8
0
  6
CONTINUOUS
 62
     7
 66
     1
 10
0.0
 20
0.0
 30
0.0
 70
   128
  0
VERTEX
  5
312
  8
0
  6
CONTINUOUS
 62
     7
 10
132.0418475754
 20
88.0965489026
 30
0.0
  0
VERTEX
  5
313
  8
0
  6
CONTINUOUS
 62
     7
 10
131.5154130569
 20
88.6198003263
 30
0.0
  0
VERTEX
  5
314
  8
0
  6
CONTINUOUS
 62
     7
 10
131.050261037
 20
88.9735521078
 30
0.0
  0
SEQEND
  5
397
  8
0
  6
CONTINUOUS
 62
     7
  0
POLYLINE
  5
1E4
  8
0
  6
CONTINUOUS
 62
     7
 66
     1
 10
0.0
 20
0.0
 30
0.0
 70
   128
  0
VERTEX
  5
315
  8
0
  6
CONTINUOUS
 62
     7
 10
132.2390631203
 20
87.5566851206
 30
0.0
  0
VERTEX
  5
316
  8
0
  6
CONTINUOUS
 62
     7
 10
132.1714546642
 20
87.8749641402
 30
0.0
  0
VERTEX
  5
317
  8
0
  6
CONTINUOUS
 62
     7
 10
132.0418475754
 20
88.0965489026
 30
0.0
  0
SEQEND
  5
398
  8
0
  6
CONTINUOUS
 62
     7
  0
ARC
  5
1E5
  8
0
  6
CONTINUOUS
 62
     7
 10
131.2414306034
 20
87.6211067605
 30
0.0
 40
0.999710351332997
 50
265.4163390921
 51
356.3052823965
  0
POLYLINE
  5
1E6
  8
0
  6
CONTINUOUS
 62
     7
 66
     1
 10
0.0
 20
0.0
 30
0.0
 70
   128
  0
VERTEX
  5
318
  8
0
  6
CONTINUOUS
 62
     7
 10
129.9540070306
 20
87.5412604411
 30
0.0
  0
VERTEX
  5
319
  8
0
  6
CONTINUOUS
 62
     7
 10
130.5140663423
 20
86.8559994921
 30
0.0
  0
VERTEX
  5
31A
  8
0
  6
CONTINUOUS
 62
     7
 10
130.8184778015
 20
86.6856467739
 30
0.0
  0
VERTEX
  5
31B
  8
0
  6
CONTINUOUS
 62
     7
 10
131.1615390818
 20
86.6245937744
 30
0.0
  0
SEQEND
  5
399
  8
0
  6
CONTINUOUS
 62
     7
  0
LINE
  5
1E7
  8
0
  6
CONTINUOUS
 62
     7
 10
129.4890631203
 20
87.2625144475
 30
0.0
 11
129.9540070306
 21
87.5412604411
 31
0.0
  0
ARC
  5
1E8
  8
0
  6
CONTINUOUS
 62
     7
 10
131.2241081276
 20
87.9120885909
 30
0.0
 40
1.852654243267045
 50
200.5251266023
 51
268.064601581
  0
POLYLINE
  5
1E9
  8
0
  6
CONTINUOUS
 62
     7
 66
     1
 10
0.0
 20
0.0
 30
0.0
 70
   128
  0
VERTEX
  5
31C
  8
0
  6
CONTINUOUS
 62
     7
 10
140.5871200113
 20
87.2206474603
 30
0.0
  0
VERTEX
  5
31D
  8
0
  6
CONTINUOUS
 62
     7
 10
140.5012540865
 20
87.8667153285
 30
0.0
  0
VERTEX
  5
31E
  8
0
  6
CONTINUOUS
 62
     7
 10
140.4890631203
 20
88.3797019475
 30
0.0
  0
SEQEND
  5
39A
  8
0
  6
CONTINUOUS
 62
     7
  0
ARC
  5
1EA
  8
0
  6
CONTINUOUS
 62
     7
 10
142.1922534545
 20
87.7453966586
 30
0.0
 40
1.688731799788011
 50
198.1035706438
 51
273.8577293766
  0
POLYLINE
  5
1EB
  8
0
  6
CONTINUOUS
 62
     7
 66
     1
 10
0.0
 20
0.0
 30
0.0
 70
   128
  0
VERTEX
  5
31F
  8
0
  6
CONTINUOUS
 62
     7
 10
144.0147041459
 20
88.3797019475
 30
0.0
  0
VERTEX
  5
320
  8
0
  6
CONTINUOUS
 62
     7
 10
143.9857875496
 20
87.7695036207
 30
0.0
  0
VERTEX
  5
321
  8
0
  6
CONTINUOUS
 62
     7
 10
143.8694521544
 20
87.1705657695
 30
0.0
  0
VERTEX
  5
322
  8
0
  6
CONTINUOUS
 62
     7
 10
143.5715033115
 20
86.641577841
 30
0.0
  0
VERTEX
  5
323
  8
0
  6
CONTINUOUS
 62
     7
 10
143.0062048892
 20
86.2037814452
 30
0.0
  0
VERTEX
  5
324
  8
0
  6
CONTINUOUS
 62
     7
 10
142.3058700113
 20
86.0604912103
 30
0.0
  0
SEQEND
  5
39B
  8
0
  6
CONTINUOUS
 62
     7
  0
LINE
  5
1EC
  8
0
  6
CONTINUOUS
 62
     7
 10
144.0147041459
 20
91.7015168514
 30
0.0
 11
144.0147041459
 21
88.3797019475
 31
0.0
  0
LINE
  5
1ED
  8
0
  6
CONTINUOUS
 62
     7
 10
143.5211144024
 20
91.7015168514
 30
0.0
 11
144.0147041459
 21
91.7015168514
 31
0.0
  0
LINE
  5
1EE
  8
0
  6
CONTINUOUS
 62
     7
 10
143.5211144024
 20
88.4061442552
 30
0.0
 11
143.5211144024
 21
91.7015168514
 31
0.0
  0
POLYLINE
  5
1EF
  8
0
  6
CONTINUOUS
 62
     7
 66
     1
 10
0.0
 20
0.0
 30
0.0
 70
   128
  0
VERTEX
  5
325
  8
0
  6
CONTINUOUS
 62
     7
 10
143.4649244985
 20
87.5522780693
 30
0.0
  0
VERTEX
  5
326
  8
0
  6
CONTINUOUS
 62
     7
 10
143.5153474884
 20
88.0289760073
 30
0.0
  0
VERTEX
  5
327
  8
0
  6
CONTINUOUS
 62
     7
 10
143.5211144024
 20
88.4061442552
 30
0.0
  0
SEQEND
  5
39C
  8
0
  6
CONTINUOUS
 62
     7
  0
ARC
  5
1F0
  8
0
  6
CONTINUOUS
 62
     7
 10
142.2864066525
 20
87.8369874621
 30
0.0
 40
1.212420616671745
 50
269.6181241927
 51
346.4185603403
  0
ARC
  5
1F1
  8
0
  6
CONTINUOUS
 62
     7
 10
142.2166712486
 20
87.8472645937
 30
0.0
 40
1.224224339472345
 50
188.1092719976
 51
272.8867655606
  0
POLYLINE
  5
1F2
  8
0
  6
CONTINUOUS
 62
     7
 66
     1
 10
0.0
 20
0.0
 30
0.0
 70
   128
  0
VERTEX
  5
328
  8
0
  6
CONTINUOUS
 62
     7
 10
140.9826528639
 20
88.4061442552
 30
0.0
  0
VERTEX
  5
329
  8
0
  6
CONTINUOUS
 62
     7
 10
140.9865811001
 20
87.9960966679
 30
0.0
  0
VERTEX
  5
32A
  8
0
  6
CONTINUOUS
 62
     7
 10
141.0046881203
 20
87.6745737424
 30
0.0
  0
SEQEND
  5
39D
  8
0
  6
CONTINUOUS
 62
     7
  0
LINE
  5
1F3
  8
0
  6
CONTINUOUS
 62
     7
 10
140.9826528639
 20
91.7015168514
 30
0.0
 11
140.9826528639
 21
88.4061442552
 31
0.0
  0
LINE
  5
1F4
  8
0
  6
CONTINUOUS
 62
     7
 10
140.4890631203
 20
91.7015168514
 30
0.0
 11
140.9826528639
 21
91.7015168514
 31
0.0
  0
LINE
  5
1F5
  8
0
  6
CONTINUOUS
 62
     7
 10
140.4890631203
 20
88.3797019475
 30
0.0
 11
140.4890631203
 21
91.7015168514
 31
0.0
  0
LINE
  5
1F6
  8
0
  6
CONTINUOUS
 62
     7
 10
151.7006015818
 20
86.2015168514
 30
0.0
 11
151.2070118383
 21
86.2015168514
 31
0.0
  0
LINE
  5
1F7
  8
0
  6
CONTINUOUS
 62
     7
 10
151.7006015818
 20
88.7399783898
 30
0.0
 11
151.7006015818
 21
86.2015168514
 31
0.0
  0
LINE
  5
1F8
  8
0
  6
CONTINUOUS
 62
     7
 10
152.1016432485
 20
88.7399783898
 30
0.0
 11
151.7006015818
 21
88.7399783898
 31
0.0
  0
LINE
  5
1F9
  8
0
  6
CONTINUOUS
 62
     7
 10
154.1222762613
 20
86.2015168514
 30
0.0
 11
152.1016432485
 21
88.7399783898
 31
0.0
  0
LINE
  5
1FA
  8
0
  6
CONTINUOUS
 62
     7
 10
154.7326528639
 20
86.2015168514
 30
0.0
 11
154.1222762613
 21
86.2015168514
 31
0.0
  0
LINE
  5
1FB
  8
0
  6
CONTINUOUS
 62
     7
 10
152.7120198511
 20
88.7399783898
 30
0.0
 11
154.7326528639
 21
86.2015168514
 31
0.0
  0
ARC
  5
1FC
  8
0
  6
CONTINUOUS
 62
     7
 10
153.0224398848
 20
90.3548057203
 30
0.0
 40
1.64439286804496
 50
259.1187049276
 51
355.6703777637
  0
ARC
  5
1FD
  8
0
  6
CONTINUOUS
 62
     7
 10
153.2778582918
 20
90.2695334505
 30
0.0
 40
1.384827368978309
 50
358.3915847566
 51
78.5076765328
  0
POLYLINE
  5
1FE
  8
0
  6
CONTINUOUS
 62
     7
 66
     1
 10
0.0
 20
0.0
 30
0.0
 70
   128
  0
VERTEX
  5
32B
  8
0
  6
CONTINUOUS
 62
     7
 10
152.3076728959
 20
91.7015168514
 30
0.0
  0
VERTEX
  5
32C
  8
0
  6
CONTINUOUS
 62
     7
 10
153.007552407
 20
91.6865630843
 30
0.0
  0
VERTEX
  5
32D
  8
0
  6
CONTINUOUS
 62
     7
 10
153.5537666459
 20
91.6265969796
 30
0.0
  0
SEQEND
  5
39E
  8
0
  6
CONTINUOUS
 62
     7
  0
LINE
  5
1FF
  8
0
  6
CONTINUOUS
 62
     7
 10
151.2070118383
 20
91.7015168514
 30
0.0
 11
152.3076728959
 21
91.7015168514
 31
0.0
  0
LINE
  5
200
  8
0
  6
CONTINUOUS
 62
     7
 10
151.2070118383
 20
86.2015168514
 30
0.0
 11
151.2070118383
 21
91.7015168514
 31
0.0
  0
ARC
  5
201
  8
0
  6
CONTINUOUS
 62
     7
 10
163.5949060934
 20
90.128120252
 30
0.0
 40
1.151109762460737
 50
1.7590891458
 51
92.1229576212
  0
ARC
  5
202
  8
0
  6
CONTINUOUS
 62
     7
 10
162.37195383
 20
90.4641970666
 30
0.0
 40
2.39249665741566
 50
303.8726559073
 51
352.778714929
  0
LINE
  5
203
  8
0
  6
CONTINUOUS
 62
     7
 10
161.5723964536
 20
86.2015168514
 30
0.0
 11
163.7054092741
 21
88.4777588385
 31
0.0
  0
LINE
  5
204
  8
0
  6
CONTINUOUS
 62
     7
 10
165.3095759408
 20
86.2015168514
 30
0.0
 11
161.5723964536
 21
86.2015168514
 31
0.0
  0
LINE
  5
205
  8
0
  6
CONTINUOUS
 62
     7
 10
165.3095759408
 20
86.7656194155
 30
0.0
 11
165.3095759408
 21
86.2015168514
 31
0.0
  0
LINE
  5
206
  8
0
  6
CONTINUOUS
 62
     7
 10
162.7501809088
 20
86.7656194155
 30
0.0
 11
165.3095759408
 21
86.7656194155
 31
0.0
  0
LINE
  5
207
  8
0
  6
CONTINUOUS
 62
     7
 10
164.1262826716
 20
88.2342692552
 30
0.0
 11
162.7501809088
 21
86.7656194155
 31
0.0
  0
ARC
  5
208
  8
0
  6
CONTINUOUS
 62
     7
 10
162.3553319684
 20
90.5333570105
 30
0.0
 40
2.90208044334567
 50
307.6064880586
 51
353.5535346584
  0
ARC
  5
209
  8
0
  6
CONTINUOUS
 62
     7
 10
163.6263584903
 20
90.2304125128
 30
0.0
 40
1.612867010880649
 50
359.1869646752
 51
91.7321992398
  0
ARC
  5
20A
  8
0
  6
CONTINUOUS
 62
     7
 10
163.5699847468
 20
90.0558987523
 30
0.0
 40
1.786659989793325
 50
89.7556348337
 51
181.4974428372
  0
LINE
  5
20B
  8
0
  6
CONTINUOUS
 62
     7
 10
162.2775246588
 20
90.0092091591
 30
0.0
 11
161.7839349152
 21
90.0092091591
 31
0.0
  0
ARC
  5
20C
  8
0
  6
CONTINUOUS
 62
     7
 10
163.5410378578
 20
90.0149635
 30
0.0
 40
1.263526302249147
 50
89.4909224257
 51
180.2609368642
  0
ARC
  5
20D
  8
0
  6
CONTINUOUS
 62
     7
 10
175.0690240465
 20
88.9092894975
 30
0.0
 40
2.849248480895785
 50
179.6382638802
 51
271.0185395445
  0
ARC
  5
20E
  8
0
  6
CONTINUOUS
 62
     7
 10
175.1500725483
 20
88.9124390403
 30
0.0
 40
2.85210985275305
 50
269.3892764432
 51
0.8293260368
  0
ARC
  5
20F
  8
0
  6
CONTINUOUS
 62
     7
 10
175.1473896445
 20
88.9887365187
 30
0.0
 40
2.854708752485681
 50
359.2971866415
 51
91.4409829523
  0
ARC
  5
210
  8
0
  6
CONTINUOUS
 62
     7
 10
175.0852134015
 20
88.9767505078
 30
0.0
 40
2.865808103506847
 50
90.1921683904
 51
180.9891460389
  0
ARC
  5
211
  8
0
  6
CONTINUOUS
 62
     7
 10
114.2935820006
 20
210.3539828901
 30
0.0
 40
0.5000000000000048
 50
205.435117693
 51
25.435117693
  0
LINE
  5
212
  8
0
  6
CONTINUOUS
 62
     7
 10
114.7451181109
 20
210.5687272523
 30
0.0
 11
111.8639061305
 21
216.6269596403
 31
0.0
  0
ARC
  5
213
  8
0
  6
CONTINUOUS
 62
     7
 10
111.4123700202
 20
216.412215278
 30
0.0
 40
0.5000000000000048
 50
25.435117693
 51
154.564882307
  0
LINE
  5
214
  8
0
  6
CONTINUOUS
 62
     7
 10
110.96083391
 20
216.6269596403
 30
0.0
 11
108.0796219296
 21
210.5687272523
 31
0.0
  0
ARC
  5
215
  8
0
  6
CONTINUOUS
 62
     7
 10
108.5311580398
 20
210.3539828901
 30
0.0
 40
0.5000000000000053
 50
154.564882307
 51
334.564882307
  0
LINE
  5
216
  8
0
  6
CONTINUOUS
 62
     7
 10
108.9826941501
 20
210.1392385278
 30
0.0
 11
110.9123700202
 21
214.1967063345
 31
0.0
  0
LINE
  5
217
  8
0
  6
CONTINUOUS
 62
     7
 10
110.9123700202
 20
214.1967063345
 30
0.0
 11
110.9123700202
 21
198.3012889814
 31
0.0
  0
ARC
  5
218
  8
0
  6
CONTINUOUS
 62
     7
 10
111.4123700202
 20
198.3012889814
 30
0.0
 40
0.5
 50
180.0
 51
0.0
  0
LINE
  5
219
  8
0
  6
CONTINUOUS
 62
     7
 10
111.9123700202
 20
198.3012889814
 30
0.0
 11
111.9123700202
 21
214.1967063345
 31
0.0
  0
LINE
  5
21A
  8
0
  6
CONTINUOUS
 62
     7
 10
111.9123700202
 20
214.1967063345
 30
0.0
 11
113.8420458903
 21
210.1392385278
 31
0.0
  0
ARC
  5
21B
  8
0
  6
CONTINUOUS
 62
     7
 10
85.6687921374
 20
90.2835401986
 30
0.0
 40
1.372748758901211
 50
357.6083961662
 51
76.5941590896
  0
ARC
  5
21C
  8
0
  6
CONTINUOUS
 62
     7
 10
72.9376372986
 20
88.9502414913
 30
0.0
 40
2.32707135570474
 50
267.9957364368
 51
0.1127821002
  0
ARC
  5
21D
  8
0
  6
CONTINUOUS
 62
     7
 10
72.7958173741
 20
88.9498830835
 30
0.0
 40
2.326074493222941
 50
180.5025351422
 51
271.4887569675
  0
ARC
  5
21E
  8
0
  6
CONTINUOUS
 62
     7
 10
72.8210998389
 20
88.9274343109
 30
0.0
 40
2.351268379085853
 50
89.1434127776
 51
179.9501117131
  0
ARC
  5
21F
  8
0
  6
CONTINUOUS
 62
     7
 10
72.9081016226
 20
88.9221818105
 30
0.0
 40
2.356828556323141
 50
0.7935294629
 51
91.2606276758
  0
ARC
  5
220
  8
0
  6
CONTINUOUS
 62
     7
 10
117.0081501191
 20
88.9502414913
 30
0.0
 40
2.327071355704697
 50
267.9957364368
 51
0.1127821002
  0
ARC
  5
221
  8
0
  6
CONTINUOUS
 62
     7
 10
116.8663301946
 20
88.9498830835
 30
0.0
 40
2.326074493222968
 50
180.5025351422
 51
271.4887569675
  0
ARC
  5
222
  8
0
  6
CONTINUOUS
 62
     7
 10
116.8916126594
 20
88.9274343109
 30
0.0
 40
2.351268379085826
 50
89.1434127776
 51
179.9501117131
  0
ARC
  5
223
  8
0
  6
CONTINUOUS
 62
     7
 10
116.9786144432
 20
88.9221818105
 30
0.0
 40
2.356828556323141
 50
0.7935294629
 51
91.2606276758
  0
POLYLINE
  5
224
  8
0
  6
CONTINUOUS
 62
     7
 66
     1
 10
0.0
 20
0.0
 30
0.0
 70
   128
  0
VERTEX
  5
32E
  8
0
  6
CONTINUOUS
 62
     7
 10
56.304008347
 20
203.8219902871
 30
0.0
  0
VERTEX
  5
32F
  8
0
  6
CONTINUOUS
 62
     7
 10
56.5568047587
 20
204.9357710925
 30
0.0
  0
VERTEX
  5
330
  8
0
  6
CONTINUOUS
 62
     7
 10
56.6068929624
 20
205.8332082358
 30
0.0
  0
SEQEND
  5
39F
  8
0
  6
CONTINUOUS
 62
     7
  0
ARC
  5
225
  8
0
  6
CONTINUOUS
 62
     7
 10
54.5004774264
 20
204.3167130984
 30
0.0
 40
1.870153587686023
 50
272.6720427637
 51
344.6606207169
  0
POLYLINE
  5
226
  8
0
  6
CONTINUOUS
 62
     7
 66
     1
 10
0.0
 20
0.0
 30
0.0
 70
   128
  0
VERTEX
  5
331
  8
0
  6
CONTINUOUS
 62
     7
 10
52.6068929624
 20
205.8332082358
 30
0.0
  0
VERTEX
  5
332
  8
0
  6
CONTINUOUS
 62
     7
 10
52.6600842647
 20
204.7365321307
 30
0.0
  0
VERTEX
  5
333
  8
0
  6
CONTINUOUS
 62
     7
 10
52.9140662241
 20
203.6719408557
 30
0.0
  0
VERTEX
  5
334
  8
0
  6
CONTINUOUS
 62
     7
 10
53.1826311528
 20
203.1942093141
 30
0.0
  0
VERTEX
  5
335
  8
0
  6
CONTINUOUS
 62
     7
 10
53.5675193803
 20
202.8050356304
 30
0.0
  0
VERTEX
  5
336
  8
0
  6
CONTINUOUS
 62
     7
 10
54.0488422228
 20
202.5436886121
 30
0.0
  0
VERTEX
  5
337
  8
0
  6
CONTINUOUS
 62
     7
 10
54.5876621931
 20
202.4485928512
 30
0.0
  0
SEQEND
  5
3A0
  8
0
  6
CONTINUOUS
 62
     7
  0
POLYLINE
  5
227
  8
0
  6
CONTINUOUS
 62
     7
 66
     1
 10
0.0
 20
0.0
 30
0.0
 70
   128
  0
VERTEX
  5
338
  8
0
  6
CONTINUOUS
 62
     7
 10
54.5876621931
 20
209.2178236204
 30
0.0
  0
VERTEX
  5
339
  8
0
  6
CONTINUOUS
 62
     7
 10
54.0481579275
 20
209.1252166082
 30
0.0
  0
VERTEX
  5
33A
  8
0
  6
CONTINUOUS
 62
     7
 10
53.5670737733
 20
208.8627803423
 30
0.0
  0
VERTEX
  5
33B
  8
0
  6
CONTINUOUS
 62
     7
 10
53.1833265852
 20
208.4726564217
 30
0.0
  0
VERTEX
  5
33C
  8
0
  6
CONTINUOUS
 62
     7
 10
52.9144812697
 20
207.9948791431
 30
0.0
  0
VERTEX
  5
33D
  8
0
  6
CONTINUOUS
 62
     7
 10
52.6612898857
 20
206.9299430669
 30
0.0
  0
VERTEX
  5
33E
  8
0
  6
CONTINUOUS
 62
     7
 10
52.6068929624
 20
205.8332082358
 30
0.0
  0
SEQEND
  5
3A1
  8
0
  6
CONTINUOUS
 62
     7
  0
POLYLINE
  5
228
  8
0
  6
CONTINUOUS
 62
     7
 66
     1
 10
0.0
 20
0.0
 30
0.0
 70
   128
  0
VERTEX
  5
33F
  8
0
  6
CONTINUOUS
 62
     7
 10
56.6068929624
 20
205.8332082358
 30
0.0
  0
VERTEX
  5
340
  8
0
  6
CONTINUOUS
 62
     7
 10
56.5365627309
 20
206.928205235
 30
0.0
  0
VERTEX
  5
341
  8
0
  6
CONTINUOUS
 62
     7
 10
56.2519839417
 20
207.9854948051
 30
0.0
  0
VERTEX
  5
342
  8
0
  6
CONTINUOUS
 62
     7
 10
55.9860061557
 20
208.4648541803
 30
0.0
  0
VERTEX
  5
343
  8
0
  6
CONTINUOUS
 62
     7
 10
55.6060048268
 20
208.85840229
 30
0.0
  0
VERTEX
  5
344
  8
0
  6
CONTINUOUS
 62
     7
 10
55.126404057
 20
209.1230662264
 30
0.0
  0
VERTEX
  5
345
  8
0
  6
CONTINUOUS
 62
     7
 10
54.5876621931
 20
209.2178236204
 30
0.0
  0
SEQEND
  5
3A2
  8
0
  6
CONTINUOUS
 62
     7
  0
LINE
  5
229
  8
0
  6
CONTINUOUS
 62
     7
 10
136.488562319
 20
88.4579271078
 30
0.0
 11
137.1044477357
 21
88.4579271078
 31
0.0
  0
LINE
  5
22A
  8
0
  6
CONTINUOUS
 62
     7
 10
137.7269437293
 20
86.9396979411
 30
0.0
 11
136.488562319
 21
88.4579271078
 31
0.0
  0
POLYLINE
  5
22B
  8
0
  6
CONTINUOUS
 62
     7
 66
     1
 10
0.0
 20
0.0
 30
0.0
 70
   128
  0
VERTEX
  5
346
  8
0
  6
CONTINUOUS
 62
     7
 10
136.5017834729
 20
86.6245937744
 30
0.0
  0
VERTEX
  5
347
  8
0
  6
CONTINUOUS
 62
     7
 10
137.2100546303
 20
86.7195150843
 30
0.0
  0
VERTEX
  5
348
  8
0
  6
CONTINUOUS
 62
     7
 10
137.7269437293
 20
86.9396979411
 30
0.0
  0
SEQEND
  5
3A3
  8
0
  6
CONTINUOUS
 62
     7
  0
ARC
  5
22C
  8
0
  6
CONTINUOUS
 62
     7
 10
136.4182345396
 20
88.9692813706
 30
0.0
 40
2.3461756856182
 50
180.9719939415
 51
272.0407736789
  0
ARC
  5
22D
  8
0
  6
CONTINUOUS
 62
     7
 10
136.4204134184
 20
88.9308754156
 30
0.0
 40
2.348017378449347
 50
88.8746731211
 51
180.0340116921
  0
POLYLINE
  5
22E
  8
0
  6
CONTINUOUS
 62
     7
 66
     1
 10
0.0
 20
0.0
 30
0.0
 70
   128
  0
VERTEX
  5
349
  8
0
  6
CONTINUOUS
 62
     7
 10
138.1136624793
 20
87.2206474603
 30
0.0
  0
VERTEX
  5
34A
  8
0
  6
CONTINUOUS
 62
     7
 10
138.7192012213
 20
88.1187129052
 30
0.0
  0
VERTEX
  5
34B
  8
0
  6
CONTINUOUS
 62
     7
 10
138.8672682485
 20
88.9592291911
 30
0.0
  0
SEQEND
  5
3A4
  8
0
  6
CONTINUOUS
 62
     7
  0
LINE
  5
22F
  8
0
  6
CONTINUOUS
 62
     7
 10
137.1044477357
 20
88.4579271078
 30
0.0
 11
138.1136624793
 21
87.2206474603
 31
0.0
  0
ARC
  5
230
  8
0
  6
CONTINUOUS
 62
     7
 10
136.5149524231
 20
88.9263933903
 30
0.0
 40
2.352544990474611
 50
0.7997355627
 51
91.1794736181
  0
ARC
  5
231
  8
0
  6
CONTINUOUS
 62
     7
 10
175.1812270421
 20
88.9502414913
 30
0.0
 40
2.327071355704768
 50
267.9957364368
 51
0.1127821002
  0
ARC
  5
232
  8
0
  6
CONTINUOUS
 62
     7
 10
175.0394071177
 20
88.9498830835
 30
0.0
 40
2.326074493222922
 50
180.5025351422
 51
271.4887569675
  0
ARC
  5
233
  8
0
  6
CONTINUOUS
 62
     7
 10
175.0646895824
 20
88.9274343109
 30
0.0
 40
2.351268379085854
 50
89.1434127776
 51
179.9501117131
  0
ARC
  5
234
  8
0
  6
CONTINUOUS
 62
     7
 10
175.1516913662
 20
88.9221818105
 30
0.0
 40
2.35682855632324
 50
0.7935294629
 51
91.2606276758
  0
POLYLINE
  5
235
  8
0
  6
CONTINUOUS
 62
     7
 66
     1
 10
0.0
 20
0.0
 30
0.0
 70
   128
  0
VERTEX
  5
34C
  8
0
  6
CONTINUOUS
 62
     7
 10
85.1122602357
 20
89.2919615629
 30
0.0
  0
VERTEX
  5
34D
  8
0
  6
CONTINUOUS
 62
     7
 10
85.5975499022
 20
89.3149127416
 30
0.0
  0
VERTEX
  5
34E
  8
0
  6
CONTINUOUS
 62
     7
 10
86.0656696855
 20
89.4357085844
 30
0.0
  0
VERTEX
  5
34F
  8
0
  6
CONTINUOUS
 62
     7
 10
86.2653084376
 20
89.573184777
 30
0.0
  0
VERTEX
  5
350
  8
0
  6
CONTINUOUS
 62
     7
 10
86.4186324406
 20
89.7611846766
 30
0.0
  0
VERTEX
  5
351
  8
0
  6
CONTINUOUS
 62
     7
 10
86.546755428
 20
90.2240529091
 30
0.0
  0
SEQEND
  5
3A5
  8
0
  6
CONTINUOUS
 62
     7
  0
LINE
  5
236
  8
0
  6
CONTINUOUS
 62
     7
 10
84.1493195306
 20
89.3040809539
 30
0.0
 11
85.1122602357
 21
89.2919615629
 31
0.0
  0
LINE
  5
237
  8
0
  6
CONTINUOUS
 62
     7
 10
84.1493195306
 20
91.1374142873
 30
0.0
 11
84.1493195306
 21
89.3040809539
 31
0.0
  0
LINE
  5
238
  8
0
  6
CONTINUOUS
 62
     7
 10
85.1552289857
 20
91.1374142873
 30
0.0
 11
84.1493195306
 21
91.1374142873
 31
0.0
  0
POLYLINE
  5
239
  8
0
  6
CONTINUOUS
 62
     7
 66
     1
 10
0.0
 20
0.0
 30
0.0
 70
   128
  0
VERTEX
  5
352
  8
0
  6
CONTINUOUS
 62
     7
 10
86.546755428
 20
90.2240529091
 30
0.0
  0
VERTEX
  5
353
  8
0
  6
CONTINUOUS
 62
     7
 10
86.4215333356
 20
90.6746080749
 30
0.0
  0
VERTEX
  5
354
  8
0
  6
CONTINUOUS
 62
     7
 10
86.274579733
 20
90.8595421381
 30
0.0
  0
VERTEX
  5
355
  8
0
  6
CONTINUOUS
 62
     7
 10
86.0831774939
 20
90.9976259056
 30
0.0
  0
VERTEX
  5
356
  8
0
  6
CONTINUOUS
 62
     7
 10
85.6276994327
 20
91.1157123265
 30
0.0
  0
VERTEX
  5
357
  8
0
  6
CONTINUOUS
 62
     7
 10
85.1552289857
 20
91.1374142873
 30
0.0
  0
SEQEND
  5
3A6
  8
0
  6
CONTINUOUS
 62
     7
  0
POLYLINE
  5
23A
  8
0
  6
CONTINUOUS
 62
     7
 66
     1
 10
0.0
 20
0.0
 30
0.0
 70
   128
  0
VERTEX
  5
358
  8
0
  6
CONTINUOUS
 62
     7
 10
154.1685502998
 20
90.2317652488
 30
0.0
  0
VERTEX
  5
359
  8
0
  6
CONTINUOUS
 62
     7
 10
154.1354540455
 20
90.469749901
 30
0.0
  0
VERTEX
  5
35A
  8
0
  6
CONTINUOUS
 62
     7
 10
154.0337783921
 20
90.6874564784
 30
0.0
  0
VERTEX
  5
35B
  8
0
  6
CONTINUOUS
 62
     7
 10
153.878264924
 20
90.8706917168
 30
0.0
  0
VERTEX
  5
35C
  8
0
  6
CONTINUOUS
 62
     7
 10
153.6789098678
 20
91.0048822275
 30
0.0
  0
VERTEX
  5
35D
  8
0
  6
CONTINUOUS
 62
     7
 10
153.2128699974
 20
91.1169257369
 30
0.0
  0
VERTEX
  5
35E
  8
0
  6
CONTINUOUS
 62
     7
 10
152.7318515818
 20
91.1374142873
 30
0.0
  0
SEQEND
  5
3A7
  8
0
  6
CONTINUOUS
 62
     7
  0
POLYLINE
  5
23B
  8
0
  6
CONTINUOUS
 62
     7
 66
     1
 10
0.0
 20
0.0
 30
0.0
 70
   128
  0
VERTEX
  5
35F
  8
0
  6
CONTINUOUS
 62
     7
 10
152.7076127998
 20
89.2963686142
 30
0.0
  0
VERTEX
  5
360
  8
0
  6
CONTINUOUS
 62
     7
 10
153.1987850499
 20
89.3196807542
 30
0.0
  0
VERTEX
  5
361
  8
0
  6
CONTINUOUS
 62
     7
 10
153.6728695771
 20
89.4414706439
 30
0.0
  0
VERTEX
  5
362
  8
0
  6
CONTINUOUS
 62
     7
 10
153.8777690512
 20
89.5765522059
 30
0.0
  0
VERTEX
  5
363
  8
0
  6
CONTINUOUS
 62
     7
 10
154.0358535205
 20
89.764376288
 30
0.0
  0
VERTEX
  5
364
  8
0
  6
CONTINUOUS
 62
     7
 10
154.1685502998
 20
90.2317652488
 30
0.0
  0
SEQEND
  5
3A8
  8
0
  6
CONTINUOUS
 62
     7
  0
LINE
  5
23C
  8
0
  6
CONTINUOUS
 62
     7
 10
151.7006015818
 20
89.3040809539
 30
0.0
 11
152.7076127998
 21
89.2963686142
 31
0.0
  0
LINE
  5
23D
  8
0
  6
CONTINUOUS
 62
     7
 10
151.7006015818
 20
91.1374142873
 30
0.0
 11
151.7006015818
 21
89.3040809539
 31
0.0
  0
LINE
  5
23E
  8
0
  6
CONTINUOUS
 62
     7
 10
152.7318515818
 20
91.1374142873
 30
0.0
 11
151.7006015818
 21
91.1374142873
 31
0.0
  0
POLYLINE
  5
23F
  8
0
  6
CONTINUOUS
 62
     7
 66
     1
 10
0.0
 20
0.0
 30
0.0
 70
   128
  0
VERTEX
  5
365
  8
0
  6
CONTINUOUS
 62
     7
 10
78.3870999793
 20
89.2963686142
 30
0.0
  0
VERTEX
  5
366
  8
0
  6
CONTINUOUS
 62
     7
 10
78.8782722294
 20
89.3196807542
 30
0.0
  0
VERTEX
  5
367
  8
0
  6
CONTINUOUS
 62
     7
 10
79.3523567566
 20
89.4414706439
 30
0.0
  0
VERTEX
  5
368
  8
0
  6
CONTINUOUS
 62
     7
 10
79.5572562307
 20
89.5765522059
 30
0.0
  0
VERTEX
  5
369
  8
0
  6
CONTINUOUS
 62
     7
 10
79.7153406999
 20
89.764376288
 30
0.0
  0
VERTEX
  5
36A
  8
0
  6
CONTINUOUS
 62
     7
 10
79.8480374793
 20
90.2317652488
 30
0.0
  0
SEQEND
  5
3A9
  8
0
  6
CONTINUOUS
 62
     7
  0
LINE
  5
240
  8
0
  6
CONTINUOUS
 62
     7
 10
77.3800887613
 20
89.3040809539
 30
0.0
 11
78.3870999793
 21
89.2963686142
 31
0.0
  0
LINE
  5
241
  8
0
  6
CONTINUOUS
 62
     7
 10
77.3800887613
 20
91.1374142873
 30
0.0
 11
77.3800887613
 21
89.3040809539
 31
0.0
  0
LINE
  5
242
  8
0
  6
CONTINUOUS
 62
     7
 10
78.4113387613
 20
91.1374142873
 30
0.0
 11
77.3800887613
 21
91.1374142873
 31
0.0
  0
POLYLINE
  5
243
  8
0
  6
CONTINUOUS
 62
     7
 66
     1
 10
0.0
 20
0.0
 30
0.0
 70
   128
  0
VERTEX
  5
36B
  8
0
  6
CONTINUOUS
 62
     7
 10
79.8480374793
 20
90.2317652488
 30
0.0
  0
VERTEX
  5
36C
  8
0
  6
CONTINUOUS
 62
     7
 10
79.814941225
 20
90.469749901
 30
0.0
  0
VERTEX
  5
36D
  8
0
  6
CONTINUOUS
 62
     7
 10
79.7132655716
 20
90.6874564784
 30
0.0
  0
VERTEX
  5
36E
  8
0
  6
CONTINUOUS
 62
     7
 10
79.5577521035
 20
90.8706917168
 30
0.0
  0
VERTEX
  5
36F
  8
0
  6
CONTINUOUS
 62
     7
 10
79.3583970473
 20
91.0048822275
 30
0.0
  0
VERTEX
  5
370
  8
0
  6
CONTINUOUS
 62
     7
 10
78.8923571769
 20
91.1169257369
 30
0.0
  0
VERTEX
  5
371
  8
0
  6
CONTINUOUS
 62
     7
 10
78.4113387613
 20
91.1374142873
 30
0.0
  0
SEQEND
  5
3AA
  8
0
  6
CONTINUOUS
 62
     7
  0
LINE
  5
244
  8
0
  6
CONTINUOUS
 62
     7
 10
107.6642434088
 20
91.1374142873
 30
0.0
 11
107.2775246588
 21
91.1374142873
 31
0.0
  0
POLYLINE
  5
245
  8
0
  6
CONTINUOUS
 62
     7
 66
     1
 10
0.0
 20
0.0
 30
0.0
 70
   128
  0
VERTEX
  5
372
  8
0
  6
CONTINUOUS
 62
     7
 10
109.3543475754
 20
90.9831674924
 30
0.0
  0
VERTEX
  5
373
  8
0
  6
CONTINUOUS
 62
     7
 10
108.4127386583
 20
91.1178177876
 30
0.0
  0
VERTEX
  5
374
  8
0
  6
CONTINUOUS
 62
     7
 10
107.6642434088
 20
91.1374142873
 30
0.0
  0
SEQEND
  5
3AB
  8
0
  6
CONTINUOUS
 62
     7
  0
ARC
  5
246
  8
0
  6
CONTINUOUS
 62
     7
 10
108.7523513403
 20
89.018065302
 30
0.0
 40
2.055243558709751
 50
356.2377524448
 51
72.9678962687
  0
LINE
  5
247
  8
0
  6
CONTINUOUS
 62
     7
 10
107.2775246588
 20
86.7656194155
 30
0.0
 11
107.9088347549
 21
86.7656194155
 31
0.0
  0
LINE
  5
248
  8
0
  6
CONTINUOUS
 62
     7
 10
107.2775246588
 20
91.1374142873
 30
0.0
 11
107.2775246588
 21
86.7656194155
 31
0.0
  0
ARC
  5
249
  8
0
  6
CONTINUOUS
 62
     7
 10
108.8466031605
 20
88.7604510785
 30
0.0
 40
1.960409667071656
 50
288.8825871474
 51
3.5900825585
  0
POLYLINE
  5
24A
  8
0
  6
CONTINUOUS
 62
     7
 66
     1
 10
0.0
 20
0.0
 30
0.0
 70
   128
  0
VERTEX
  5
375
  8
0
  6
CONTINUOUS
 62
     7
 10
107.9088347549
 20
86.7656194155
 30
0.0
  0
VERTEX
  5
376
  8
0
  6
CONTINUOUS
 62
     7
 10
108.7947249769
 20
86.7946499767
 30
0.0
  0
VERTEX
  5
377
  8
0
  6
CONTINUOUS
 62
     7
 10
109.4810502998
 20
86.9055432937
 30
0.0
  0
SEQEND
  5
3AC
  8
0
  6
CONTINUOUS
 62
     7
  0
LINE
  5
24B
  8
0
  6
CONTINUOUS
 62
     7
 10
102.2215350754
 20
88.5284399283
 30
0.0
 11
104.1870799472
 21
88.5284399283
 31
0.0
  0
LINE
  5
24C
  8
0
  6
CONTINUOUS
 62
     7
 10
103.2175286652
 20
90.629501627
 30
0.0
 11
102.2215350754
 21
88.5284399283
 31
0.0
  0
LINE
  5
24D
  8
0
  6
CONTINUOUS
 62
     7
 10
104.1870799472
 20
88.5284399283
 30
0.0
 11
103.2175286652
 21
90.629501627
 31
0.0
  0
LINE
  5
24E
  8
0
  6
CONTINUOUS
 62
     7
 10
90.3841953318
 20
90.629501627
 30
0.0
 11
89.3882017421
 21
88.5284399283
 31
0.0
  0
LINE
  5
24F
  8
0
  6
CONTINUOUS
 62
     7
 10
89.3882017421
 20
88.5284399283
 30
0.0
 11
91.3537466139
 21
88.5284399283
 31
0.0
  0
LINE
  5
250
  8
0
  6
CONTINUOUS
 62
     7
 10
91.3537466139
 20
88.5284399283
 30
0.0
 11
90.3841953318
 21
90.629501627
 31
0.0
  0
LINE
  5
251
  8
0
  6
CONTINUOUS
 62
     7
 10
147.6406055883
 20
90.629501627
 30
0.0
 11
146.6446119985
 21
88.5284399283
 31
0.0
  0
LINE
  5
252
  8
0
  6
CONTINUOUS
 62
     7
 10
146.6446119985
 20
88.5284399283
 30
0.0
 11
148.6101568703
 21
88.5284399283
 31
0.0
  0
LINE
  5
253
  8
0
  6
CONTINUOUS
 62
     7
 10
148.6101568703
 20
88.5284399283
 30
0.0
 11
147.6406055883
 21
90.629501627
 31
0.0
  0
DIMENSION
  5
254
  8
LEVEL0
  2
_D
 10
63.1623700202
 20
125.5362960315
 30
0.0
 11
97.6556427333
 21
125.5362960315
 31
0.0
 70
   160
  1
<>
  3
SLDDIMSTYLE0
 13
159.6623700202
 23
102.5566821052
 33
0.0
 14
63.1623700202
 24
102.5566821052
 34
0.0
  0
DIMENSION
  5
277
  8
LEVEL0
  2
_D_1
 10
145.7244996509
 20
102.5566821052
 30
0.0
 11
145.7244996509
 21
150.2007421421
 31
0.0
 70
   160
  1
<>
  3
SLDDIMSTYLE0
 13
159.6623700202
 23
191.3966821052
 33
0.0
 14
159.6623700202
 24
102.5566821052
 34
0.0
 50
90.0
  0
ENDSEC
  0
EOF
