  0
SECTION
  2
HEADER
  9
$ACADVER
  1
AC1009
  9
$DWGCODEPAGE
  3
ansi_1255
  9
$INSBASE
 10
0.0
 20
0.0
 30
0.0
  9
$EXTMIN
 10
0.0
 20
0.0
 30
0.0
  9
$EXTMAX
 10
210.0
 20
297.0
 30
0.0
  9
$LIMMIN
 10
0.0
 20
0.0
  9
$LIMMAX
 10
210.0
 20
297.0
  9
$ORTHOMODE
 70
     0
  9
$REGENMODE
 70
     1
  9
$FILLMODE
 70
     1
  9
$QTEXTMODE
 70
     0
  9
$MIRRTEXT
 70
     1
  9
$DRAGMODE
 70
     2
  9
$LTSCALE
 40
1.0
  9
$OSMODE
 70
    37
  9
$ATTMODE
 70
     1
  9
$TEXTSIZE
 40
2.0
  9
$TRACEWID
 40
1.0
  9
$TEXTSTYLE
  7
STANDARD
  9
$CLAYER
  8
0
  9
$CELTYPE
  6
BYLAYER
  9
$CECOLOR
 62
   256
  9
$DIMSCALE
 40
1.0
  9
$DIMASZ
 40
2.0
  9
$DIMEXO
 40
1.0
  9
$DIMDLI
 40
3.75
  9
$DIMRND
 40
0.0
  9
$DIMDLE
 40
0.0
  9
$DIMEXE
 40
1.0
  9
$DIMTP
 40
0.0
  9
$DIMTM
 40
0.0
  9
$DIMTXT
 40
2.0
  9
$DIMCEN
 40
2.5
  9
$DIMTSZ
 40
0.0
  9
$DIMTOL
 70
     0
  9
$DIMLIM
 70
     0
  9
$DIMTIH
 70
     1
  9
$DIMTOH
 70
     1
  9
$DIMSE1
 70
     0
  9
$DIMSE2
 70
     0
  9
$DIMTAD
 70
     1
  9
$DIMZIN
 70
     0
  9
$DIMBLK
  1

  9
$DIMASO
 70
     1
  9
$DIMSHO
 70
     1
  9
$DIMPOST
  1

  9
$DIMAPOST
  1

  9
$DIMALT
 70
     0
  9
$DIMALTD
 70
     3
  9
$DIMALTF
 40
0.0393700787
  9
$DIMLFAC
 40
1.0
  9
$DIMTOFL
 70
     1
  9
$DIMTVP
 40
0.0
  9
$DIMTIX
 70
     0
  9
$DIMSOXD
 70
     0
  9
$DIMSAH
 70
     0
  9
$DIMBLK1
  1

  9
$DIMBLK2
  1

  9
$DIMSTYLE
  2
ISO-25
  9
$DIMCLRD
 70
     0
  9
$DIMCLRE
 70
     0
  9
$DIMCLRT
 70
     0
  9
$DIMTFAC
 40
1.0
  9
$DIMGAP
 40
1.524
  9
$LUNITS
 70
     2
  9
$LUPREC
 70
     2
  9
$SKETCHINC
 40
1.0
  9
$FILLETRAD
 40
10.0
  9
$AUNITS
 70
     0
  9
$AUPREC
 70
     2
  9
$MENU
  1
.
  9
$ELEVATION
 40
0.0
  9
$PELEVATION
 40
0.0
  9
$THICKNESS
 40
0.0
  9
$LIMCHECK
 70
     0
  9
$CHAMFERA
 40
0.0
  9
$CHAMFERB
 40
0.0
  9
$SKPOLY
 70
     0
  9
$TDCREATE
 40
2458098.662474965
  9
$TDUPDATE
 40
2458098.6624761
  9
$TDINDWG
 40
0.0000000116
  9
$TDUSRTIMER
 40
0.0000000116
  9
$USRTIMER
 70
     1
  9
$ANGBASE
 50
0.0
  9
$ANGDIR
 70
     0
  9
$PDMODE
 70
     0
  9
$PDSIZE
 40
-1.0
  9
$PLINEWID
 40
0.0
  9
$COORDS
 70
     1
  9
$SPLFRAME
 70
     0
  9
$SPLINETYPE
 70
     6
  9
$SPLINESEGS
 70
     8
  9
$ATTDIA
 70
     0
  9
$ATTREQ
 70
     1
  9
$HANDLING
 70
     1
  9
$HANDSEED
  5
170
  9
$SURFTAB1
 70
     6
  9
$SURFTAB2
 70
     6
  9
$SURFTYPE
 70
     6
  9
$SURFU
 70
     6
  9
$SURFV
 70
     6
  9
$UCSNAME
  2

  9
$UCSORG
 10
0.0
 20
0.0
 30
0.0
  9
$UCSXDIR
 10
1.0
 20
0.0
 30
0.0
  9
$UCSYDIR
 10
0.0
 20
1.0
 30
0.0
  9
$PUCSNAME
  2

  9
$PUCSORG
 10
0.0
 20
0.0
 30
0.0
  9
$PUCSXDIR
 10
1.0
 20
0.0
 30
0.0
  9
$PUCSYDIR
 10
0.0
 20
1.0
 30
0.0
  9
$USERI1
 70
     0
  9
$USERI2
 70
     0
  9
$USERI3
 70
     0
  9
$USERI4
 70
     0
  9
$USERI5
 70
     0
  9
$USERR1
 40
0.0
  9
$USERR2
 40
0.0
  9
$USERR3
 40
0.0
  9
$USERR4
 40
0.0
  9
$USERR5
 40
0.0
  9
$WORLDVIEW
 70
     1
  9
$SHADEDGE
 70
     3
  9
$SHADEDIF
 70
    70
  9
$TILEMODE
 70
     1
  9
$MAXACTVP
 70
    64
  9
$PLIMCHECK
 70
     0
  9
$PEXTMIN
 10
1.0000000000E+20
 20
1.0000000000E+20
 30
1.0000000000E+20
  9
$PEXTMAX
 10
-1.0000000000E+20
 20
-1.0000000000E+20
 30
-1.0000000000E+20
  9
$PLIMMIN
 10
0.0
 20
0.0
  9
$PLIMMAX
 10
420.0
 20
297.0
  9
$UNITMODE
 70
     0
  9
$VISRETAIN
 70
     1
  9
$PLINEGEN
 70
     0
  9
$PSLTSCALE
 70
     1
  0
ENDSEC
  0
SECTION
  2
TABLES
  0
TABLE
  2
VPORT
 70
     1
  0
VPORT
  2
*ACTIVE
 70
     0
 10
0.0
 20
0.0
 11
1.0
 21
1.0
 12
105.0
 22
148.5
 13
0.0
 23
0.0
 14
10.0
 24
10.0
 15
10.0
 25
10.0
 16
0.0
 26
0.0
 36
1.0
 17
0.0
 27
0.0
 37
0.0
 40
297.0
 41
0.7070707071
 42
50.0
 43
0.0
 44
0.0
 50
0.0
 51
0.0
 71
     0
 72
  2000
 73
     1
 74
     3
 75
     0
 76
     0
 77
     0
 78
     0
  0
ENDTAB
  0
TABLE
  2
LTYPE
 70
     6
  0
LTYPE
  2
CONTINUOUS
 70
     0
  3
Solid line
 72
    65
 73
     0
 40
0.0
  0
LTYPE
  2
HIDDEN
 70
     0
  3
Hidden __ __ __ __ __ __ __ __ __ __ __ __ __ __
 72
    65
 73
     2
 40
1.905
 49
1.27
 49
-0.635
  0
LTYPE
  2
PHANTOM
 70
     0
  3
Phantom ______  __  __  ______  __  __  ______
 72
    65
 73
     6
 40
12.7
 49
6.35
 49
-1.27
 49
1.27
 49
-1.27
 49
1.27
 49
-1.27
  0
LTYPE
  2
CENTER
 70
     0
  3
Center ____ _ ____ _ ____ _ ____ _ ____ _ ____
 72
    65
 73
     4
 40
10.16
 49
6.35
 49
-1.27
 49
1.27
 49
-1.27
  0
LTYPE
  2
CENTERX2
 70
     0
  3
Center (2x) ________  __  ________  __  _____
 72
    65
 73
     4
 40
20.32
 49
12.7
 49
-2.54
 49
2.54
 49
-2.54
  0
LTYPE
  2
DOT2
 70
     0
  3
Dot (.5x) ........................................
 72
    65
 73
     2
 40
0.635
 49
0.0
 49
-0.635
  0
ENDTAB
  0
TABLE
  2
LAYER
 70
    53
  0
LAYER
  2
0
 70
     0
 62
     7
  6
CONTINUOUS
  0
LAYER
  2
SLD-0
 70
     0
 62
     7
  6
CONTINUOUS
  0
LAYER
  2
LEVEL0
 70
     0
 62
     7
  6
CONTINUOUS
  0
LAYER
  2
1
 70
     0
 62
     7
  6
CONTINUOUS
  0
LAYER
  2
2
 70
     0
 62
     7
  6
CONTINUOUS
  0
LAYER
  2
3
 70
     0
 62
     7
  6
CONTINUOUS
  0
LAYER
  2
4
 70
     0
 62
     7
  6
CONTINUOUS
  0
LAYER
  2
5
 70
     0
 62
     7
  6
CONTINUOUS
  0
LAYER
  2
6
 70
     0
 62
     7
  6
CONTINUOUS
  0
LAYER
  2
7
 70
     0
 62
     7
  6
CONTINUOUS
  0
LAYER
  2
8
 70
     0
 62
     7
  6
CONTINUOUS
  0
LAYER
  2
9
 70
     0
 62
     7
  6
CONTINUOUS
  0
LAYER
  2
10
 70
     0
 62
     7
  6
CONTINUOUS
  0
LAYER
  2
11
 70
     0
 62
     7
  6
CONTINUOUS
  0
LAYER
  2
12
 70
     0
 62
     7
  6
CONTINUOUS
  0
LAYER
  2
13
 70
     0
 62
     7
  6
CONTINUOUS
  0
LAYER
  2
14
 70
     0
 62
     7
  6
CONTINUOUS
  0
LAYER
  2
15
 70
     0
 62
     7
  6
CONTINUOUS
  0
LAYER
  2
16
 70
     0
 62
     7
  6
CONTINUOUS
  0
LAYER
  2
17
 70
     0
 62
     7
  6
CONTINUOUS
  0
LAYER
  2
18
 70
     0
 62
     7
  6
CONTINUOUS
  0
LAYER
  2
19
 70
     0
 62
     7
  6
CONTINUOUS
  0
LAYER
  2
20
 70
     0
 62
     7
  6
CONTINUOUS
  0
LAYER
  2
21
 70
     0
 62
     7
  6
CONTINUOUS
  0
LAYER
  2
22
 70
     0
 62
     7
  6
CONTINUOUS
  0
LAYER
  2
23
 70
     0
 62
     7
  6
CONTINUOUS
  0
LAYER
  2
24
 70
     0
 62
     7
  6
CONTINUOUS
  0
LAYER
  2
25
 70
     0
 62
     7
  6
CONTINUOUS
  0
LAYER
  2
26
 70
     0
 62
     7
  6
CONTINUOUS
  0
LAYER
  2
27
 70
     0
 62
     7
  6
CONTINUOUS
  0
LAYER
  2
28
 70
     0
 62
     7
  6
CONTINUOUS
  0
LAYER
  2
29
 70
     0
 62
     7
  6
CONTINUOUS
  0
LAYER
  2
30
 70
     0
 62
     7
  6
CONTINUOUS
  0
LAYER
  2
31
 70
     0
 62
     7
  6
CONTINUOUS
  0
LAYER
  2
32
 70
     0
 62
     7
  6
CONTINUOUS
  0
LAYER
  2
33
 70
     0
 62
     7
  6
CONTINUOUS
  0
LAYER
  2
34
 70
     0
 62
     7
  6
CONTINUOUS
  0
LAYER
  2
35
 70
     0
 62
     7
  6
CONTINUOUS
  0
LAYER
  2
36
 70
     0
 62
     7
  6
CONTINUOUS
  0
LAYER
  2
37
 70
     0
 62
     7
  6
CONTINUOUS
  0
LAYER
  2
38
 70
     0
 62
     7
  6
CONTINUOUS
  0
LAYER
  2
39
 70
     0
 62
     7
  6
CONTINUOUS
  0
LAYER
  2
40
 70
     0
 62
     7
  6
CONTINUOUS
  0
LAYER
  2
41
 70
     0
 62
     7
  6
CONTINUOUS
  0
LAYER
  2
42
 70
     0
 62
     7
  6
CONTINUOUS
  0
LAYER
  2
43
 70
     0
 62
     7
  6
CONTINUOUS
  0
LAYER
  2
44
 70
     0
 62
     7
  6
CONTINUOUS
  0
LAYER
  2
45
 70
     0
 62
     7
  6
CONTINUOUS
  0
LAYER
  2
46
 70
     0
 62
     7
  6
CONTINUOUS
  0
LAYER
  2
47
 70
     0
 62
     7
  6
CONTINUOUS
  0
LAYER
  2
48
 70
     0
 62
     7
  6
CONTINUOUS
  0
LAYER
  2
49
 70
     0
 62
     7
  6
CONTINUOUS
  0
LAYER
  2
50
 70
     0
 62
     7
  6
CONTINUOUS
  0
ENDTAB
  0
TABLE
  2
STYLE
 70
     1
  0
STYLE
  2
STANDARD
 70
     0
 40
0.0
 41
1.0
 50
0.0
 71
     0
 42
2.0
  3
txt
  4

  0
ENDTAB
  0
TABLE
  2
VIEW
 70
     0
  0
ENDTAB
  0
TABLE
  2
UCS
 70
     0
  0
ENDTAB
  0
TABLE
  2
APPID
 70
     1
  0
APPID
  2
ACAD
 70
     0
  0
ENDTAB
  0
TABLE
  2
DIMSTYLE
 70
     4
  0
DIMSTYLE
  2
ISO-25
 70
     0
  3

  4

  5

  6

  7

 40
1.0
 41
2.5
 42
0.625
 43
3.75
 44
1.25
 45
0.0
 46
0.0
 47
0.0
 48
0.0
140
2.5
141
2.5
142
0.0
143
0.0393700787
144
1.0
145
0.0
146
1.0
147
0.625
 71
     0
 72
     0
 73
     0
 74
     0
 75
     0
 76
     0
 77
     1
 78
     8
170
     0
171
     3
172
     1
173
     0
174
     0
175
     0
176
     0
177
     0
178
     0
  0
DIMSTYLE
  2
SLDDIMSTYLE0
 70
     0
  3

  4

  5

  6
CLOSED
  7
CLOSED
 40
1.0
 41
2.0
 42
0.0625
 43
0.38
 44
0.0
 45
0.000000001
 46
0.0
 47
0.0
 48
0.0
140
2.0
141
0.09
142
0.0
143
0.0393700787
144
1.0
145
0.0
146
1.0
147
0.5
 71
     0
 72
     0
 73
     0
 74
     0
 75
     0
 76
     0
 77
     1
 78
    12
170
     1
171
     2
172
     0
173
     1
174
     0
175
     0
176
     0
177
     0
178
     0
  0
DIMSTYLE
  2
SLDDIMSTYLE1
 70
     0
  3

  4

  5

  6
CLOSED
  7
CLOSED
 40
1.0
 41
2.0
 42
0.0625
 43
0.38
 44
0.0
 45
0.000000001
 46
0.0
 47
0.0
 48
0.0
140
2.0
141
0.09
142
0.0
143
0.0393700787
144
1.0
145
0.0
146
1.0
147
0.5
 71
     0
 72
     0
 73
     0
 74
     0
 75
     0
 76
     0
 77
     1
 78
    12
170
     1
171
     2
172
     0
173
     1
174
     0
175
     0
176
     0
177
     0
178
     0
  0
DIMSTYLE
  2
SLDDIMSTYLE2
 70
     0
  3
<>
  4

  5

  6
NONE
  7
CLOSED
 40
1.0
 41
2.0
 42
0.0625
 43
0.38
 44
0.0
 45
0.000000001
 46
0.0
 47
0.0
 48
0.0
140
2.0
141
0.0
142
0.0
143
25.4
144
1.0
145
0.0
146
1.0
147
0.5
 71
     0
 72
     0
 73
     0
 74
     0
 75
     0
 76
     0
 77
     1
 78
    12
170
     0
171
     2
172
     1
173
     1
174
     0
175
     0
176
     0
177
     0
178
     0
  0
ENDTAB
  0
ENDSEC
  0
SECTION
  2
BLOCKS
  0
BLOCK
  8
0
  2
$MODEL_SPACE
 70
     0
 10
0.0
 20
0.0
 30
0.0
  3
$MODEL_SPACE
  1

  0
ENDBLK
  5
21
  8
0
  0
BLOCK
 67
     1
  8
0
  2
$PAPER_SPACE
 70
     0
 10
0.0
 20
0.0
 30
0.0
  3
$PAPER_SPACE
  1

  0
ENDBLK
  5
1D
 67
     1
  8
0
  0
BLOCK
  8
0
  2
_CLOSED
 70
     0
 10
0.0
 20
0.0
 30
0.0
  3
_CLOSED
  1

  0
LINE
  5
B6
  8
0
  6
BYBLOCK
 62
     0
 10
-1.0
 20
0.166667
 30
0.0
 11
0.0
 21
0.0
 31
0.0
  0
LINE
  5
B7
  8
0
  6
BYBLOCK
 62
     0
 10
0.0
 20
0.0
 30
0.0
 11
-1.0
 21
-0.166667
 31
0.0
  0
LINE
  5
B8
  8
0
  6
BYBLOCK
 62
     0
 10
-1.0
 20
0.166667
 30
0.0
 11
-1.0
 21
-0.166667
 31
0.0
  0
LINE
  5
B9
  8
0
  6
BYBLOCK
 62
     0
 10
0.0
 20
0.0
 30
0.0
 11
-1.0
 21
0.0
 31
0.0
  0
ENDBLK
  5
B5
  8
0
  0
BLOCK
  8
0
  2
_D
 70
     0
 10
0.0
 20
0.0
 30
0.0
  3
_D
  1

  0
INSERT
  5
BD
  8
LEVEL0
  2
_CLOSED
 10
68.3918
 20
246.2407935908
 30
-2.8
 41
2.0
 42
2.0
 50
180.0
  0
INSERT
  5
BE
  8
LEVEL0
  2
_CLOSED
 10
157.0918
 20
246.2407935908
 30
-2.8
 41
2.0
 42
2.0
 50
0.0
  0
LINE
  5
BF
  8
LEVEL0
 10
103.341673908
 20
252.4081546379
 30
0.0
 11
102.9354238996
 21
252.4081546379
 31
0.0
  0
LINE
  5
C0
  8
LEVEL0
 10
102.9354238996
 20
252.4081546379
 30
0.0
 11
102.9354238996
 21
249.2331546763
 31
0.0
  0
LINE
  5
C1
  8
LEVEL0
 10
102.9354238996
 20
249.2331546763
 30
0.0
 11
103.341673908
 21
249.2331546763
 31
0.0
  0
LINE
  5
C2
  8
LEVEL0
 10
109.5295208503
 20
252.4081546379
 30
0.0
 11
109.9357708587
 21
252.4081546379
 31
0.0
  0
LINE
  5
C3
  8
LEVEL0
 10
109.9357708587
 20
252.4081546379
 30
0.0
 11
109.9357708587
 21
249.2331546763
 31
0.0
  0
LINE
  5
C4
  8
LEVEL0
 10
109.9357708587
 20
249.2331546763
 30
0.0
 11
109.5295208503
 21
249.2331546763
 31
0.0
  0
LINE
  5
C5
  8
LEVEL0
 10
68.3918
 20
227.282
 30
0.0
 11
68.3918
 21
247.2407935908
 31
0.0
  0
LINE
  5
C6
  8
LEVEL0
 10
157.0918
 20
227.282
 30
0.0
 11
157.0918
 21
247.2407935908
 31
0.0
  0
LINE
  5
C7
  8
LEVEL0
 10
68.3918
 20
246.2407935908
 30
0.0
 11
157.0918
 21
246.2407935908
 31
0.0
  0
TEXT
  5
C8
  8
LEVEL0
 10
101.1529586682
 20
246.9778692441
 30
-2.8
 40
2.0
  1
  
 41
0.7
 11
101.1529586682
 21
246.2713491203
 31
-2.8
 73
     1
  0
TEXT
  5
C9
  8
LEVEL0
 10
103.8494864184
 20
249.9396748001
 30
-2.8
 40
2.0
  1
3.49
 41
0.7
 11
103.8494864184
 21
249.2331546763
 31
-2.8
 73
     1
  0
TEXT
  5
CA
  8
LEVEL0
 10
103.8494865348
 20
246.9473134818
 30
-2.8
 40
2.0
  1
88.7
 41
0.7
 11
103.8494865348
 21
246.240793358
 31
-2.8
 73
     1
  0
TEXT
  5
CB
  8
LEVEL0
 10
110.2404588306
 20
246.9778692441
 30
-2.8
 40
2.0
  1
  
 41
0.7
 11
110.2404588306
 21
246.2713491203
 31
-2.8
 73
     1
  0
ENDBLK
  5
BC
  8
0
  0
BLOCK
  8
0
  2
_D_1
 70
     0
 10
0.0
 20
0.0
 30
0.0
  3
_D_1
  1

  0
INSERT
  5
D1
  8
LEVEL0
  2
_CLOSED
 10
46.3918
 20
221.782
 30
-2.8
 41
2.0
 42
2.0
 50
90.0
  0
INSERT
  5
D2
  8
LEVEL0
  2
_CLOSED
 10
46.3918
 20
88.682
 30
-2.8
 41
2.0
 42
2.0
 50
270.0
  0
LINE
  5
D3
  8
LEVEL0
 10
40.2244389529
 20
157.9716429696
 30
0.0
 11
40.2244389529
 21
157.5653929613
 31
0.0
  0
LINE
  5
D4
  8
LEVEL0
 10
40.2244389529
 20
157.5653929613
 30
0.0
 11
43.3994389145
 21
157.5653929613
 31
0.0
  0
LINE
  5
D5
  8
LEVEL0
 10
43.3994389145
 20
157.5653929613
 30
0.0
 11
43.3994389145
 21
157.9716429696
 31
0.0
  0
LINE
  5
D6
  8
LEVEL0
 10
40.2244389529
 20
164.159489912
 30
0.0
 11
40.2244389529
 21
164.5657399204
 31
0.0
  0
LINE
  5
D7
  8
LEVEL0
 10
40.2244389529
 20
164.5657399204
 30
0.0
 11
43.3994389145
 21
164.5657399204
 31
0.0
  0
LINE
  5
D8
  8
LEVEL0
 10
43.3994389145
 20
164.5657399204
 30
0.0
 11
43.3994389145
 21
164.159489912
 31
0.0
  0
LINE
  5
D9
  8
LEVEL0
 10
62.8918
 20
221.782
 30
0.0
 11
45.3918
 21
221.782
 31
0.0
  0
LINE
  5
DA
  8
LEVEL0
 10
62.8918
 20
88.682
 30
0.0
 11
45.3918
 21
88.682
 31
0.0
  0
LINE
  5
DB
  8
LEVEL0
 10
46.3918
 20
221.782
 30
0.0
 11
46.3918
 21
88.682
 31
0.0
  0
TEXT
  5
DC
  8
LEVEL0
 10
45.6547243466
 20
155.7829277299
 30
-2.8
 40
2.0
  1
  
 50
90.0
 41
0.7
 11
46.3612444705
 21
155.7829277299
 31
-2.8
 73
     1
  0
TEXT
  5
DD
  8
LEVEL0
 10
42.6929187907
 20
158.4794554801
 30
-2.8
 40
2.0
  1
5.24
 50
90.0
 41
0.7
 11
43.3994389145
 21
158.4794554801
 31
-2.8
 73
     1
  0
TEXT
  5
DE
  8
LEVEL0
 10
45.685280109
 20
157.7405666176
 30
-2.8
 40
2.0
  1
133.1
 50
90.0
 41
0.7
 11
46.3918002328
 21
157.7405666176
 31
-2.8
 73
     1
  0
TEXT
  5
DF
  8
LEVEL0
 10
45.6547243466
 20
164.8704278923
 30
-2.8
 40
2.0
  1
  
 50
90.0
 41
0.7
 11
46.3612444705
 21
164.8704278923
 31
-2.8
 73
     1
  0
ENDBLK
  5
D0
  8
0
  0
BLOCK
  8
0
  2
_NONE
 70
     0
 10
0.0
 20
0.0
 30
0.0
  3
_NONE
  1

  0
ENDBLK
  5
E4
  8
0
  0
BLOCK
  8
0
  2
_D_2
 70
     0
 10
0.0
 20
0.0
 30
0.0
  3
_D_2
  1

  0
INSERT
  5
E8
  8
LEVEL0
  2
_CLOSED
 10
69.953711844
 20
87.4328277174
 30
-2.8
 41
2.0
 42
2.0
 50
141.3481822326
  0
LINE
  5
E9
  8
LEVEL0
 10
69.953711844
 20
87.4328277174
 30
0.0
 11
114.7103625657
 21
51.6377425108
 31
0.0
  0
LINE
  5
EA
  8
LEVEL0
 10
69.953711844
 20
87.4328277174
 30
0.0
 11
66.829888156
 21
89.9311722826
 31
0.0
  0
TEXT
  5
EB
  8
LEVEL0
 10
90.6441586546
 20
71.788545142
 30
-2.8
 40
2.0
  1
MARK SCREW POSITIONS
 50
321.3481822326
 41
0.665
 11
90.2028759767
 21
71.2367840673
 31
-2.8
 73
     1
  0
ENDBLK
  5
E7
  8
0
  0
BLOCK
  8
0
  2
_D_3
 70
     0
 10
0.0
 20
0.0
 30
0.0
  3
_D_3
  1

  0
INSERT
  5
F0
  8
LEVEL0
  2
_CLOSED
 10
149.4638
 20
237.782
 30
-2.8
 41
2.0
 42
2.0
 50
0.0
  0
INSERT
  5
F1
  8
LEVEL0
  2
_CLOSED
 10
76.0198
 20
237.782
 30
-2.8
 41
2.0
 42
2.0
 50
180.0
  0
LINE
  5
F2
  8
LEVEL0
 10
103.341673908
 20
243.9493610471
 30
0.0
 11
102.9354238996
 21
243.9493610471
 31
0.0
  0
LINE
  5
F3
  8
LEVEL0
 10
102.9354238996
 20
243.9493610471
 30
0.0
 11
102.9354238996
 21
240.7743610855
 31
0.0
  0
LINE
  5
F4
  8
LEVEL0
 10
102.9354238996
 20
240.7743610855
 30
0.0
 11
103.341673908
 21
240.7743610855
 31
0.0
  0
LINE
  5
F5
  8
LEVEL0
 10
109.5295208503
 20
243.9493610471
 30
0.0
 11
109.9357708587
 21
243.9493610471
 31
0.0
  0
LINE
  5
F6
  8
LEVEL0
 10
109.9357708587
 20
243.9493610471
 30
0.0
 11
109.9357708587
 21
240.7743610855
 31
0.0
  0
LINE
  5
F7
  8
LEVEL0
 10
109.9357708587
 20
240.7743610855
 30
0.0
 11
109.5295208503
 21
240.7743610855
 31
0.0
  0
LINE
  5
F8
  8
LEVEL0
 10
149.4638
 20
215.306
 30
0.0
 11
149.4638
 21
238.782
 31
0.0
  0
LINE
  5
F9
  8
LEVEL0
 10
76.0198
 20
215.306
 30
0.0
 11
76.0198
 21
238.782
 31
0.0
  0
LINE
  5
FA
  8
LEVEL0
 10
149.4638
 20
237.782
 30
0.0
 11
76.0198
 21
237.782
 31
0.0
  0
TEXT
  5
FB
  8
LEVEL0
 10
101.1529586682
 20
238.5190756534
 30
-2.8
 40
2.0
  1
  
 50
0.0
 41
0.7
 11
101.1529586682
 21
237.8125555295
 31
-2.8
 73
     1
  0
TEXT
  5
FC
  8
LEVEL0
 10
103.8494864184
 20
241.4808812093
 30
-2.8
 40
2.0
  1
2.89
 50
0.0
 41
0.7
 11
103.8494864184
 21
240.7743610855
 31
-2.8
 73
     1
  0
TEXT
  5
FD
  8
LEVEL0
 10
103.8494865348
 20
238.488519891
 30
-2.8
 40
2.0
  1
73.4
 50
0.0
 41
0.7
 11
103.8494865348
 21
237.7819997672
 31
-2.8
 73
     1
  0
TEXT
  5
FE
  8
LEVEL0
 10
110.2404588306
 20
238.5190756534
 30
-2.8
 40
2.0
  1
  
 50
0.0
 41
0.7
 11
110.2404588306
 21
237.8125555295
 31
-2.8
 73
     1
  0
ENDBLK
  5
EF
  8
0
  0
BLOCK
  8
0
  2
_D_4
 70
     0
 10
0.0
 20
0.0
 30
0.0
  3
_D_4
  1

  0
INSERT
  5
103
  8
LEVEL0
  2
_CLOSED
 10
56.0495781712
 20
214.306
 30
-2.8
 41
2.0
 42
2.0
 50
90.0
  0
INSERT
  5
104
  8
LEVEL0
  2
_CLOSED
 10
56.0495781712
 20
96.158
 30
-2.8
 41
2.0
 42
2.0
 50
270.0
  0
LINE
  5
105
  8
LEVEL0
 10
49.8822171241
 20
157.9716429696
 30
0.0
 11
49.8822171241
 21
157.5653929613
 31
0.0
  0
LINE
  5
106
  8
LEVEL0
 10
49.8822171241
 20
157.5653929613
 30
0.0
 11
53.0572170857
 21
157.5653929613
 31
0.0
  0
LINE
  5
107
  8
LEVEL0
 10
53.0572170857
 20
157.5653929613
 30
0.0
 11
53.0572170857
 21
157.9716429696
 31
0.0
  0
LINE
  5
108
  8
LEVEL0
 10
49.8822171241
 20
164.159489912
 30
0.0
 11
49.8822171241
 21
164.5657399204
 31
0.0
  0
LINE
  5
109
  8
LEVEL0
 10
49.8822171241
 20
164.5657399204
 30
0.0
 11
53.0572170857
 21
164.5657399204
 31
0.0
  0
LINE
  5
10A
  8
LEVEL0
 10
53.0572170857
 20
164.5657399204
 30
0.0
 11
53.0572170857
 21
164.159489912
 31
0.0
  0
LINE
  5
10B
  8
LEVEL0
 10
75.0198
 20
214.306
 30
0.0
 11
55.0495781712
 21
214.306
 31
0.0
  0
LINE
  5
10C
  8
LEVEL0
 10
75.0198
 20
96.158
 30
0.0
 11
55.0495781712
 21
96.158
 31
0.0
  0
LINE
  5
10D
  8
LEVEL0
 10
56.0495781712
 20
214.306
 30
0.0
 11
56.0495781712
 21
96.158
 31
0.0
  0
TEXT
  5
10E
  8
LEVEL0
 10
55.3125025178
 20
155.7829277299
 30
-2.8
 40
2.0
  1
  
 50
90.0
 41
0.7
 11
56.0190226417
 21
155.7829277299
 31
-2.8
 73
     1
  0
TEXT
  5
10F
  8
LEVEL0
 10
52.3506969619
 20
158.4794554801
 30
-2.8
 40
2.0
  1
4.65
 50
90.0
 41
0.7
 11
53.0572170857
 21
158.4794554801
 31
-2.8
 73
     1
  0
TEXT
  5
110
  8
LEVEL0
 10
55.3430582802
 20
157.7405666176
 30
-2.8
 40
2.0
  1
118.1
 50
90.0
 41
0.7
 11
56.049578404
 21
157.7405666176
 31
-2.8
 73
     1
  0
TEXT
  5
111
  8
LEVEL0
 10
55.3125025178
 20
164.8704278923
 30
-2.8
 40
2.0
  1
  
 50
90.0
 41
0.7
 11
56.0190226417
 21
164.8704278923
 31
-2.8
 73
     1
  0
ENDBLK
  5
102
  8
0
  0
BLOCK
  8
0
  2
_D_5
 70
     0
 10
0.0
 20
0.0
 30
0.0
  3
_D_5
  1

  0
INSERT
  5
116
  8
LEVEL0
  2
_CLOSED
 10
56.1127749063
 20
96.158
 30
-2.8
 41
2.0
 42
2.0
 50
90.0
  0
INSERT
  5
117
  8
LEVEL0
  2
_CLOSED
 10
56.1127749063
 20
88.682
 30
-2.8
 41
2.0
 42
2.0
 50
270.0
  0
LINE
  5
118
  8
LEVEL0
 10
49.9454138592
 20
71.0546630676
 30
0.0
 11
49.9454138592
 21
70.6484130592
 31
0.0
  0
LINE
  5
119
  8
LEVEL0
 10
49.9454138592
 20
70.6484130592
 30
0.0
 11
53.1204138208
 21
70.6484130592
 31
0.0
  0
LINE
  5
11A
  8
LEVEL0
 10
53.1204138208
 20
70.6484130592
 30
0.0
 11
53.1204138208
 21
71.0546630676
 31
0.0
  0
LINE
  5
11B
  8
LEVEL0
 10
49.9454138592
 20
77.2425100099
 30
0.0
 11
49.9454138592
 21
77.6487600183
 31
0.0
  0
LINE
  5
11C
  8
LEVEL0
 10
49.9454138592
 20
77.6487600183
 30
0.0
 11
53.1204138208
 21
77.6487600183
 31
0.0
  0
LINE
  5
11D
  8
LEVEL0
 10
53.1204138208
 20
77.6487600183
 30
0.0
 11
53.1204138208
 21
77.2425100099
 31
0.0
  0
LINE
  5
11E
  8
LEVEL0
 10
75.0198
 20
96.158
 30
0.0
 11
55.1127749063
 21
96.158
 31
0.0
  0
LINE
  5
11F
  8
LEVEL0
 10
62.8918
 20
88.682
 30
0.0
 11
55.1127749063
 21
88.682
 31
0.0
  0
LINE
  5
120
  8
LEVEL0
 10
56.1127749063
 20
96.158
 30
0.0
 11
56.1127749063
 21
88.682
 31
0.0
  0
LINE
  5
121
  8
LEVEL0
 10
56.1127749063
 20
88.682
 30
0.0
 11
56.1127749063
 21
68.8659478278
 31
0.0
  0
TEXT
  5
122
  8
LEVEL0
 10
55.3756992529
 20
68.8659478278
 30
-2.8
 40
2.0
  1
  
 50
90.0
 41
0.7
 11
56.0822193768
 21
68.8659478278
 31
-2.8
 73
     1
  0
TEXT
  5
123
  8
LEVEL0
 10
52.413893697
 20
71.562475578
 30
-2.8
 40
2.0
  1
0.29
 50
90.0
 41
0.7
 11
53.1204138208
 21
71.562475578
 31
-2.8
 73
     1
  0
TEXT
  5
124
  8
LEVEL0
 10
55.4062550153
 20
72.301364557
 30
-2.8
 40
2.0
  1
7.5
 50
90.0
 41
0.7
 11
56.1127751391
 21
72.301364557
 31
-2.8
 73
     1
  0
TEXT
  5
125
  8
LEVEL0
 10
55.3756992529
 20
77.9534479902
 30
-2.8
 40
2.0
  1
  
 50
90.0
 41
0.7
 11
56.0822193768
 21
77.9534479902
 31
-2.8
 73
     1
  0
ENDBLK
  5
115
  8
0
  0
BLOCK
  8
0
  2
_D_6
 70
     0
 10
0.0
 20
0.0
 30
0.0
  3
_D_6
  1

  0
INSERT
  5
12A
  8
LEVEL0
  2
_CLOSED
 10
157.0918
 20
230.0693283424
 30
-2.8
 41
2.0
 42
2.0
 50
0.0
  0
INSERT
  5
12B
  8
LEVEL0
  2
_CLOSED
 10
149.4638
 20
230.0693283424
 30
-2.8
 41
2.0
 42
2.0
 50
180.0
  0
LINE
  5
12C
  8
LEVEL0
 10
169.9978761796
 20
236.2366893896
 30
0.0
 11
169.5916261712
 21
236.2366893896
 31
0.0
  0
LINE
  5
12D
  8
LEVEL0
 10
169.5916261712
 20
236.2366893896
 30
0.0
 11
169.5916261712
 21
233.0616894279
 31
0.0
  0
LINE
  5
12E
  8
LEVEL0
 10
169.5916261712
 20
233.0616894279
 30
0.0
 11
169.9978761796
 21
233.0616894279
 31
0.0
  0
LINE
  5
12F
  8
LEVEL0
 10
176.1857231219
 20
236.2366893896
 30
0.0
 11
176.5919731303
 21
236.2366893896
 31
0.0
  0
LINE
  5
130
  8
LEVEL0
 10
176.5919731303
 20
236.2366893896
 30
0.0
 11
176.5919731303
 21
233.0616894279
 31
0.0
  0
LINE
  5
131
  8
LEVEL0
 10
176.5919731303
 20
233.0616894279
 30
0.0
 11
176.1857231219
 21
233.0616894279
 31
0.0
  0
LINE
  5
132
  8
LEVEL0
 10
157.0918
 20
227.282
 30
0.0
 11
157.0918
 21
231.0693283424
 31
0.0
  0
LINE
  5
133
  8
LEVEL0
 10
149.4638
 20
215.306
 30
0.0
 11
149.4638
 21
231.0693283424
 31
0.0
  0
LINE
  5
134
  8
LEVEL0
 10
157.0918
 20
230.0693283424
 30
0.0
 11
178.3744390602
 21
230.0693283424
 31
0.0
  0
LINE
  5
135
  8
LEVEL0
 10
157.0918
 20
230.0693283424
 30
0.0
 11
149.4638
 21
230.0693283424
 31
0.0
  0
TEXT
  5
136
  8
LEVEL0
 10
167.8091609398
 20
230.8064039958
 30
-2.8
 40
2.0
  1
  
 50
0.0
 41
0.7
 11
167.8091609398
 21
230.099883872
 31
-2.8
 73
     1
  0
TEXT
  5
137
  8
LEVEL0
 10
170.5056886901
 20
233.7682095518
 30
-2.8
 40
2.0
  1
0.30
 50
0.0
 41
0.7
 11
170.5056886901
 21
233.0616894279
 31
-2.8
 73
     1
  0
TEXT
  5
138
  8
LEVEL0
 10
171.244577669
 20
230.7758482334
 30
-2.8
 40
2.0
  1
7.6
 50
0.0
 41
0.7
 11
171.244577669
 21
230.0693281096
 31
-2.8
 73
     1
  0
TEXT
  5
139
  8
LEVEL0
 10
176.8966611023
 20
230.8064039958
 30
-2.8
 40
2.0
  1
  
 50
0.0
 41
0.7
 11
176.8966611023
 21
230.099883872
 31
-2.8
 73
     1
  0
ENDBLK
  5
129
  8
0
  0
BLOCK
  8
0
  2
SW_SYMBOL_MOD_CL
 70
     0
 10
0.0
 20
0.0
 30
0.0
  3
SW_SYMBOL_MOD_CL
  1

  0
TEXT
  5
13D
  8
LEVEL0
 62
     0
 10
141.6122324159
 20
208.5626911315
 30
0.0
 40
782.874617737
  1
C
 41
0.7
 72
     1
 11
400.0
 21
600.0
 31
0.0
 73
     2
  0
TEXT
  5
13E
  8
LEVEL0
 62
     0
 10
341.6122324159
 20
-91.4373088685
 30
0.0
 40
782.874617737
  1
L
 41
0.7
 72
     1
 11
600.0
 21
300.0
 31
0.0
 73
     2
  0
ENDBLK
  5
13C
  8
0
  0
BLOCK
  8
0
  2
SW_CENTERMARKSYMBOL_0
 70
     0
 10
0.0
 20
0.0
 30
0.0
  3
SW_CENTERMARKSYMBOL_0
  1

  0
LINE
  5
143
  8
LEVEL0
 62
     0
 10
0.0
 20
0.0
 30
0.0
 11
0.0
 21
2.5
 31
0.0
  0
LINE
  5
144
  8
LEVEL0
 62
     0
 10
0.0
 20
0.0
 30
0.0
 11
-2.5
 21
0.0
 31
0.0
  0
LINE
  5
145
  8
LEVEL0
 62
     0
 10
0.0
 20
0.0
 30
0.0
 11
0.0
 21
-2.5
 31
0.0
  0
LINE
  5
146
  8
LEVEL0
 62
     0
 10
0.0
 20
0.0
 30
0.0
 11
2.5
 21
0.0
 31
0.0
  0
LINE
  5
147
  8
LEVEL0
 62
     0
 10
0.0
 20
2.5
 30
0.0
 11
0.0
 21
4.5
 31
0.0
  0
LINE
  5
148
  8
LEVEL0
 62
     0
 10
-2.5
 20
0.0
 30
0.0
 11
-4.5
 21
0.0
 31
0.0
  0
LINE
  5
149
  8
LEVEL0
 62
     0
 10
0.0
 20
-2.5
 30
0.0
 11
0.0
 21
-4.5
 31
0.0
  0
LINE
  5
14A
  8
LEVEL0
 62
     0
 10
2.5
 20
0.0
 30
0.0
 11
4.5
 21
0.0
 31
0.0
  0
ENDBLK
  5
142
  8
0
  0
BLOCK
  8
0
  2
SW_CENTERMARKSYMBOL_1
 70
     0
 10
0.0
 20
0.0
 30
0.0
  3
SW_CENTERMARKSYMBOL_1
  1

  0
LINE
  5
14F
  8
LEVEL0
 62
     0
 10
0.0
 20
0.0
 30
0.0
 11
0.0
 21
2.5
 31
0.0
  0
LINE
  5
150
  8
LEVEL0
 62
     0
 10
0.0
 20
0.0
 30
0.0
 11
-2.5
 21
0.0
 31
0.0
  0
LINE
  5
151
  8
LEVEL0
 62
     0
 10
0.0
 20
0.0
 30
0.0
 11
0.0
 21
-2.5
 31
0.0
  0
LINE
  5
152
  8
LEVEL0
 62
     0
 10
0.0
 20
0.0
 30
0.0
 11
2.5
 21
0.0
 31
0.0
  0
LINE
  5
153
  8
LEVEL0
 62
     0
 10
0.0
 20
2.5
 30
0.0
 11
0.0
 21
4.5
 31
0.0
  0
LINE
  5
154
  8
LEVEL0
 62
     0
 10
-2.5
 20
0.0
 30
0.0
 11
-4.5
 21
0.0
 31
0.0
  0
LINE
  5
155
  8
LEVEL0
 62
     0
 10
0.0
 20
-2.5
 30
0.0
 11
0.0
 21
-4.5
 31
0.0
  0
LINE
  5
156
  8
LEVEL0
 62
     0
 10
2.5
 20
0.0
 30
0.0
 11
4.5
 21
0.0
 31
0.0
  0
ENDBLK
  5
14E
  8
0
  0
BLOCK
  8
0
  2
SW_CENTERMARKSYMBOL_2
 70
     0
 10
0.0
 20
0.0
 30
0.0
  3
SW_CENTERMARKSYMBOL_2
  1

  0
LINE
  5
15B
  8
LEVEL0
 62
     0
 10
0.0
 20
0.0
 30
0.0
 11
0.0
 21
2.5
 31
0.0
  0
LINE
  5
15C
  8
LEVEL0
 62
     0
 10
0.0
 20
0.0
 30
0.0
 11
-2.5
 21
0.0
 31
0.0
  0
LINE
  5
15D
  8
LEVEL0
 62
     0
 10
0.0
 20
0.0
 30
0.0
 11
0.0
 21
-2.5
 31
0.0
  0
LINE
  5
15E
  8
LEVEL0
 62
     0
 10
0.0
 20
0.0
 30
0.0
 11
2.5
 21
0.0
 31
0.0
  0
LINE
  5
15F
  8
LEVEL0
 62
     0
 10
0.0
 20
2.5
 30
0.0
 11
0.0
 21
4.5
 31
0.0
  0
LINE
  5
160
  8
LEVEL0
 62
     0
 10
-2.5
 20
0.0
 30
0.0
 11
-4.5
 21
0.0
 31
0.0
  0
LINE
  5
161
  8
LEVEL0
 62
     0
 10
0.0
 20
-2.5
 30
0.0
 11
0.0
 21
-4.5
 31
0.0
  0
LINE
  5
162
  8
LEVEL0
 62
     0
 10
2.5
 20
0.0
 30
0.0
 11
4.5
 21
0.0
 31
0.0
  0
ENDBLK
  5
15A
  8
0
  0
BLOCK
  8
0
  2
SW_CENTERMARKSYMBOL_3
 70
     0
 10
0.0
 20
0.0
 30
0.0
  3
SW_CENTERMARKSYMBOL_3
  1

  0
LINE
  5
167
  8
LEVEL0
 62
     0
 10
0.0
 20
0.0
 30
0.0
 11
0.0
 21
2.5
 31
0.0
  0
LINE
  5
168
  8
LEVEL0
 62
     0
 10
0.0
 20
0.0
 30
0.0
 11
-2.5
 21
0.0
 31
0.0
  0
LINE
  5
169
  8
LEVEL0
 62
     0
 10
0.0
 20
0.0
 30
0.0
 11
0.0
 21
-2.5
 31
0.0
  0
LINE
  5
16A
  8
LEVEL0
 62
     0
 10
0.0
 20
0.0
 30
0.0
 11
2.5
 21
0.0
 31
0.0
  0
LINE
  5
16B
  8
LEVEL0
 62
     0
 10
0.0
 20
2.5
 30
0.0
 11
0.0
 21
4.5
 31
0.0
  0
LINE
  5
16C
  8
LEVEL0
 62
     0
 10
-2.5
 20
0.0
 30
0.0
 11
-4.5
 21
0.0
 31
0.0
  0
LINE
  5
16D
  8
LEVEL0
 62
     0
 10
0.0
 20
-2.5
 30
0.0
 11
0.0
 21
-4.5
 31
0.0
  0
LINE
  5
16E
  8
LEVEL0
 62
     0
 10
2.5
 20
0.0
 30
0.0
 11
4.5
 21
0.0
 31
0.0
  0
ENDBLK
  5
166
  8
0
  0
ENDSEC
  0
SECTION
  2
ENTITIES
  0
LINE
  5
A7
  8
0
  6
CONTINUOUS
 62
     7
 10
76.0198
 20
214.306
 30
0.0
 11
76.0198
 21
96.158
 31
0.0
  0
LINE
  5
A8
  8
0
  6
CONTINUOUS
 62
     7
 10
76.0198
 20
96.158
 30
0.0
 11
149.4638
 21
96.158
 31
0.0
  0
LINE
  5
A9
  8
0
  6
CONTINUOUS
 62
     7
 10
149.4638
 20
96.158
 30
0.0
 11
149.4638
 21
214.306
 31
0.0
  0
LINE
  5
AA
  8
0
  6
CONTINUOUS
 62
     7
 10
149.4638
 20
214.306
 30
0.0
 11
76.0198
 21
214.306
 31
0.0
  0
CIRCLE
  5
AB
  8
0
  6
CONTINUOUS
 62
     7
 10
157.0918
 20
88.682
 30
0.0
 40
2.0
  0
CIRCLE
  5
AC
  8
0
  6
CONTINUOUS
 62
     7
 10
68.3918
 20
221.782
 30
0.0
 40
2.0
  0
CIRCLE
  5
AD
  8
0
  6
CONTINUOUS
 62
     7
 10
157.0918
 20
221.782
 30
0.0
 40
2.0
  0
CIRCLE
  5
AE
  8
0
  6
CONTINUOUS
 62
     7
 10
68.3918
 20
88.682
 30
0.0
 40
2.0
  0
LINE
  5
AF
  8
LEVEL0
 10
112.7418
 20
227.782
 30
0.0
 11
112.7418
 21
74.6955201529
 31
0.0
  0
LINE
  5
B0
  8
LEVEL0
 10
112.7418
 20
227.782
 30
0.0
 11
112.7418
 21
245.5728840803
 31
0.0
  0
DIMENSION
  5
B1
  8
LEVEL0
  2
_D
 10
157.0918
 20
246.2407935908
 30
0.0
 11
106.4355977284
 21
246.2407935908
 31
0.0
 70
   160
  1
<>
  3
SLDDIMSTYLE0
 13
68.3918
 23
226.282
 33
0.0
 14
157.0918
 24
226.282
 34
0.0
  0
DIMENSION
  5
CC
  8
LEVEL0
  2
_D_1
 10
46.3918
 20
88.682
 30
0.0
 11
46.3918
 21
161.0655667901
 31
0.0
 70
   160
  1
<>
  3
SLDDIMSTYLE1
 13
63.8918
 23
221.782
 33
0.0
 14
63.8918
 24
88.682
 34
0.0
 50
90.0
  0
DIMENSION
  5
E0
  8
LEVEL0
  2
_D_2
 10
66.829888156
 20
89.9311722826
 30
0.0
 11
102.4794796505
 21
61.4196697676
 31
0.0
 70
   163
  1
MARK SCREW POSITIONS
  3
SLDDIMSTYLE2
 15
69.953711844
 25
87.4328277174
 35
0.0
 40
0.0
  0
DIMENSION
  5
EC
  8
LEVEL0
  2
_D_3
 10
76.0198
 20
237.782
 30
0.0
 11
106.4355977284
 21
237.782
 31
0.0
 70
   160
  1
<>
  3
SLDDIMSTYLE1
 13
149.4638
 23
214.306
 33
0.0
 14
76.0198
 24
214.306
 34
0.0
  0
DIMENSION
  5
FF
  8
LEVEL0
  2
_D_4
 10
56.0495781712
 20
96.158
 30
0.0
 11
56.0495781712
 21
161.0655667901
 31
0.0
 70
   160
  1
<>
  3
SLDDIMSTYLE1
 13
76.0198
 23
214.306
 33
0.0
 14
76.0198
 24
96.158
 34
0.0
 50
90.0
  0
DIMENSION
  5
112
  8
LEVEL0
  2
_D_5
 10
56.1127749063
 20
88.682
 30
0.0
 11
56.1127749063
 21
74.148586888
 31
0.0
 70
   160
  1
<>
  3
SLDDIMSTYLE1
 13
76.0198
 23
96.158
 33
0.0
 14
63.8918
 24
88.682
 34
0.0
 50
90.0
  0
DIMENSION
  5
126
  8
LEVEL0
  2
_D_6
 10
149.4638
 20
230.0693283424
 30
0.0
 11
173.0918
 21
230.0693283424
 31
0.0
 70
   160
  1
<>
  3
SLDDIMSTYLE1
 13
157.0918
 23
226.282
 33
0.0
 14
149.4638
 24
214.306
 34
0.0
  0
INSERT
  5
13F
  8
LEVEL0
  2
SW_SYMBOL_MOD_CL
 10
114.2444622331
 20
234.274114317
 30
0.0
 41
0.0025546875
 42
0.0025546875
 43
0.0025546875
  0
INSERT
  5
14B
  8
LEVEL0
  2
SW_CENTERMARKSYMBOL_0
 10
68.3918
 20
88.682
 30
0.0
  0
INSERT
  5
157
  8
LEVEL0
  2
SW_CENTERMARKSYMBOL_1
 10
157.0918
 20
88.682
 30
0.0
  0
INSERT
  5
163
  8
LEVEL0
  2
SW_CENTERMARKSYMBOL_2
 10
68.3918
 20
221.782
 30
0.0
  0
INSERT
  5
16F
  8
LEVEL0
  2
SW_CENTERMARKSYMBOL_3
 10
157.0918
 20
221.782
 30
0.0
  0
ENDSEC
  0
EOF
