  0
SECTION
  2
HEADER
  9
$ACADVER
  1
AC1015
  9
$ACADMAINTVER
 70
     6
  9
$DWGCODEPAGE
  3
ANSI_1252
  9
$INSBASE
 10
0.0
 20
0.0
 30
0.0
  9
$EXTMIN
 10
0.0
 20
0.0
 30
0.0
  9
$EXTMAX
 10
210.0
 20
297.0
 30
0.0
  9
$LIMMIN
 10
0.0
 20
0.0
  9
$LIMMAX
 10
210.0
 20
297.0
  9
$ORTHOMODE
 70
     0
  9
$REGENMODE
 70
     1
  9
$FILLMODE
 70
     1
  9
$QTEXTMODE
 70
     0
  9
$MIRRTEXT
 70
     1
  9
$LTSCALE
 40
1.0
  9
$ATTMODE
 70
     1
  9
$TEXTSIZE
 40
2.0
  9
$TRACEWID
 40
1.0
  9
$TEXTSTYLE
  7
Standard
  9
$CLAYER
  8
0
  9
$CELTYPE
  6
ByLayer
  9
$CECOLOR
 62
   256
  9
$CELTSCALE
 40
1.0
  9
$DISPSILH
 70
     0
  9
$DIMSCALE
 40
1.0
  9
$DIMASZ
 40
2.0
  9
$DIMEXO
 40
1.0
  9
$DIMDLI
 40
3.75
  9
$DIMRND
 40
0.0
  9
$DIMDLE
 40
0.0
  9
$DIMEXE
 40
1.0
  9
$DIMTP
 40
0.0
  9
$DIMTM
 40
0.0
  9
$DIMTXT
 40
2.0
  9
$DIMCEN
 40
2.5
  9
$DIMTSZ
 40
0.0
  9
$DIMTOL
 70
     0
  9
$DIMLIM
 70
     0
  9
$DIMTIH
 70
     1
  9
$DIMTOH
 70
     1
  9
$DIMSE1
 70
     0
  9
$DIMSE2
 70
     0
  9
$DIMTAD
 70
     1
  9
$DIMZIN
 70
     0
  9
$DIMBLK
  1

  9
$DIMASO
 70
     1
  9
$DIMSHO
 70
     1
  9
$DIMPOST
  1

  9
$DIMAPOST
  1

  9
$DIMALT
 70
     0
  9
$DIMALTD
 70
     3
  9
$DIMALTF
 40
0.0393700787
  9
$DIMLFAC
 40
1.0
  9
$DIMTOFL
 70
     1
  9
$DIMTVP
 40
0.0
  9
$DIMTIX
 70
     0
  9
$DIMSOXD
 70
     0
  9
$DIMSAH
 70
     0
  9
$DIMBLK1
  1

  9
$DIMBLK2
  1

  9
$DIMSTYLE
  2
ISO-25
  9
$DIMCLRD
 70
     0
  9
$DIMCLRE
 70
     0
  9
$DIMCLRT
 70
     0
  9
$DIMTFAC
 40
1.0
  9
$DIMGAP
 40
1.524
  9
$DIMJUST
 70
     0
  9
$DIMSD1
 70
     0
  9
$DIMSD2
 70
     0
  9
$DIMTOLJ
 70
     0
  9
$DIMTZIN
 70
     0
  9
$DIMALTZ
 70
     0
  9
$DIMALTTZ
 70
     0
  9
$DIMUPT
 70
     0
  9
$DIMDEC
 70
     1
  9
$DIMTDEC
 70
     1
  9
$DIMALTU
 70
     2
  9
$DIMALTTD
 70
     3
  9
$DIMTXSTY
  7
Standard
  9
$DIMAUNIT
 70
     0
  9
$DIMADEC
 70
     1
  9
$DIMALTRND
 40
0.0
  9
$DIMAZIN
 70
     0
  9
$DIMDSEP
 70
    44
  9
$DIMATFIT
 70
     3
  9
$DIMFRAC
 70
     0
  9
$DIMLDRBLK
  1

  9
$DIMLUNIT
 70
     2
  9
$DIMLWD
 70
    -2
  9
$DIMLWE
 70
    -2
  9
$DIMTMOVE
 70
     0
  9
$LUNITS
 70
     2
  9
$LUPREC
 70
     3
  9
$SKETCHINC
 40
1.0
  9
$FILLETRAD
 40
10.0
  9
$AUNITS
 70
     0
  9
$AUPREC
 70
     2
  9
$MENU
  1
.
  9
$ELEVATION
 40
0.0
  9
$PELEVATION
 40
0.0
  9
$THICKNESS
 40
0.0
  9
$LIMCHECK
 70
     0
  9
$CHAMFERA
 40
0.0
  9
$CHAMFERB
 40
0.0
  9
$CHAMFERC
 40
0.0
  9
$CHAMFERD
 40
0.0
  9
$SKPOLY
 70
     0
  9
$TDCREATE
 40
2458938.426865046
  9
$TDUCREATE
 40
2458938.301865046
  9
$TDUPDATE
 40
2458938.426866852
  9
$TDUUPDATE
 40
2458938.301866852
  9
$TDINDWG
 40
0.0000000116
  9
$TDUSRTIMER
 40
0.0000000116
  9
$USRTIMER
 70
     1
  9
$ANGBASE
 50
0.0
  9
$ANGDIR
 70
     0
  9
$PDMODE
 70
     0
  9
$PDSIZE
 40
-1.0
  9
$PLINEWID
 40
0.0
  9
$SPLFRAME
 70
     0
  9
$SPLINETYPE
 70
     6
  9
$SPLINESEGS
 70
     8
  9
$HANDSEED
  5
1E7
  9
$SURFTAB1
 70
     6
  9
$SURFTAB2
 70
     6
  9
$SURFTYPE
 70
     6
  9
$SURFU
 70
     6
  9
$SURFV
 70
     6
  9
$UCSBASE
  2

  9
$UCSNAME
  2

  9
$UCSORG
 10
0.0
 20
0.0
 30
0.0
  9
$UCSXDIR
 10
1.0
 20
0.0
 30
0.0
  9
$UCSYDIR
 10
0.0
 20
1.0
 30
0.0
  9
$UCSORTHOREF
  2

  9
$UCSORTHOVIEW
 70
     0
  9
$UCSORGTOP
 10
0.0
 20
0.0
 30
0.0
  9
$UCSORGBOTTOM
 10
0.0
 20
0.0
 30
0.0
  9
$UCSORGLEFT
 10
0.0
 20
0.0
 30
0.0
  9
$UCSORGRIGHT
 10
0.0
 20
0.0
 30
0.0
  9
$UCSORGFRONT
 10
0.0
 20
0.0
 30
0.0
  9
$UCSORGBACK
 10
0.0
 20
0.0
 30
0.0
  9
$PUCSBASE
  2

  9
$PUCSNAME
  2

  9
$PUCSORG
 10
0.0
 20
0.0
 30
0.0
  9
$PUCSXDIR
 10
1.0
 20
0.0
 30
0.0
  9
$PUCSYDIR
 10
0.0
 20
1.0
 30
0.0
  9
$PUCSORTHOREF
  2

  9
$PUCSORTHOVIEW
 70
     0
  9
$PUCSORGTOP
 10
0.0
 20
0.0
 30
0.0
  9
$PUCSORGBOTTOM
 10
0.0
 20
0.0
 30
0.0
  9
$PUCSORGLEFT
 10
0.0
 20
0.0
 30
0.0
  9
$PUCSORGRIGHT
 10
0.0
 20
0.0
 30
0.0
  9
$PUCSORGFRONT
 10
0.0
 20
0.0
 30
0.0
  9
$PUCSORGBACK
 10
0.0
 20
0.0
 30
0.0
  9
$USERI1
 70
     0
  9
$USERI2
 70
     0
  9
$USERI3
 70
     0
  9
$USERI4
 70
     0
  9
$USERI5
 70
     0
  9
$USERR1
 40
0.0
  9
$USERR2
 40
0.0
  9
$USERR3
 40
0.0
  9
$USERR4
 40
0.0
  9
$USERR5
 40
0.0
  9
$WORLDVIEW
 70
     1
  9
$SHADEDGE
 70
     3
  9
$SHADEDIF
 70
    70
  9
$TILEMODE
 70
     1
  9
$MAXACTVP
 70
    64
  9
$PINSBASE
 10
0.0
 20
0.0
 30
0.0
  9
$PLIMCHECK
 70
     0
  9
$PEXTMIN
 10
1.0000000000E+20
 20
1.0000000000E+20
 30
1.0000000000E+20
  9
$PEXTMAX
 10
-1.0000000000E+20
 20
-1.0000000000E+20
 30
-1.0000000000E+20
  9
$PLIMMIN
 10
0.0
 20
0.0
  9
$PLIMMAX
 10
420.0
 20
297.0
  9
$UNITMODE
 70
     0
  9
$VISRETAIN
 70
     1
  9
$PLINEGEN
 70
     0
  9
$PSLTSCALE
 70
     1
  9
$TREEDEPTH
 70
  3020
  9
$CMLSTYLE
  2
Standard
  9
$CMLJUST
 70
     0
  9
$CMLSCALE
 40
20.0
  9
$PROXYGRAPHICS
 70
     1
  9
$MEASUREMENT
 70
     1
  9
$CELWEIGHT
370
    -1
  9
$ENDCAPS
280
     0
  9
$JOINSTYLE
280
     0
  9
$LWDISPLAY
290
     1
  9
$INSUNITS
 70
     4
  9
$HYPERLINKBASE
  1

  9
$STYLESHEET
  1

  9
$XEDIT
290
     1
  9
$CEPSNTYPE
380
     0
  9
$PSTYLEMODE
290
     1
  9
$FINGERPRINTGUID
  2
{defcfe4e-089e-4e6a-a57f-63a9b25319f5}
  9
$VERSIONGUID
  2
{FAEB1C32-E019-11D5-929B-00C0DF256EC4}
  9
$EXTNAMES
290
     1
  9
$PSVPSCALE
 40
0.0
  9
$OLESTARTUP
290
     0
  0
ENDSEC
  0
SECTION
  2
CLASSES
  0
CLASS
  1
ACDBDICTIONARYWDFLT
  2
AcDbDictionaryWithDefault
  3
ObjectDBX Classes
 90
        0
280
     0
281
     0
  0
CLASS
  1
VISUALSTYLE
  2
AcDbVisualStyle
  3
ObjectDBX Classes
 90
     4095
280
     0
281
     0
  0
CLASS
  1
MATERIAL
  2
AcDbMaterial
  3
ObjectDBX Classes
 90
     1153
280
     0
281
     0
  0
CLASS
  1
SCALE
  2
AcDbScale
  3
ObjectDBX Classes
 90
     1153
280
     0
281
     0
  0
CLASS
  1
TABLESTYLE
  2
AcDbTableStyle
  3
ObjectDBX Classes
 90
     4095
280
     0
281
     0
  0
CLASS
  1
MLEADERSTYLE
  2
AcDbMLeaderStyle
  3
ACDB_MLEADERSTYLE_CLASS
 90
     4095
280
     0
281
     0
  0
CLASS
  1
SUN
  2
AcDbSun
  3
SCENEOE
 90
     1153
280
     0
281
     0
  0
CLASS
  1
ACDBPLACEHOLDER
  2
AcDbPlaceHolder
  3
ObjectDBX Classes
 90
        0
280
     0
281
     0
  0
CLASS
  1
LAYOUT
  2
AcDbLayout
  3
ObjectDBX Classes
 90
        0
280
     0
281
     0
  0
ENDSEC
  0
SECTION
  2
TABLES
  0
TABLE
  2
VPORT
  5
8
330
0
100
AcDbSymbolTable
 70
     1
  0
VPORT
  5
29
330
8
100
AcDbSymbolTableRecord
100
AcDbViewportTableRecord
  2
*Active
 70
     0
 10
0.0
 20
0.0
 11
1.0
 21
1.0
 12
105.0
 22
148.5
 13
0.0
 23
0.0
 14
10.0
 24
10.0
 15
10.0
 25
10.0
 16
0.0
 26
0.0
 36
1.0
 17
0.0
 27
0.0
 37
0.0
 40
297.0
 41
0.7070707071
 42
50.0
 43
0.0
 44
0.0
 50
0.0
 51
0.0
 71
     0
 72
  2000
 73
     1
 74
     3
 75
     0
 76
     0
 77
     0
 78
     0
281
     0
 65
     1
110
0.0
120
0.0
130
0.0
111
1.0
121
0.0
131
0.0
112
0.0
122
1.0
132
0.0
 79
     0
146
0.0
  0
ENDTAB
  0
TABLE
  2
LTYPE
  5
5
330
0
100
AcDbSymbolTable
 70
     6
  0
LTYPE
  5
14
330
5
100
AcDbSymbolTableRecord
100
AcDbLinetypeTableRecord
  2
ByBlock
 70
     0
  3

 72
    65
 73
     0
 40
0.0
  0
LTYPE
  5
15
330
5
100
AcDbSymbolTableRecord
100
AcDbLinetypeTableRecord
  2
ByLayer
 70
     0
  3

 72
    65
 73
     0
 40
0.0
  0
LTYPE
  5
16
330
5
100
AcDbSymbolTableRecord
100
AcDbLinetypeTableRecord
  2
Continuous
 70
     0
  3
Solid line
 72
    65
 73
     0
 40
0.0
  0
LTYPE
  5
6E
330
5
100
AcDbSymbolTableRecord
100
AcDbLinetypeTableRecord
  2
HIDDEN
 70
     0
  3
Hidden __ __ __ __ __ __ __ __ __ __ __ __ __ __
 72
    65
 73
     2
 40
1.905
 49
1.27
 74
     0
 49
-0.635
 74
     0
  0
LTYPE
  5
6F
330
5
100
AcDbSymbolTableRecord
100
AcDbLinetypeTableRecord
  2
PHANTOM
 70
     0
  3
Phantom ______  __  __  ______  __  __  ______
 72
    65
 73
     6
 40
12.7
 49
6.35
 74
     0
 49
-1.27
 74
     0
 49
1.27
 74
     0
 49
-1.27
 74
     0
 49
1.27
 74
     0
 49
-1.27
 74
     0
  0
LTYPE
  5
70
330
5
100
AcDbSymbolTableRecord
100
AcDbLinetypeTableRecord
  2
CENTER
 70
     0
  3
Center ____ _ ____ _ ____ _ ____ _ ____ _ ____
 72
    65
 73
     4
 40
10.16
 49
6.35
 74
     0
 49
-1.27
 74
     0
 49
1.27
 74
     0
 49
-1.27
 74
     0
  0
LTYPE
  5
71
330
5
100
AcDbSymbolTableRecord
100
AcDbLinetypeTableRecord
  2
CENTERX2
 70
     0
  3
Center (2x) ________  __  ________  __  _____
 72
    65
 73
     4
 40
20.32
 49
12.7
 74
     0
 49
-2.54
 74
     0
 49
2.54
 74
     0
 49
-2.54
 74
     0
  0
LTYPE
  5
72
330
5
100
AcDbSymbolTableRecord
100
AcDbLinetypeTableRecord
  2
DOT2
 70
     0
  3
Dot (.5x) ........................................
 72
    65
 73
     2
 40
0.635
 49
0.0
 74
     0
 49
-0.635
 74
     0
  0
ENDTAB
  0
TABLE
  2
LAYER
  5
2
330
0
100
AcDbSymbolTable
 70
    53
  0
LAYER
  5
10
330
2
100
AcDbSymbolTableRecord
100
AcDbLayerTableRecord
  2
0
 70
     0
 62
     7
  6
Continuous
370
    -3
390
F
  0
LAYER
  5
73
330
2
100
AcDbSymbolTableRecord
100
AcDbLayerTableRecord
  2
SLD-0
 70
     0
 62
     7
  6
Continuous
370
    -3
390
F
  0
LAYER
  5
74
330
2
100
AcDbSymbolTableRecord
100
AcDbLayerTableRecord
  2
LEVEL0
 70
     0
 62
     7
  6
Continuous
370
    -3
390
F
  0
LAYER
  5
75
330
2
100
AcDbSymbolTableRecord
100
AcDbLayerTableRecord
  2
1
 70
     0
 62
     7
  6
Continuous
370
    -3
390
F
  0
LAYER
  5
76
330
2
100
AcDbSymbolTableRecord
100
AcDbLayerTableRecord
  2
2
 70
     0
 62
     7
  6
Continuous
370
    -3
390
F
  0
LAYER
  5
77
330
2
100
AcDbSymbolTableRecord
100
AcDbLayerTableRecord
  2
3
 70
     0
 62
     7
  6
Continuous
370
    -3
390
F
  0
LAYER
  5
78
330
2
100
AcDbSymbolTableRecord
100
AcDbLayerTableRecord
  2
4
 70
     0
 62
     7
  6
Continuous
370
    -3
390
F
  0
LAYER
  5
79
330
2
100
AcDbSymbolTableRecord
100
AcDbLayerTableRecord
  2
5
 70
     0
 62
     7
  6
Continuous
370
    -3
390
F
  0
LAYER
  5
7A
330
2
100
AcDbSymbolTableRecord
100
AcDbLayerTableRecord
  2
6
 70
     0
 62
     7
  6
Continuous
370
    -3
390
F
  0
LAYER
  5
7B
330
2
100
AcDbSymbolTableRecord
100
AcDbLayerTableRecord
  2
7
 70
     0
 62
     7
  6
Continuous
370
    -3
390
F
  0
LAYER
  5
7C
330
2
100
AcDbSymbolTableRecord
100
AcDbLayerTableRecord
  2
8
 70
     0
 62
     7
  6
Continuous
370
    -3
390
F
  0
LAYER
  5
7D
330
2
100
AcDbSymbolTableRecord
100
AcDbLayerTableRecord
  2
9
 70
     0
 62
     7
  6
Continuous
370
    -3
390
F
  0
LAYER
  5
7E
330
2
100
AcDbSymbolTableRecord
100
AcDbLayerTableRecord
  2
10
 70
     0
 62
     7
  6
Continuous
370
    -3
390
F
  0
LAYER
  5
7F
330
2
100
AcDbSymbolTableRecord
100
AcDbLayerTableRecord
  2
11
 70
     0
 62
     7
  6
Continuous
370
    -3
390
F
  0
LAYER
  5
80
330
2
100
AcDbSymbolTableRecord
100
AcDbLayerTableRecord
  2
12
 70
     0
 62
     7
  6
Continuous
370
    -3
390
F
  0
LAYER
  5
81
330
2
100
AcDbSymbolTableRecord
100
AcDbLayerTableRecord
  2
13
 70
     0
 62
     7
  6
Continuous
370
    -3
390
F
  0
LAYER
  5
82
330
2
100
AcDbSymbolTableRecord
100
AcDbLayerTableRecord
  2
14
 70
     0
 62
     7
  6
Continuous
370
    -3
390
F
  0
LAYER
  5
83
330
2
100
AcDbSymbolTableRecord
100
AcDbLayerTableRecord
  2
15
 70
     0
 62
     7
  6
Continuous
370
    -3
390
F
  0
LAYER
  5
84
330
2
100
AcDbSymbolTableRecord
100
AcDbLayerTableRecord
  2
16
 70
     0
 62
     7
  6
Continuous
370
    -3
390
F
  0
LAYER
  5
85
330
2
100
AcDbSymbolTableRecord
100
AcDbLayerTableRecord
  2
17
 70
     0
 62
     7
  6
Continuous
370
    -3
390
F
  0
LAYER
  5
86
330
2
100
AcDbSymbolTableRecord
100
AcDbLayerTableRecord
  2
18
 70
     0
 62
     7
  6
Continuous
370
    -3
390
F
  0
LAYER
  5
87
330
2
100
AcDbSymbolTableRecord
100
AcDbLayerTableRecord
  2
19
 70
     0
 62
     7
  6
Continuous
370
    -3
390
F
  0
LAYER
  5
88
330
2
100
AcDbSymbolTableRecord
100
AcDbLayerTableRecord
  2
20
 70
     0
 62
     7
  6
Continuous
370
    -3
390
F
  0
LAYER
  5
89
330
2
100
AcDbSymbolTableRecord
100
AcDbLayerTableRecord
  2
21
 70
     0
 62
     7
  6
Continuous
370
    -3
390
F
  0
LAYER
  5
8A
330
2
100
AcDbSymbolTableRecord
100
AcDbLayerTableRecord
  2
22
 70
     0
 62
     7
  6
Continuous
370
    -3
390
F
  0
LAYER
  5
8B
330
2
100
AcDbSymbolTableRecord
100
AcDbLayerTableRecord
  2
23
 70
     0
 62
     7
  6
Continuous
370
    -3
390
F
  0
LAYER
  5
8C
330
2
100
AcDbSymbolTableRecord
100
AcDbLayerTableRecord
  2
24
 70
     0
 62
     7
  6
Continuous
370
    -3
390
F
  0
LAYER
  5
8D
330
2
100
AcDbSymbolTableRecord
100
AcDbLayerTableRecord
  2
25
 70
     0
 62
     7
  6
Continuous
370
    -3
390
F
  0
LAYER
  5
8E
330
2
100
AcDbSymbolTableRecord
100
AcDbLayerTableRecord
  2
26
 70
     0
 62
     7
  6
Continuous
370
    -3
390
F
  0
LAYER
  5
8F
330
2
100
AcDbSymbolTableRecord
100
AcDbLayerTableRecord
  2
27
 70
     0
 62
     7
  6
Continuous
370
    -3
390
F
  0
LAYER
  5
90
330
2
100
AcDbSymbolTableRecord
100
AcDbLayerTableRecord
  2
28
 70
     0
 62
     7
  6
Continuous
370
    -3
390
F
  0
LAYER
  5
91
330
2
100
AcDbSymbolTableRecord
100
AcDbLayerTableRecord
  2
29
 70
     0
 62
     7
  6
Continuous
370
    -3
390
F
  0
LAYER
  5
92
330
2
100
AcDbSymbolTableRecord
100
AcDbLayerTableRecord
  2
30
 70
     0
 62
     7
  6
Continuous
370
    -3
390
F
  0
LAYER
  5
93
330
2
100
AcDbSymbolTableRecord
100
AcDbLayerTableRecord
  2
31
 70
     0
 62
     7
  6
Continuous
370
    -3
390
F
  0
LAYER
  5
94
330
2
100
AcDbSymbolTableRecord
100
AcDbLayerTableRecord
  2
32
 70
     0
 62
     7
  6
Continuous
370
    -3
390
F
  0
LAYER
  5
95
330
2
100
AcDbSymbolTableRecord
100
AcDbLayerTableRecord
  2
33
 70
     0
 62
     7
  6
Continuous
370
    -3
390
F
  0
LAYER
  5
96
330
2
100
AcDbSymbolTableRecord
100
AcDbLayerTableRecord
  2
34
 70
     0
 62
     7
  6
Continuous
370
    -3
390
F
  0
LAYER
  5
97
330
2
100
AcDbSymbolTableRecord
100
AcDbLayerTableRecord
  2
35
 70
     0
 62
     7
  6
Continuous
370
    -3
390
F
  0
LAYER
  5
98
330
2
100
AcDbSymbolTableRecord
100
AcDbLayerTableRecord
  2
36
 70
     0
 62
     7
  6
Continuous
370
    -3
390
F
  0
LAYER
  5
99
330
2
100
AcDbSymbolTableRecord
100
AcDbLayerTableRecord
  2
37
 70
     0
 62
     7
  6
Continuous
370
    -3
390
F
  0
LAYER
  5
9A
330
2
100
AcDbSymbolTableRecord
100
AcDbLayerTableRecord
  2
38
 70
     0
 62
     7
  6
Continuous
370
    -3
390
F
  0
LAYER
  5
9B
330
2
100
AcDbSymbolTableRecord
100
AcDbLayerTableRecord
  2
39
 70
     0
 62
     7
  6
Continuous
370
    -3
390
F
  0
LAYER
  5
9C
330
2
100
AcDbSymbolTableRecord
100
AcDbLayerTableRecord
  2
40
 70
     0
 62
     7
  6
Continuous
370
    -3
390
F
  0
LAYER
  5
9D
330
2
100
AcDbSymbolTableRecord
100
AcDbLayerTableRecord
  2
41
 70
     0
 62
     7
  6
Continuous
370
    -3
390
F
  0
LAYER
  5
9E
330
2
100
AcDbSymbolTableRecord
100
AcDbLayerTableRecord
  2
42
 70
     0
 62
     7
  6
Continuous
370
    -3
390
F
  0
LAYER
  5
9F
330
2
100
AcDbSymbolTableRecord
100
AcDbLayerTableRecord
  2
43
 70
     0
 62
     7
  6
Continuous
370
    -3
390
F
  0
LAYER
  5
A0
330
2
100
AcDbSymbolTableRecord
100
AcDbLayerTableRecord
  2
44
 70
     0
 62
     7
  6
Continuous
370
    -3
390
F
  0
LAYER
  5
A1
330
2
100
AcDbSymbolTableRecord
100
AcDbLayerTableRecord
  2
45
 70
     0
 62
     7
  6
Continuous
370
    -3
390
F
  0
LAYER
  5
A2
330
2
100
AcDbSymbolTableRecord
100
AcDbLayerTableRecord
  2
46
 70
     0
 62
     7
  6
Continuous
370
    -3
390
F
  0
LAYER
  5
A3
330
2
100
AcDbSymbolTableRecord
100
AcDbLayerTableRecord
  2
47
 70
     0
 62
     7
  6
Continuous
370
    -3
390
F
  0
LAYER
  5
A4
330
2
100
AcDbSymbolTableRecord
100
AcDbLayerTableRecord
  2
48
 70
     0
 62
     7
  6
Continuous
370
    -3
390
F
  0
LAYER
  5
A5
330
2
100
AcDbSymbolTableRecord
100
AcDbLayerTableRecord
  2
49
 70
     0
 62
     7
  6
Continuous
370
    -3
390
F
  0
LAYER
  5
A6
330
2
100
AcDbSymbolTableRecord
100
AcDbLayerTableRecord
  2
50
 70
     0
 62
     7
  6
Continuous
370
    -3
390
F
  0
ENDTAB
  0
TABLE
  2
STYLE
  5
3
330
0
100
AcDbSymbolTable
 70
     2
  0
STYLE
  5
11
330
3
100
AcDbSymbolTableRecord
100
AcDbTextStyleTableRecord
  2
Standard
 70
     0
 40
0.0
 41
1.0
 50
0.0
 71
     0
 42
2.0
  3
txt
  4

  0
STYLE
  5
BE
330
3
100
AcDbSymbolTableRecord
100
AcDbTextStyleTableRecord
  2
SLDTEXTSTYLE0
 70
     0
 40
0.0
 41
0.75
 50
0.0
 71
     0
 42
2.0
  3
TXT
  4

  0
ENDTAB
  0
TABLE
  2
VIEW
  5
6
330
0
100
AcDbSymbolTable
 70
     0
  0
ENDTAB
  0
TABLE
  2
UCS
  5
7
330
0
100
AcDbSymbolTable
 70
     0
  0
ENDTAB
  0
TABLE
  2
APPID
  5
9
330
0
100
AcDbSymbolTable
 70
     1
  0
APPID
  5
12
330
9
100
AcDbSymbolTableRecord
100
AcDbRegAppTableRecord
  2
ACAD
 70
     0
  0
ENDTAB
  0
TABLE
  2
DIMSTYLE
  5
A
330
0
100
AcDbSymbolTable
 70
     6
100
AcDbDimStyleTable
  0
DIMSTYLE
105
27
330
A
100
AcDbSymbolTableRecord
100
AcDbDimStyleTableRecord
  2
ISO-25
 70
     0
 41
2.5
 42
0.625
 43
3.75
 44
1.25
 73
     0
 74
     0
 77
     1
 78
     8
140
2.5
141
2.5
143
0.0393700787
147
0.625
171
     3
172
     1
178
     0
271
     2
272
     2
274
     3
278
    44
283
     0
284
     8
340
11
  0
DIMSTYLE
105
BF
102
{ACAD_REACTORS
330
BD
330
D9
330
ED
330
100
330
16A
102
}
330
A
100
AcDbSymbolTableRecord
100
AcDbDimStyleTableRecord
  2
SLDDIMSTYLE0
 70
     0
 41
2.0
 44
0.0
 45
0.000000001
 73
     0
 74
     0
 77
     1
 78
    12
 79
     3
140
2.0
143
0.0393700787
147
0.5
148
0.000000001
170
     1
173
     1
178
     0
271
     1
272
     1
276
     2
284
    12
340
BE
341
C0
343
C0
344
C0
  0
DIMSTYLE
105
115
102
{ACAD_REACTORS
330
114
330
130
102
}
330
A
100
AcDbSymbolTableRecord
100
AcDbDimStyleTableRecord
  2
SLDDIMSTYLE1
 70
     0
 41
2.0
 44
0.0
 45
0.000000001
 47
0.3
 48
0.2
 71
     1
 73
     0
 74
     0
 77
     1
 78
    12
 79
     3
140
2.0
143
0.0393700787
147
0.5
148
0.000000001
170
     1
173
     1
178
     0
271
     1
272
     1
276
     2
284
     8
340
BE
341
C0
343
C0
344
C0
  0
DIMSTYLE
105
14C
102
{ACAD_REACTORS
330
14B
330
15B
102
}
330
A
100
AcDbSymbolTableRecord
100
AcDbDimStyleTableRecord
  2
SLDDIMSTYLE2
 70
     0
 41
2.0
 44
0.0
 45
0.000000001
 73
     0
 74
     0
 77
     1
 78
    12
 79
     3
140
2.0
141
0.0
143
0.0393700787
147
0.5
148
0.000000001
170
     1
173
     1
178
     0
271
     1
272
     1
276
     2
279
     1
284
    12
340
BE
341
C0
343
C0
344
C0
  0
DIMSTYLE
105
17E
102
{ACAD_REACTORS
330
17D
102
}
330
A
100
AcDbSymbolTableRecord
100
AcDbDimStyleTableRecord
  2
SLDDIMSTYLE3
 70
     0
 41
2.0
 44
0.0
 45
0.000000001
 73
     0
 74
     0
 77
     1
 78
    12
 79
     3
140
2.0
143
0.0393700787
147
0.5
148
0.000000001
170
     1
172
     1
173
     1
178
     0
271
     1
272
     1
276
     2
284
    12
289
     0
340
BE
341
C0
343
C0
344
C0
  0
DIMSTYLE
105
197
330
A
100
AcDbSymbolTableRecord
100
AcDbDimStyleTableRecord
  2
SLDDIMSTYLE4
 70
     0
 41
2.0
 44
0.0
 45
0.000000001
146
2.0
147
0.0
173
     1
178
     0
271
     0
272
     0
276
     2
340
11
  0
ENDTAB
  0
TABLE
  2
BLOCK_RECORD
  5
1
330
0
100
AcDbSymbolTable
 70
    20
  0
BLOCK_RECORD
  5
1F
330
1
100
AcDbSymbolTableRecord
100
AcDbBlockTableRecord
  2
*Model_Space
340
22
  0
BLOCK_RECORD
  5
1B
330
1
100
AcDbSymbolTableRecord
100
AcDbBlockTableRecord
  2
*Paper_Space
340
1E
  0
BLOCK_RECORD
  5
23
330
1
100
AcDbSymbolTableRecord
100
AcDbBlockTableRecord
  2
*Paper_Space0
340
26
  0
BLOCK_RECORD
  5
C0
330
1
100
AcDbSymbolTableRecord
100
AcDbBlockTableRecord
  2
_Closed
340
0
102
{BLKREFS
331
CA
331
CB
331
DD
331
DE
331
F1
331
F2
331
104
331
105
331
119
331
11A
331
134
331
135
331
150
331
15F
331
16E
331
16F
331
182
331
183
102
}
  0
BLOCK_RECORD
  5
C7
330
1
100
AcDbSymbolTableRecord
100
AcDbBlockTableRecord
  2
_D
340
0
  0
BLOCK_RECORD
  5
DA
330
1
100
AcDbSymbolTableRecord
100
AcDbBlockTableRecord
  2
_D_1
340
0
  0
BLOCK_RECORD
  5
EE
330
1
100
AcDbSymbolTableRecord
100
AcDbBlockTableRecord
  2
_D_2
340
0
  0
BLOCK_RECORD
  5
101
330
1
100
AcDbSymbolTableRecord
100
AcDbBlockTableRecord
  2
_D_3
340
0
  0
BLOCK_RECORD
  5
116
330
1
100
AcDbSymbolTableRecord
100
AcDbBlockTableRecord
  2
_D_4
340
0
  0
BLOCK_RECORD
  5
131
330
1
100
AcDbSymbolTableRecord
100
AcDbBlockTableRecord
  2
_D_5
340
0
  0
BLOCK_RECORD
  5
14D
330
1
100
AcDbSymbolTableRecord
100
AcDbBlockTableRecord
  2
_D_6
340
0
  0
BLOCK_RECORD
  5
15C
330
1
100
AcDbSymbolTableRecord
100
AcDbBlockTableRecord
  2
_D_7
340
0
  0
BLOCK_RECORD
  5
16B
330
1
100
AcDbSymbolTableRecord
100
AcDbBlockTableRecord
  2
_D_8
340
0
  0
BLOCK_RECORD
  5
17F
330
1
100
AcDbSymbolTableRecord
100
AcDbBlockTableRecord
  2
_D_9
340
0
  0
BLOCK_RECORD
  5
192
330
1
100
AcDbSymbolTableRecord
100
AcDbBlockTableRecord
  2
SW_NOTE_0
340
0
102
{BLKREFS
331
196
102
}
  0
BLOCK_RECORD
  5
199
330
1
100
AcDbSymbolTableRecord
100
AcDbBlockTableRecord
  2
SW_NOTE_0_1
340
0
102
{BLKREFS
331
19D
102
}
  0
BLOCK_RECORD
  5
19F
330
1
100
AcDbSymbolTableRecord
100
AcDbBlockTableRecord
  2
SW_CENTERMARKSYMBOL_0
340
0
102
{BLKREFS
331
1AA
102
}
  0
BLOCK_RECORD
  5
1AB
330
1
100
AcDbSymbolTableRecord
100
AcDbBlockTableRecord
  2
SW_CENTERMARKSYMBOL_1
340
0
102
{BLKREFS
331
1B6
102
}
  0
BLOCK_RECORD
  5
1B7
330
1
100
AcDbSymbolTableRecord
100
AcDbBlockTableRecord
  2
SW_CENTERMARKSYMBOL_2
340
0
102
{BLKREFS
331
1C2
102
}
  0
BLOCK_RECORD
  5
1C3
330
1
100
AcDbSymbolTableRecord
100
AcDbBlockTableRecord
  2
SW_CENTERMARKSYMBOL_3
340
0
102
{BLKREFS
331
1CE
102
}
  0
BLOCK_RECORD
  5
1CF
330
1
100
AcDbSymbolTableRecord
100
AcDbBlockTableRecord
  2
SW_CENTERMARKSYMBOL_4
340
0
102
{BLKREFS
331
1DA
102
}
  0
BLOCK_RECORD
  5
1DB
330
1
100
AcDbSymbolTableRecord
100
AcDbBlockTableRecord
  2
SW_CENTERMARKSYMBOL_5
340
0
102
{BLKREFS
331
1E6
102
}
  0
ENDTAB
  0
ENDSEC
  0
SECTION
  2
BLOCKS
  0
BLOCK
  5
20
330
1F
100
AcDbEntity
  8
0
100
AcDbBlockBegin
  2
*Model_Space
 70
     0
 10
0.0
 20
0.0
 30
0.0
  3
*Model_Space
  1

  0
ENDBLK
  5
21
330
1F
100
AcDbEntity
  8
0
100
AcDbBlockEnd
  0
BLOCK
  5
1C
330
1B
100
AcDbEntity
 67
     1
  8
0
100
AcDbBlockBegin
  2
*Paper_Space
 70
     0
 10
0.0
 20
0.0
 30
0.0
  3
*Paper_Space
  1

  0
ENDBLK
  5
1D
330
1B
100
AcDbEntity
 67
     1
  8
0
100
AcDbBlockEnd
  0
BLOCK
  5
24
330
23
100
AcDbEntity
  8
0
100
AcDbBlockBegin
  2
*Paper_Space0
 70
     0
 10
0.0
 20
0.0
 30
0.0
  3
*Paper_Space0
  1

  0
ENDBLK
  5
25
330
23
100
AcDbEntity
  8
0
100
AcDbBlockEnd
  0
BLOCK
  5
C1
330
C0
100
AcDbEntity
  8
0
100
AcDbBlockBegin
  2
_Closed
 70
     0
 10
0.0
 20
0.0
 30
0.0
  3
_Closed
  1

  0
LINE
  5
C3
330
C0
100
AcDbEntity
  8
0
  6
ByBlock
 62
     0
370
    -2
100
AcDbLine
 10
-1.0
 20
0.166667
 30
0.0
 11
0.0
 21
0.0
 31
0.0
  0
LINE
  5
C4
330
C0
100
AcDbEntity
  8
0
  6
ByBlock
 62
     0
370
    -2
100
AcDbLine
 10
0.0
 20
0.0
 30
0.0
 11
-1.0
 21
-0.166667
 31
0.0
  0
LINE
  5
C5
330
C0
100
AcDbEntity
  8
0
  6
ByBlock
 62
     0
370
    -2
100
AcDbLine
 10
-1.0
 20
0.166667
 30
0.0
 11
-1.0
 21
-0.166667
 31
0.0
  0
LINE
  5
C6
330
C0
100
AcDbEntity
  8
0
  6
ByBlock
 62
     0
370
    -2
100
AcDbLine
 10
0.0
 20
0.0
 30
0.0
 11
-1.0
 21
0.0
 31
0.0
  0
ENDBLK
  5
C2
330
C0
100
AcDbEntity
  8
0
100
AcDbBlockEnd
  0
BLOCK
  5
C8
330
C7
100
AcDbEntity
  8
0
100
AcDbBlockBegin
  2
_D
 70
     0
 10
0.0
 20
0.0
 30
0.0
  3
_D
  1

  0
INSERT
  5
CA
330
C7
100
AcDbEntity
  8
LEVEL0
100
AcDbBlockReference
  2
_Closed
 10
46.8939420935
 20
52.8868151448
 30
-2.8
 41
2.0
 42
2.0
 50
180.0
  0
INSERT
  5
CB
330
C7
100
AcDbEntity
  8
LEVEL0
100
AcDbBlockReference
  2
_Closed
 10
179.9939420935
 20
52.8868151448
 30
-2.8
 41
2.0
 42
2.0
 50
0.0
  0
LINE
  5
CC
330
C7
100
AcDbEntity
  8
LEVEL0
100
AcDbLine
 10
105.3386449699
 20
59.0541761919
 30
0.0
 11
104.7292699574
 21
59.0541761919
 31
0.0
  0
LINE
  5
CD
330
C7
100
AcDbEntity
  8
LEVEL0
100
AcDbLine
 10
104.7292699574
 20
59.0541761919
 30
0.0
 11
104.7292699574
 21
55.8791762303
 31
0.0
  0
LINE
  5
CE
330
C7
100
AcDbEntity
  8
LEVEL0
100
AcDbLine
 10
104.7292699574
 20
55.8791762303
 30
0.0
 11
105.3386449699
 21
55.8791762303
 31
0.0
  0
LINE
  5
CF
330
C7
100
AcDbEntity
  8
LEVEL0
100
AcDbLine
 10
111.9886448492
 20
59.0541761919
 30
0.0
 11
112.5980198618
 21
59.0541761919
 31
0.0
  0
LINE
  5
D0
330
C7
100
AcDbEntity
  8
LEVEL0
100
AcDbLine
 10
112.5980198618
 20
59.0541761919
 30
0.0
 11
112.5980198618
 21
55.8791762303
 31
0.0
  0
LINE
  5
D1
330
C7
100
AcDbEntity
  8
LEVEL0
100
AcDbLine
 10
112.5980198618
 20
55.8791762303
 30
0.0
 11
111.9886448492
 21
55.8791762303
 31
0.0
  0
LINE
  5
D2
330
C7
100
AcDbEntity
  8
LEVEL0
100
AcDbLine
 10
46.8939420935
 20
63.7868151448
 30
0.0
 11
46.8939420935
 21
51.8868151448
 31
0.0
  0
LINE
  5
D3
330
C7
100
AcDbEntity
  8
LEVEL0
100
AcDbLine
 10
179.9939420935
 20
63.7868151448
 30
0.0
 11
179.9939420935
 21
51.8868151448
 31
0.0
  0
LINE
  5
D4
330
C7
100
AcDbEntity
  8
LEVEL0
100
AcDbLine
 10
46.8939420935
 20
52.8868151448
 30
0.0
 11
179.9939420935
 21
52.8868151448
 31
0.0
  0
MTEXT
  5
D5
330
C7
100
AcDbEntity
  8
LEVEL0
100
AcDbMText
 10
104.1421172197
 20
55.4955061538
 30
0.0
 40
2.0
 41
0.0
 71
     1
 72
     1
  1

  7
SLDTEXTSTYLE0
 73
     1
 44
1.0
  0
MTEXT
  5
D6
330
C7
100
AcDbEntity
  8
LEVEL0
100
AcDbMText
 10
105.3386449699
 20
58.4573117098
 30
0.0
 40
2.0
 41
0.0
 71
     1
 72
     1
  1
5.240
  7
SLDTEXTSTYLE0
 73
     1
 44
1.0
  0
MTEXT
  5
D7
330
C7
100
AcDbEntity
  8
LEVEL0
100
AcDbMText
 10
105.3386450864
 20
55.4649503915
 30
0.0
 40
2.0
 41
0.0
 71
     1
 72
     1
  1
133.1
  7
SLDTEXTSTYLE0
 73
     1
 44
1.0
  0
MTEXT
  5
D8
330
C7
100
AcDbEntity
  8
LEVEL0
100
AcDbMText
 10
114.70739534
 20
55.4955061538
 30
0.0
 40
2.0
 41
0.0
 71
     1
 72
     1
  1

  7
SLDTEXTSTYLE0
 73
     1
 44
1.0
  0
ENDBLK
  5
C9
330
C7
100
AcDbEntity
  8
0
100
AcDbBlockEnd
  0
BLOCK
  5
DB
330
DA
100
AcDbEntity
  8
0
100
AcDbBlockBegin
  2
_D_1
 70
     0
 10
0.0
 20
0.0
 30
0.0
  3
_D_1
  1

  0
INSERT
  5
DD
330
DA
100
AcDbEntity
  8
LEVEL0
100
AcDbBlockReference
  2
_Closed
 10
46.8939420935
 20
58.753595463
 30
-2.8
 41
2.0
 42
2.0
 50
180.0
  0
INSERT
  5
DE
330
DA
100
AcDbEntity
  8
LEVEL0
100
AcDbBlockReference
  2
_Closed
 10
53.4939420935
 20
58.753595463
 30
-2.8
 41
2.0
 42
2.0
 50
0.0
  0
LINE
  5
DF
330
DA
100
AcDbEntity
  8
LEVEL0
100
AcDbLine
 10
64.2711827422
 20
64.9209565101
 30
0.0
 11
63.6618077296
 21
64.9209565101
 31
0.0
  0
LINE
  5
E0
330
DA
100
AcDbEntity
  8
LEVEL0
100
AcDbLine
 10
63.6618077296
 20
64.9209565101
 30
0.0
 11
63.6618077296
 21
61.7459565485
 31
0.0
  0
LINE
  5
E1
330
DA
100
AcDbEntity
  8
LEVEL0
100
AcDbLine
 10
63.6618077296
 20
61.7459565485
 30
0.0
 11
64.2711827422
 21
61.7459565485
 31
0.0
  0
LINE
  5
E2
330
DA
100
AcDbEntity
  8
LEVEL0
100
AcDbLine
 10
70.9211826215
 20
64.9209565101
 30
0.0
 11
71.530557634
 21
64.9209565101
 31
0.0
  0
LINE
  5
E3
330
DA
100
AcDbEntity
  8
LEVEL0
100
AcDbLine
 10
71.530557634
 20
64.9209565101
 30
0.0
 11
71.530557634
 21
61.7459565485
 31
0.0
  0
LINE
  5
E4
330
DA
100
AcDbEntity
  8
LEVEL0
100
AcDbLine
 10
71.530557634
 20
61.7459565485
 30
0.0
 11
70.9211826215
 21
61.7459565485
 31
0.0
  0
LINE
  5
E5
330
DA
100
AcDbEntity
  8
LEVEL0
100
AcDbLine
 10
46.8939420935
 20
63.7868151448
 30
0.0
 11
46.8939420935
 21
57.753595463
 31
0.0
  0
LINE
  5
E6
330
DA
100
AcDbEntity
  8
LEVEL0
100
AcDbLine
 10
53.4939420935
 20
78.1868151448
 30
0.0
 11
53.4939420935
 21
57.753595463
 31
0.0
  0
LINE
  5
E7
330
DA
100
AcDbEntity
  8
LEVEL0
100
AcDbLine
 10
46.8939420935
 20
58.753595463
 30
0.0
 11
53.4939420935
 21
58.753595463
 31
0.0
  0
LINE
  5
E8
330
DA
100
AcDbEntity
  8
LEVEL0
100
AcDbLine
 10
53.4939420935
 20
58.753595463
 30
0.0
 11
73.6177110702
 21
58.753595463
 31
0.0
  0
MTEXT
  5
E9
330
DA
100
AcDbEntity
  8
LEVEL0
100
AcDbMText
 10
63.0746549919
 20
61.3622864721
 30
0.0
 40
2.0
 41
0.0
 71
     1
 72
     1
  1

  7
SLDTEXTSTYLE0
 73
     1
 44
1.0
  0
MTEXT
  5
EA
330
DA
100
AcDbEntity
  8
LEVEL0
100
AcDbMText
 10
64.2711827422
 20
64.3240920281
 30
0.0
 40
2.0
 41
0.0
 71
     1
 72
     1
  1
0.260
  7
SLDTEXTSTYLE0
 73
     1
 44
1.0
  0
MTEXT
  5
EB
330
DA
100
AcDbEntity
  8
LEVEL0
100
AcDbMText
 10
65.7489607001
 20
61.3317307097
 30
0.0
 40
2.0
 41
0.0
 71
     1
 72
     1
  1
6.6
  7
SLDTEXTSTYLE0
 73
     1
 44
1.0
  0
MTEXT
  5
EC
330
DA
100
AcDbEntity
  8
LEVEL0
100
AcDbMText
 10
73.6399331123
 20
61.3622864721
 30
0.0
 40
2.0
 41
0.0
 71
     1
 72
     1
  1

  7
SLDTEXTSTYLE0
 73
     1
 44
1.0
  0
ENDBLK
  5
DC
330
DA
100
AcDbEntity
  8
0
100
AcDbBlockEnd
  0
BLOCK
  5
EF
330
EE
100
AcDbEntity
  8
0
100
AcDbBlockBegin
  2
_D_2
 70
     0
 10
0.0
 20
0.0
 30
0.0
  3
_D_2
  1

  0
INSERT
  5
F1
330
EE
100
AcDbEntity
  8
LEVEL0
100
AcDbBlockReference
  2
_Closed
 10
30.8939420935
 20
249.7868151448
 30
-2.8
 41
2.0
 42
2.0
 50
90.0
  0
INSERT
  5
F2
330
EE
100
AcDbEntity
  8
LEVEL0
100
AcDbBlockReference
  2
_Closed
 10
30.8939420935
 20
68.8868151448
 30
-2.8
 41
2.0
 42
2.0
 50
270.0
  0
LINE
  5
F3
330
EE
100
AcDbEntity
  8
LEVEL0
100
AcDbLine
 10
24.7265810464
 20
147.7435735615
 30
0.0
 11
24.7265810464
 21
147.1341985489
 31
0.0
  0
LINE
  5
F4
330
EE
100
AcDbEntity
  8
LEVEL0
100
AcDbLine
 10
24.7265810464
 20
147.1341985489
 30
0.0
 11
27.9015810081
 21
147.1341985489
 31
0.0
  0
LINE
  5
F5
330
EE
100
AcDbEntity
  8
LEVEL0
100
AcDbLine
 10
27.9015810081
 20
147.1341985489
 30
0.0
 11
27.9015810081
 21
147.7435735615
 31
0.0
  0
LINE
  5
F6
330
EE
100
AcDbEntity
  8
LEVEL0
100
AcDbLine
 10
24.7265810464
 20
154.3935734408
 30
0.0
 11
24.7265810464
 21
155.0029484534
 31
0.0
  0
LINE
  5
F7
330
EE
100
AcDbEntity
  8
LEVEL0
100
AcDbLine
 10
24.7265810464
 20
155.0029484534
 30
0.0
 11
27.9015810081
 21
155.0029484534
 31
0.0
  0
LINE
  5
F8
330
EE
100
AcDbEntity
  8
LEVEL0
100
AcDbLine
 10
27.9015810081
 20
155.0029484534
 30
0.0
 11
27.9015810081
 21
154.3935734408
 31
0.0
  0
LINE
  5
F9
330
EE
100
AcDbEntity
  8
LEVEL0
100
AcDbLine
 10
41.7939420935
 20
249.7868151448
 30
0.0
 11
29.8939420935
 21
249.7868151448
 31
0.0
  0
LINE
  5
FA
330
EE
100
AcDbEntity
  8
LEVEL0
100
AcDbLine
 10
41.7939420935
 20
68.8868151448
 30
0.0
 11
29.8939420935
 21
68.8868151448
 31
0.0
  0
LINE
  5
FB
330
EE
100
AcDbEntity
  8
LEVEL0
100
AcDbLine
 10
30.8939420935
 20
249.7868151448
 30
0.0
 11
30.8939420935
 21
68.8868151448
 31
0.0
  0
MTEXT
  5
FC
330
EE
100
AcDbEntity
  8
LEVEL0
100
AcDbMText
 10
28.2852510845
 20
146.5470458113
 30
0.0
 40
2.0
 41
0.0
 71
     1
 72
     1
  1

  7
SLDTEXTSTYLE0
 11
-1.059690869644414E-14
 21
1.0
 31
0.0
 73
     1
 44
1.0
  0
MTEXT
  5
FD
330
EE
100
AcDbEntity
  8
LEVEL0
100
AcDbMText
 10
25.3234455285
 20
147.7435735615
 30
0.0
 40
2.0
 41
0.0
 71
     1
 72
     1
  1
7.122
  7
SLDTEXTSTYLE0
 11
-1.059690869644414E-14
 21
1.0
 31
0.0
 73
     1
 44
1.0
  0
MTEXT
  5
FE
330
EE
100
AcDbEntity
  8
LEVEL0
100
AcDbMText
 10
28.3158068468
 20
147.7435736779
 30
0.0
 40
2.0
 41
0.0
 71
     1
 72
     1
  1
180.9
  7
SLDTEXTSTYLE0
 11
-1.059690869644414E-14
 21
1.0
 31
0.0
 73
     1
 44
1.0
  0
MTEXT
  5
FF
330
EE
100
AcDbEntity
  8
LEVEL0
100
AcDbMText
 10
28.2852510845
 20
157.1123239316
 30
0.0
 40
2.0
 41
0.0
 71
     1
 72
     1
  1

  7
SLDTEXTSTYLE0
 11
-1.059690869644414E-14
 21
1.0
 31
0.0
 73
     1
 44
1.0
  0
ENDBLK
  5
F0
330
EE
100
AcDbEntity
  8
0
100
AcDbBlockEnd
  0
BLOCK
  5
102
330
101
100
AcDbEntity
  8
0
100
AcDbBlockBegin
  2
_D_3
 70
     0
 10
0.0
 20
0.0
 30
0.0
  3
_D_3
  1

  0
INSERT
  5
104
330
101
100
AcDbEntity
  8
LEVEL0
100
AcDbBlockReference
  2
_Closed
 10
40.7228219821
 20
243.1868151448
 30
-2.8
 41
2.0
 42
2.0
 50
270.0
  0
INSERT
  5
105
330
101
100
AcDbEntity
  8
LEVEL0
100
AcDbBlockReference
  2
_Closed
 10
40.7228219821
 20
249.7868151448
 30
-2.8
 41
2.0
 42
2.0
 50
90.0
  0
LINE
  5
106
330
101
100
AcDbEntity
  8
LEVEL0
100
AcDbLine
 10
34.5554609349
 20
227.0622310845
 30
0.0
 11
34.5554609349
 21
226.4528560719
 31
0.0
  0
LINE
  5
107
330
101
100
AcDbEntity
  8
LEVEL0
100
AcDbLine
 10
34.5554609349
 20
226.4528560719
 30
0.0
 11
37.7304608966
 21
226.4528560719
 31
0.0
  0
LINE
  5
108
330
101
100
AcDbEntity
  8
LEVEL0
100
AcDbLine
 10
37.7304608966
 20
226.4528560719
 30
0.0
 11
37.7304608966
 21
227.0622310845
 31
0.0
  0
LINE
  5
109
330
101
100
AcDbEntity
  8
LEVEL0
100
AcDbLine
 10
34.5554609349
 20
233.7122309638
 30
0.0
 11
34.5554609349
 21
234.3216059764
 31
0.0
  0
LINE
  5
10A
330
101
100
AcDbEntity
  8
LEVEL0
100
AcDbLine
 10
34.5554609349
 20
234.3216059764
 30
0.0
 11
37.7304608966
 21
234.3216059764
 31
0.0
  0
LINE
  5
10B
330
101
100
AcDbEntity
  8
LEVEL0
100
AcDbLine
 10
37.7304608966
 20
234.3216059764
 30
0.0
 11
37.7304608966
 21
233.7122309638
 31
0.0
  0
LINE
  5
10C
330
101
100
AcDbEntity
  8
LEVEL0
100
AcDbLine
 10
56.1939420935
 20
243.1868151448
 30
0.0
 11
39.7228219821
 21
243.1868151448
 31
0.0
  0
LINE
  5
10D
330
101
100
AcDbEntity
  8
LEVEL0
100
AcDbLine
 10
41.7939420935
 20
249.7868151448
 30
0.0
 11
39.7228219821
 21
249.7868151448
 31
0.0
  0
LINE
  5
10E
330
101
100
AcDbEntity
  8
LEVEL0
100
AcDbLine
 10
40.7228219821
 20
243.1868151448
 30
0.0
 11
40.7228219821
 21
224.3657033343
 31
0.0
  0
LINE
  5
10F
330
101
100
AcDbEntity
  8
LEVEL0
100
AcDbLine
 10
40.7228219821
 20
243.1868151448
 30
0.0
 11
40.7228219821
 21
249.7868151448
 31
0.0
  0
MTEXT
  5
110
330
101
100
AcDbEntity
  8
LEVEL0
100
AcDbMText
 10
38.114130973
 20
225.8657033343
 30
0.0
 40
2.0
 41
0.0
 71
     1
 72
     1
  1

  7
SLDTEXTSTYLE0
 11
-3.491481338843133E-15
 21
1.0
 31
0.0
 73
     1
 44
1.0
  0
MTEXT
  5
111
330
101
100
AcDbEntity
  8
LEVEL0
100
AcDbMText
 10
35.152325417
 20
227.0622310845
 30
0.0
 40
2.0
 41
0.0
 71
     1
 72
     1
  1
0.260
  7
SLDTEXTSTYLE0
 11
-3.491481338843133E-15
 21
1.0
 31
0.0
 73
     1
 44
1.0
  0
MTEXT
  5
112
330
101
100
AcDbEntity
  8
LEVEL0
100
AcDbMText
 10
38.1446867354
 20
228.5400090424
 30
0.0
 40
2.0
 41
0.0
 71
     1
 72
     1
  1
6.6
  7
SLDTEXTSTYLE0
 11
-3.491481338843133E-15
 21
1.0
 31
0.0
 73
     1
 44
1.0
  0
MTEXT
  5
113
330
101
100
AcDbEntity
  8
LEVEL0
100
AcDbMText
 10
38.114130973
 20
236.4309814546
 30
0.0
 40
2.0
 41
0.0
 71
     1
 72
     1
  1

  7
SLDTEXTSTYLE0
 11
-3.491481338843133E-15
 21
1.0
 31
0.0
 73
     1
 44
1.0
  0
ENDBLK
  5
103
330
101
100
AcDbEntity
  8
0
100
AcDbBlockEnd
  0
BLOCK
  5
117
330
116
100
AcDbEntity
  8
0
100
AcDbBlockBegin
  2
_D_4
 70
     0
 10
0.0
 20
0.0
 30
0.0
  3
_D_4
  1

  0
INSERT
  5
119
330
116
100
AcDbEntity
  8
LEVEL0
100
AcDbBlockReference
  2
_Closed
 10
53.4939420935
 20
213.8782641014
 30
-2.8
 41
2.0
 42
2.0
 50
180.0
  0
INSERT
  5
11A
330
116
100
AcDbEntity
  8
LEVEL0
100
AcDbBlockReference
  2
_Closed
 10
173.3939420935
 20
213.8782641014
 30
-2.8
 41
2.0
 42
2.0
 50
0.0
  0
LINE
  5
11B
330
116
100
AcDbEntity
  8
LEVEL0
100
AcDbLine
 10
100.8358674941
 20
224.6289587674
 30
0.0
 11
100.2264924815
 21
224.6289587674
 31
0.0
  0
LINE
  5
11C
330
116
100
AcDbEntity
  8
LEVEL0
100
AcDbLine
 10
100.2264924815
 20
224.6289587674
 30
0.0
 11
100.2264924815
 21
219.4567363804
 31
0.0
  0
LINE
  5
11D
330
116
100
AcDbEntity
  8
LEVEL0
100
AcDbLine
 10
100.2264924815
 20
219.4567363804
 30
0.0
 11
100.8358674941
 21
219.4567363804
 31
0.0
  0
LINE
  5
11E
330
116
100
AcDbEntity
  8
LEVEL0
100
AcDbLine
 10
116.4914223251
 20
224.6289587674
 30
0.0
 11
117.1007973377
 21
224.6289587674
 31
0.0
  0
LINE
  5
11F
330
116
100
AcDbEntity
  8
LEVEL0
100
AcDbLine
 10
117.1007973377
 20
224.6289587674
 30
0.0
 11
117.1007973377
 21
219.4567363804
 31
0.0
  0
LINE
  5
120
330
116
100
AcDbEntity
  8
LEVEL0
100
AcDbLine
 10
117.1007973377
 20
219.4567363804
 30
0.0
 11
116.4914223251
 21
219.4567363804
 31
0.0
  0
LINE
  5
121
330
116
100
AcDbEntity
  8
LEVEL0
100
AcDbLine
 10
53.4939420935
 20
213.8782641014
 30
0.0
 11
173.3939420935
 21
213.8782641014
 31
0.0
  0
MTEXT
  5
122
330
116
100
AcDbEntity
  8
LEVEL0
100
AcDbMText
 10
99.6393397438
 20
216.4869551104
 30
0.0
 40
2.0
 41
0.0
 71
     1
 72
     1
  1

  7
SLDTEXTSTYLE0
 73
     1
 44
1.0
  0
MTEXT
  5
123
330
116
100
AcDbEntity
  8
LEVEL0
100
AcDbMText
 10
100.8358674941
 20
222.0654273894
 30
0.0
 40
2.0
 41
0.0
 71
     1
 72
     1
  1
4.720
  7
SLDTEXTSTYLE0
 73
     1
 44
1.0
  0
MTEXT
  5
124
330
116
100
AcDbEntity
  8
LEVEL0
100
AcDbMText
 10
108.2358673734
 20
222.0654273894
 30
0.0
 40
2.0
 41
0.0
 71
     1
 72
     1
  1

  7
SLDTEXTSTYLE0
 73
     1
 44
1.0
  0
MTEXT
  5
125
330
116
100
AcDbEntity
  8
LEVEL0
100
AcDbMText
 10
108.2247563523
 20
224.6209830534
 30
0.0
 40
2.0
 41
0.0
 71
     1
 72
     1
  1
+
  7
SLDTEXTSTYLE0
 73
     1
 44
1.0
  0
MTEXT
  5
126
330
116
100
AcDbEntity
  8
LEVEL0
100
AcDbMText
 10
108.5900341337
 20
222.0348718599
 30
0.0
 40
2.0
 41
0.0
 71
     1
 72
     1
  1
-
  7
SLDTEXTSTYLE0
 73
     1
 44
1.0
  0
MTEXT
  5
127
330
116
100
AcDbEntity
  8
LEVEL0
100
AcDbMText
 10
109.8414224458
 20
224.6209830534
 30
0.0
 40
2.0
 41
0.0
 71
     1
 72
     1
  1
0.012
  7
SLDTEXTSTYLE0
 73
     1
 44
1.0
  0
MTEXT
  5
128
330
116
100
AcDbEntity
  8
LEVEL0
100
AcDbMText
 10
109.8414224458
 20
222.0348718599
 30
0.0
 40
2.0
 41
0.0
 71
     1
 72
     1
  1
0.008
  7
SLDTEXTSTYLE0
 73
     1
 44
1.0
  0
MTEXT
  5
129
330
116
100
AcDbEntity
  8
LEVEL0
100
AcDbMText
 10
102.3136451027
 20
216.4563991152
 30
0.0
 40
2.0
 41
0.0
 71
     1
 72
     1
  1
119.9
  7
SLDTEXTSTYLE0
 73
     1
 44
1.0
  0
MTEXT
  5
12A
330
116
100
AcDbEntity
  8
LEVEL0
100
AcDbMText
 10
109.713644982
 20
216.4563991152
 30
0.0
 40
2.0
 41
0.0
 71
     1
 72
     1
  1

  7
SLDTEXTSTYLE0
 73
     1
 44
1.0
  0
MTEXT
  5
12B
330
116
100
AcDbEntity
  8
LEVEL0
100
AcDbMText
 10
109.702533961
 20
219.0425103088
 30
0.0
 40
2.0
 41
0.0
 71
     1
 72
     1
  1
+
  7
SLDTEXTSTYLE0
 73
     1
 44
1.0
  0
MTEXT
  5
12C
330
116
100
AcDbEntity
  8
LEVEL0
100
AcDbMText
 10
110.0678117424
 20
216.4563991152
 30
0.0
 40
2.0
 41
0.0
 71
     1
 72
     1
  1
-
  7
SLDTEXTSTYLE0
 73
     1
 44
1.0
  0
MTEXT
  5
12D
330
116
100
AcDbEntity
  8
LEVEL0
100
AcDbMText
 10
111.3192000545
 20
219.0425103088
 30
0.0
 40
2.0
 41
0.0
 71
     1
 72
     1
  1
0.3
  7
SLDTEXTSTYLE0
 73
     1
 44
1.0
  0
MTEXT
  5
12E
330
116
100
AcDbEntity
  8
LEVEL0
100
AcDbMText
 10
111.3192000545
 20
216.4563991152
 30
0.0
 40
2.0
 41
0.0
 71
     1
 72
     1
  1
0.2
  7
SLDTEXTSTYLE0
 73
     1
 44
1.0
  0
MTEXT
  5
12F
330
116
100
AcDbEntity
  8
LEVEL0
100
AcDbMText
 10
119.2101728159
 20
216.4869551104
 30
0.0
 40
2.0
 41
0.0
 71
     1
 72
     1
  1

  7
SLDTEXTSTYLE0
 73
     1
 44
1.0
  0
ENDBLK
  5
118
330
116
100
AcDbEntity
  8
0
100
AcDbBlockEnd
  0
BLOCK
  5
132
330
131
100
AcDbEntity
  8
0
100
AcDbBlockBegin
  2
_D_5
 70
     0
 10
0.0
 20
0.0
 30
0.0
  3
_D_5
  1

  0
INSERT
  5
134
330
131
100
AcDbEntity
  8
LEVEL0
100
AcDbBlockReference
  2
_Closed
 10
90.0138814086
 20
243.1868151448
 30
-2.8
 41
2.0
 42
2.0
 50
90.0
  0
INSERT
  5
135
330
131
100
AcDbEntity
  8
LEVEL0
100
AcDbBlockReference
  2
_Closed
 10
90.0138814086
 20
75.4868151448
 30
-2.8
 41
2.0
 42
2.0
 50
270.0
  0
LINE
  5
136
330
131
100
AcDbEntity
  8
LEVEL0
100
AcDbLine
 10
79.2631867426
 20
168.5515463901
 30
0.0
 11
79.2631867426
 21
167.9421713775
 31
0.0
  0
LINE
  5
137
330
131
100
AcDbEntity
  8
LEVEL0
100
AcDbLine
 10
79.2631867426
 20
167.9421713775
 30
0.0
 11
84.4354091296
 21
167.9421713775
 31
0.0
  0
LINE
  5
138
330
131
100
AcDbEntity
  8
LEVEL0
100
AcDbLine
 10
84.4354091296
 20
167.9421713775
 30
0.0
 11
84.4354091296
 21
168.5515463901
 31
0.0
  0
LINE
  5
139
330
131
100
AcDbEntity
  8
LEVEL0
100
AcDbLine
 10
79.2631867426
 20
184.2071012211
 30
0.0
 11
79.2631867426
 21
184.8164762337
 31
0.0
  0
LINE
  5
13A
330
131
100
AcDbEntity
  8
LEVEL0
100
AcDbLine
 10
79.2631867426
 20
184.8164762337
 30
0.0
 11
84.4354091296
 21
184.8164762337
 31
0.0
  0
LINE
  5
13B
330
131
100
AcDbEntity
  8
LEVEL0
100
AcDbLine
 10
84.4354091296
 20
184.8164762337
 30
0.0
 11
84.4354091296
 21
184.2071012211
 31
0.0
  0
LINE
  5
13C
330
131
100
AcDbEntity
  8
LEVEL0
100
AcDbLine
 10
90.0138814086
 20
243.1868151448
 30
0.0
 11
90.0138814086
 21
75.4868151448
 31
0.0
  0
MTEXT
  5
13D
330
131
100
AcDbEntity
  8
LEVEL0
100
AcDbMText
 10
87.4051903996
 20
167.3550186398
 30
0.0
 40
2.0
 41
0.0
 71
     1
 72
     1
  1

  7
SLDTEXTSTYLE0
 11
-1.059690869644414E-14
 21
1.0
 31
0.0
 73
     1
 44
1.0
  0
MTEXT
  5
13E
330
131
100
AcDbEntity
  8
LEVEL0
100
AcDbMText
 10
81.8267181205
 20
168.5515463901
 30
0.0
 40
2.0
 41
0.0
 71
     1
 72
     1
  1
6.602
  7
SLDTEXTSTYLE0
 11
-1.059690869644414E-14
 21
1.0
 31
0.0
 73
     1
 44
1.0
  0
MTEXT
  5
13F
330
131
100
AcDbEntity
  8
LEVEL0
100
AcDbMText
 10
81.8267181205
 20
175.9515462694
 30
0.0
 40
2.0
 41
0.0
 71
     1
 72
     1
  1

  7
SLDTEXTSTYLE0
 11
-1.059690869644414E-14
 21
1.0
 31
0.0
 73
     1
 44
1.0
  0
MTEXT
  5
140
330
131
100
AcDbEntity
  8
LEVEL0
100
AcDbMText
 10
79.2711624565
 20
175.9404352483
 30
0.0
 40
2.0
 41
0.0
 71
     1
 72
     1
  1
+
  7
SLDTEXTSTYLE0
 11
-1.059690869644414E-14
 21
1.0
 31
0.0
 73
     1
 44
1.0
  0
MTEXT
  5
141
330
131
100
AcDbEntity
  8
LEVEL0
100
AcDbMText
 10
81.8572736501
 20
176.3057130297
 30
0.0
 40
2.0
 41
0.0
 71
     1
 72
     1
  1
-
  7
SLDTEXTSTYLE0
 11
-1.059690869644414E-14
 21
1.0
 31
0.0
 73
     1
 44
1.0
  0
MTEXT
  5
142
330
131
100
AcDbEntity
  8
LEVEL0
100
AcDbMText
 10
79.2711624565
 20
177.5571013418
 30
0.0
 40
2.0
 41
0.0
 71
     1
 72
     1
  1
0.012
  7
SLDTEXTSTYLE0
 11
-1.059690869644414E-14
 21
1.0
 31
0.0
 73
     1
 44
1.0
  0
MTEXT
  5
143
330
131
100
AcDbEntity
  8
LEVEL0
100
AcDbMText
 10
81.8572736501
 20
177.5571013418
 30
0.0
 40
2.0
 41
0.0
 71
     1
 72
     1
  1
0.008
  7
SLDTEXTSTYLE0
 11
-1.059690869644414E-14
 21
1.0
 31
0.0
 73
     1
 44
1.0
  0
MTEXT
  5
144
330
131
100
AcDbEntity
  8
LEVEL0
100
AcDbMText
 10
87.4357463947
 20
170.0293239987
 30
0.0
 40
2.0
 41
0.0
 71
     1
 72
     1
  1
167.7
  7
SLDTEXTSTYLE0
 11
-1.059690869644414E-14
 21
1.0
 31
0.0
 73
     1
 44
1.0
  0
MTEXT
  5
145
330
131
100
AcDbEntity
  8
LEVEL0
100
AcDbMText
 10
87.4357463947
 20
177.4293238781
 30
0.0
 40
2.0
 41
0.0
 71
     1
 72
     1
  1

  7
SLDTEXTSTYLE0
 11
-1.059690869644414E-14
 21
1.0
 31
0.0
 73
     1
 44
1.0
  0
MTEXT
  5
146
330
131
100
AcDbEntity
  8
LEVEL0
100
AcDbMText
 10
84.8496352012
 20
177.418212857
 30
0.0
 40
2.0
 41
0.0
 71
     1
 72
     1
  1
+
  7
SLDTEXTSTYLE0
 11
-1.059690869644414E-14
 21
1.0
 31
0.0
 73
     1
 44
1.0
  0
MTEXT
  5
147
330
131
100
AcDbEntity
  8
LEVEL0
100
AcDbMText
 10
87.4357463947
 20
177.7834906384
 30
0.0
 40
2.0
 41
0.0
 71
     1
 72
     1
  1
-
  7
SLDTEXTSTYLE0
 11
-1.059690869644414E-14
 21
1.0
 31
0.0
 73
     1
 44
1.0
  0
MTEXT
  5
148
330
131
100
AcDbEntity
  8
LEVEL0
100
AcDbMText
 10
84.8496352012
 20
179.0348789505
 30
0.0
 40
2.0
 41
0.0
 71
     1
 72
     1
  1
0.3
  7
SLDTEXTSTYLE0
 11
-1.059690869644414E-14
 21
1.0
 31
0.0
 73
     1
 44
1.0
  0
MTEXT
  5
149
330
131
100
AcDbEntity
  8
LEVEL0
100
AcDbMText
 10
87.4357463947
 20
179.0348789505
 30
0.0
 40
2.0
 41
0.0
 71
     1
 72
     1
  1
0.2
  7
SLDTEXTSTYLE0
 11
-1.059690869644414E-14
 21
1.0
 31
0.0
 73
     1
 44
1.0
  0
MTEXT
  5
14A
330
131
100
AcDbEntity
  8
LEVEL0
100
AcDbMText
 10
87.4051903996
 20
186.9258517119
 30
0.0
 40
2.0
 41
0.0
 71
     1
 72
     1
  1

  7
SLDTEXTSTYLE0
 11
-1.059690869644414E-14
 21
1.0
 31
0.0
 73
     1
 44
1.0
  0
ENDBLK
  5
133
330
131
100
AcDbEntity
  8
0
100
AcDbBlockEnd
  0
BLOCK
  5
14E
330
14D
100
AcDbEntity
  8
0
100
AcDbBlockBegin
  2
_D_6
 70
     0
 10
0.0
 20
0.0
 30
0.0
  3
_D_6
  1

  0
INSERT
  5
150
330
14D
100
AcDbEntity
  8
LEVEL0
100
AcDbBlockReference
  2
_Closed
 10
54.5776470032
 20
76.5705200544
 30
-2.8
 41
2.0
 42
2.0
 50
44.7995034106
  0
LINE
  5
151
330
14D
100
AcDbEntity
  8
LEVEL0
100
AcDbLine
 10
60.6896928803
 20
91.2926846039
 30
0.0
 11
60.2587996766
 21
90.8617914002
 31
0.0
  0
LINE
  5
152
330
14D
100
AcDbEntity
  8
LEVEL0
100
AcDbLine
 10
60.2587996766
 20
90.8617914002
 30
0.0
 11
62.5038636798
 21
88.6167273971
 31
0.0
  0
LINE
  5
153
330
14D
100
AcDbEntity
  8
LEVEL0
100
AcDbLine
 10
62.5038636798
 20
88.6167273971
 30
0.0
 11
62.9347568834
 21
89.0476206008
 31
0.0
  0
LINE
  5
154
330
14D
100
AcDbEntity
  8
LEVEL0
100
AcDbLine
 10
65.3919528898
 20
95.9949446135
 30
0.0
 11
65.8228460935
 21
96.4258378171
 31
0.0
  0
LINE
  5
155
330
14D
100
AcDbEntity
  8
LEVEL0
100
AcDbLine
 10
65.8228460935
 20
96.4258378171
 30
0.0
 11
68.0679100967
 21
94.180773814
 31
0.0
  0
LINE
  5
156
330
14D
100
AcDbEntity
  8
LEVEL0
100
AcDbLine
 10
68.0679100967
 20
94.180773814
 30
0.0
 11
67.637016893
 21
93.7498806103
 31
0.0
  0
LINE
  5
157
330
14D
100
AcDbEntity
  8
LEVEL0
100
AcDbLine
 10
54.5776470032
 20
76.5705200544
 30
0.0
 11
70.6147222803
 21
92.495748367
 31
0.0
  0
LINE
  5
158
330
14D
100
AcDbEntity
  8
LEVEL0
100
AcDbLine
 10
54.5776470032
 20
76.5705200544
 30
0.0
 11
51.8485052968
 21
73.8604121313
 31
0.0
  0
MTEXT
  5
159
330
14D
100
AcDbEntity
  8
LEVEL0
100
AcDbMText
 10
61.111739803
 20
90.8706376812
 30
0.0
 40
2.0
 41
0.0
 71
     1
 72
     1
  1
0.146
  7
SLDTEXTSTYLE0
 11
0.7071067811865628
 21
0.7071067811865323
 31
0.0
 73
     1
 44
1.0
  0
MTEXT
  5
15A
330
14D
100
AcDbEntity
  8
LEVEL0
100
AcDbMText
 10
63.7000453532
 20
89.2271052715
 30
0.0
 40
2.0
 41
0.0
 71
     1
 72
     1
  1
R3.7
  7
SLDTEXTSTYLE0
 11
0.7071067811865628
 21
0.7071067811865323
 31
0.0
 73
     1
 44
1.0
  0
ENDBLK
  5
14F
330
14D
100
AcDbEntity
  8
0
100
AcDbBlockEnd
  0
BLOCK
  5
15D
330
15C
100
AcDbEntity
  8
0
100
AcDbBlockBegin
  2
_D_7
 70
     0
 10
0.0
 20
0.0
 30
0.0
  3
_D_7
  1

  0
INSERT
  5
15F
330
15C
100
AcDbEntity
  8
LEVEL0
100
AcDbBlockReference
  2
_Closed
 10
174.4250310068
 20
138.4720338215
 30
-2.8
 41
2.0
 42
2.0
 50
210.0634007249
  0
LINE
  5
160
330
15C
100
AcDbEntity
  8
LEVEL0
100
AcDbLine
 10
145.9569325431
 20
129.1183902202
 30
0.0
 11
145.4291983018
 21
128.8137027139
 31
0.0
  0
LINE
  5
161
330
15C
100
AcDbEntity
  8
LEVEL0
100
AcDbLine
 10
145.4291983018
 20
128.8137027139
 30
0.0
 11
147.0166982826
 21
126.0640720901
 31
0.0
  0
LINE
  5
162
330
15C
100
AcDbEntity
  8
LEVEL0
100
AcDbLine
 10
147.0166982826
 20
126.0640720901
 30
0.0
 11
147.5444325239
 21
126.3687595964
 31
0.0
  0
LINE
  5
163
330
15C
100
AcDbEntity
  8
LEVEL0
100
AcDbLine
 10
151.7160013737
 20
132.4433901599
 30
0.0
 11
152.243735615
 21
132.7480776661
 31
0.0
  0
LINE
  5
164
330
15C
100
AcDbEntity
  8
LEVEL0
100
AcDbLine
 10
152.243735615
 20
132.7480776661
 30
0.0
 11
153.8312355959
 21
129.9984470424
 31
0.0
  0
LINE
  5
165
330
15C
100
AcDbEntity
  8
LEVEL0
100
AcDbLine
 10
153.8312355959
 20
129.9984470424
 30
0.0
 11
153.3035013545
 21
129.6937595361
 31
0.0
  0
LINE
  5
166
330
15C
100
AcDbEntity
  8
LEVEL0
100
AcDbLine
 10
174.4250310068
 20
138.4720338215
 30
0.0
 11
147.985144584
 21
123.1679238665
 31
0.0
  0
LINE
  5
167
330
15C
100
AcDbEntity
  8
LEVEL0
100
AcDbLine
 10
174.4250310068
 20
138.4720338215
 30
0.0
 11
177.7537679221
 21
140.3987953419
 31
0.0
  0
MTEXT
  5
168
330
15C
100
AcDbEntity
  8
LEVEL0
100
AcDbMText
 10
146.2553647841
 20
128.6014904161
 30
0.0
 40
2.0
 41
0.0
 71
     1
 72
     1
  1
0.138
  7
SLDTEXTSTYLE0
 11
0.8660254037844385
 21
0.5000000000000002
 31
0.0
 73
     1
 44
1.0
  0
MTEXT
  5
169
330
15C
100
AcDbEntity
  8
LEVEL0
100
AcDbMText
 10
148.3300984725
 20
126.3440572443
 30
0.0
 40
2.0
 41
0.0
 71
     1
 72
     1
  1
R3.5
  7
SLDTEXTSTYLE0
 11
0.8660254037844385
 21
0.5000000000000002
 31
0.0
 73
     1
 44
1.0
  0
ENDBLK
  5
15E
330
15C
100
AcDbEntity
  8
0
100
AcDbBlockEnd
  0
BLOCK
  5
16C
330
16B
100
AcDbEntity
  8
0
100
AcDbBlockBegin
  2
_D_8
 70
     0
 10
0.0
 20
0.0
 30
0.0
  3
_D_8
  1

  0
INSERT
  5
16E
330
16B
100
AcDbEntity
  8
LEVEL0
100
AcDbBlockReference
  2
_Closed
 10
163.8796347519
 20
136.7220338215
 30
-2.8
 41
2.0
 42
2.0
 50
270.0
  0
INSERT
  5
16F
330
16B
100
AcDbEntity
  8
LEVEL0
100
AcDbBlockReference
  2
_Closed
 10
163.8796347519
 20
181.951596468
 30
-2.8
 41
2.0
 42
2.0
 50
90.0
  0
LINE
  5
170
330
16B
100
AcDbEntity
  8
LEVEL0
100
AcDbLine
 10
157.7122737047
 20
166.5274458976
 30
0.0
 11
157.7122737047
 21
165.918070885
 31
0.0
  0
LINE
  5
171
330
16B
100
AcDbEntity
  8
LEVEL0
100
AcDbLine
 10
157.7122737047
 20
165.918070885
 30
0.0
 11
160.8872736664
 21
165.918070885
 31
0.0
  0
LINE
  5
172
330
16B
100
AcDbEntity
  8
LEVEL0
100
AcDbLine
 10
160.8872736664
 20
165.918070885
 30
0.0
 11
160.8872736664
 21
166.5274458976
 31
0.0
  0
LINE
  5
173
330
16B
100
AcDbEntity
  8
LEVEL0
100
AcDbLine
 10
157.7122737047
 20
173.1774457769
 30
0.0
 11
157.7122737047
 21
173.7868207895
 31
0.0
  0
LINE
  5
174
330
16B
100
AcDbEntity
  8
LEVEL0
100
AcDbLine
 10
157.7122737047
 20
173.7868207895
 30
0.0
 11
160.8872736664
 21
173.7868207895
 31
0.0
  0
LINE
  5
175
330
16B
100
AcDbEntity
  8
LEVEL0
100
AcDbLine
 10
160.8872736664
 20
173.7868207895
 30
0.0
 11
160.8872736664
 21
173.1774457769
 31
0.0
  0
LINE
  5
176
330
16B
100
AcDbEntity
  8
LEVEL0
100
AcDbLine
 10
164.3939420935
 20
136.7220338215
 30
0.0
 11
162.8796347519
 21
136.7220338215
 31
0.0
  0
LINE
  5
177
330
16B
100
AcDbEntity
  8
LEVEL0
100
AcDbLine
 10
164.3939420935
 20
181.951596468
 30
0.0
 11
162.8796347519
 21
181.951596468
 31
0.0
  0
LINE
  5
178
330
16B
100
AcDbEntity
  8
LEVEL0
100
AcDbLine
 10
163.8796347519
 20
136.7220338215
 30
0.0
 11
163.8796347519
 21
181.951596468
 31
0.0
  0
MTEXT
  5
179
330
16B
100
AcDbEntity
  8
LEVEL0
100
AcDbMText
 10
161.2709437428
 20
165.3309181474
 30
0.0
 40
2.0
 41
0.0
 71
     1
 72
     1
  1

  7
SLDTEXTSTYLE0
 11
6.123233995736766E-17
 21
1.0
 31
0.0
 73
     1
 44
1.0
  0
MTEXT
  5
17A
330
16B
100
AcDbEntity
  8
LEVEL0
100
AcDbMText
 10
158.3091381868
 20
166.5274458976
 30
0.0
 40
2.0
 41
0.0
 71
     1
 72
     1
  1
1.781
  7
SLDTEXTSTYLE0
 11
6.123233995736766E-17
 21
1.0
 31
0.0
 73
     1
 44
1.0
  0
MTEXT
  5
17B
330
16B
100
AcDbEntity
  8
LEVEL0
100
AcDbMText
 10
161.3014995051
 20
167.266334993
 30
0.0
 40
2.0
 41
0.0
 71
     1
 72
     1
  1
45.2
  7
SLDTEXTSTYLE0
 11
6.123233995736766E-17
 21
1.0
 31
0.0
 73
     1
 44
1.0
  0
MTEXT
  5
17C
330
16B
100
AcDbEntity
  8
LEVEL0
100
AcDbMText
 10
161.2709437428
 20
175.8961962677
 30
0.0
 40
2.0
 41
0.0
 71
     1
 72
     1
  1

  7
SLDTEXTSTYLE0
 11
6.123233995736766E-17
 21
1.0
 31
0.0
 73
     1
 44
1.0
  0
ENDBLK
  5
16D
330
16B
100
AcDbEntity
  8
0
100
AcDbBlockEnd
  0
BLOCK
  5
180
330
17F
100
AcDbEntity
  8
0
100
AcDbBlockBegin
  2
_D_9
 70
     0
 10
0.0
 20
0.0
 30
0.0
  3
_D_9
  1

  0
INSERT
  5
182
330
17F
100
AcDbEntity
  8
LEVEL0
100
AcDbBlockReference
  2
_Closed
 10
171.3939420935
 20
192.5213669949
 30
-2.8
 41
2.0
 42
2.0
 50
0.0
  0
INSERT
  5
183
330
17F
100
AcDbEntity
  8
LEVEL0
100
AcDbBlockReference
  2
_Closed
 10
173.3939420935
 20
192.5213669949
 30
-2.8
 41
2.0
 42
2.0
 50
180.0
  0
LINE
  5
184
330
17F
100
AcDbEntity
  8
LEVEL0
100
AcDbLine
 10
154.3119484326
 20
198.688728042
 30
0.0
 11
153.70257342
 21
198.688728042
 31
0.0
  0
LINE
  5
185
330
17F
100
AcDbEntity
  8
LEVEL0
100
AcDbLine
 10
153.70257342
 20
198.688728042
 30
0.0
 11
153.70257342
 21
195.5137280803
 31
0.0
  0
LINE
  5
186
330
17F
100
AcDbEntity
  8
LEVEL0
100
AcDbLine
 10
153.70257342
 20
195.5137280803
 30
0.0
 11
154.3119484326
 21
195.5137280803
 31
0.0
  0
LINE
  5
187
330
17F
100
AcDbEntity
  8
LEVEL0
100
AcDbLine
 10
160.9619483119
 20
198.688728042
 30
0.0
 11
161.5713233245
 21
198.688728042
 31
0.0
  0
LINE
  5
188
330
17F
100
AcDbEntity
  8
LEVEL0
100
AcDbLine
 10
161.5713233245
 20
198.688728042
 30
0.0
 11
161.5713233245
 21
195.5137280803
 31
0.0
  0
LINE
  5
189
330
17F
100
AcDbEntity
  8
LEVEL0
100
AcDbLine
 10
161.5713233245
 20
195.5137280803
 30
0.0
 11
160.9619483119
 21
195.5137280803
 31
0.0
  0
LINE
  5
18A
330
17F
100
AcDbEntity
  8
LEVEL0
100
AcDbLine
 10
171.3939420935
 20
188.951596468
 30
0.0
 11
171.3939420935
 21
193.5213669949
 31
0.0
  0
LINE
  5
18B
330
17F
100
AcDbEntity
  8
LEVEL0
100
AcDbLine
 10
171.3939420935
 20
192.5213669949
 30
0.0
 11
151.6154206824
 21
192.5213669949
 31
0.0
  0
LINE
  5
18C
330
17F
100
AcDbEntity
  8
LEVEL0
100
AcDbLine
 10
171.3939420935
 20
192.5213669949
 30
0.0
 11
173.3939420935
 21
192.5213669949
 31
0.0
  0
LINE
  5
18D
330
17F
100
AcDbEntity
  8
LEVEL0
100
AcDbLine
 10
173.3939420935
 20
192.5213669949
 30
0.0
 11
177.2400959397
 21
192.5213669949
 31
0.0
  0
MTEXT
  5
18E
330
17F
100
AcDbEntity
  8
LEVEL0
100
AcDbMText
 10
153.1154206824
 20
195.1300580039
 30
0.0
 40
2.0
 41
0.0
 71
     1
 72
     1
  1

  7
SLDTEXTSTYLE0
 73
     1
 44
1.0
  0
MTEXT
  5
18F
330
17F
100
AcDbEntity
  8
LEVEL0
100
AcDbMText
 10
154.3119484326
 20
198.0918635599
 30
0.0
 40
2.0
 41
0.0
 71
     1
 72
     1
  1
0.079
  7
SLDTEXTSTYLE0
 73
     1
 44
1.0
  0
MTEXT
  5
190
330
17F
100
AcDbEntity
  8
LEVEL0
100
AcDbMText
 10
156.8980596261
 20
195.0995022416
 30
0.0
 40
2.0
 41
0.0
 71
     1
 72
     1
  1
2
  7
SLDTEXTSTYLE0
 73
     1
 44
1.0
  0
MTEXT
  5
191
330
17F
100
AcDbEntity
  8
LEVEL0
100
AcDbMText
 10
163.6806988027
 20
195.1300580039
 30
0.0
 40
2.0
 41
0.0
 71
     1
 72
     1
  1

  7
SLDTEXTSTYLE0
 73
     1
 44
1.0
  0
ENDBLK
  5
181
330
17F
100
AcDbEntity
  8
0
100
AcDbBlockEnd
  0
BLOCK
  5
193
330
192
100
AcDbEntity
  8
0
100
AcDbBlockBegin
  2
SW_NOTE_0
 70
     0
 10
0.0
 20
0.0
 30
0.0
  3
SW_NOTE_0
  1

  0
MTEXT
  5
195
330
192
100
AcDbEntity
  8
LEVEL0
 62
     0
100
AcDbMText
 10
0.5020950369
 20
3.9427341579
 30
0.0
 40
8.0
 41
0.0
 71
     1
 72
     1
  1
UP
  7
SLDTEXTSTYLE0
 73
     1
 44
1.0
  0
ENDBLK
  5
194
330
192
100
AcDbEntity
  8
0
100
AcDbBlockEnd
  0
BLOCK
  5
19A
330
199
100
AcDbEntity
  8
0
100
AcDbBlockBegin
  2
SW_NOTE_0_1
 70
     0
 10
0.0
 20
0.0
 30
0.0
  3
SW_NOTE_0_1
  1

  0
MTEXT
  5
19C
330
199
100
AcDbEntity
  8
LEVEL0
 62
     0
100
AcDbMText
 10
0.5450072546
 20
0.8137622867
 30
0.0
 40
2.0
 41
0.0
 71
     1
 72
     1
  1
MARK SCREW POSITIONS
  7
SLDTEXTSTYLE0
 73
     1
 44
1.0
  0
ENDBLK
  5
19B
330
199
100
AcDbEntity
  8
0
100
AcDbBlockEnd
  0
BLOCK
  5
1A0
330
19F
100
AcDbEntity
  8
0
100
AcDbBlockBegin
  2
SW_CENTERMARKSYMBOL_0
 70
     0
 10
0.0
 20
0.0
 30
0.0
  3
SW_CENTERMARKSYMBOL_0
  1

  0
LINE
  5
1A2
330
19F
100
AcDbEntity
  8
LEVEL0
 62
     0
100
AcDbLine
 10
0.0
 20
0.0
 30
0.0
 11
-2.5
 21
0.0
 31
0.0
  0
LINE
  5
1A3
330
19F
100
AcDbEntity
  8
LEVEL0
 62
     0
100
AcDbLine
 10
0.0
 20
0.0
 30
0.0
 11
0.0
 21
-2.5
 31
0.0
  0
LINE
  5
1A4
330
19F
100
AcDbEntity
  8
LEVEL0
 62
     0
100
AcDbLine
 10
0.0
 20
0.0
 30
0.0
 11
2.5
 21
0.0
 31
0.0
  0
LINE
  5
1A5
330
19F
100
AcDbEntity
  8
LEVEL0
 62
     0
100
AcDbLine
 10
0.0
 20
0.0
 30
0.0
 11
0.0
 21
2.5
 31
0.0
  0
LINE
  5
1A6
330
19F
100
AcDbEntity
  8
LEVEL0
 62
     0
100
AcDbLine
 10
-2.5
 20
0.0
 30
0.0
 11
-4.1
 21
0.0
 31
0.0
  0
LINE
  5
1A7
330
19F
100
AcDbEntity
  8
LEVEL0
 62
     0
100
AcDbLine
 10
0.0
 20
-2.5
 30
0.0
 11
0.0
 21
-173.8161049387
 31
0.0
  0
LINE
  5
1A8
330
19F
100
AcDbEntity
  8
LEVEL0
 62
     0
100
AcDbLine
 10
2.5
 20
0.0
 30
0.0
 11
4.1
 21
0.0
 31
0.0
  0
LINE
  5
1A9
330
19F
100
AcDbEntity
  8
LEVEL0
 62
     0
100
AcDbLine
 10
0.0
 20
2.5
 30
0.0
 11
0.0
 21
4.1
 31
0.0
  0
ENDBLK
  5
1A1
330
19F
100
AcDbEntity
  8
0
100
AcDbBlockEnd
  0
BLOCK
  5
1AC
330
1AB
100
AcDbEntity
  8
0
100
AcDbBlockBegin
  2
SW_CENTERMARKSYMBOL_1
 70
     0
 10
0.0
 20
0.0
 30
0.0
  3
SW_CENTERMARKSYMBOL_1
  1

  0
LINE
  5
1AE
330
1AB
100
AcDbEntity
  8
LEVEL0
 62
     0
100
AcDbLine
 10
0.0
 20
0.0
 30
0.0
 11
-2.5
 21
0.0
 31
0.0
  0
LINE
  5
1AF
330
1AB
100
AcDbEntity
  8
LEVEL0
 62
     0
100
AcDbLine
 10
0.0
 20
0.0
 30
0.0
 11
0.0
 21
-2.5
 31
0.0
  0
LINE
  5
1B0
330
1AB
100
AcDbEntity
  8
LEVEL0
 62
     0
100
AcDbLine
 10
0.0
 20
0.0
 30
0.0
 11
2.5
 21
0.0
 31
0.0
  0
LINE
  5
1B1
330
1AB
100
AcDbEntity
  8
LEVEL0
 62
     0
100
AcDbLine
 10
0.0
 20
0.0
 30
0.0
 11
0.0
 21
2.5
 31
0.0
  0
LINE
  5
1B2
330
1AB
100
AcDbEntity
  8
LEVEL0
 62
     0
100
AcDbLine
 10
-2.5
 20
0.0
 30
0.0
 11
-127.7034595401
 21
0.0
 31
0.0
  0
LINE
  5
1B3
330
1AB
100
AcDbEntity
  8
LEVEL0
 62
     0
100
AcDbLine
 10
0.0
 20
-2.5
 30
0.0
 11
0.0
 21
-4.1
 31
0.0
  0
LINE
  5
1B4
330
1AB
100
AcDbEntity
  8
LEVEL0
 62
     0
100
AcDbLine
 10
2.5
 20
0.0
 30
0.0
 11
4.1
 21
0.0
 31
0.0
  0
LINE
  5
1B5
330
1AB
100
AcDbEntity
  8
LEVEL0
 62
     0
100
AcDbLine
 10
0.0
 20
2.5
 30
0.0
 11
0.0
 21
4.1
 31
0.0
  0
ENDBLK
  5
1AD
330
1AB
100
AcDbEntity
  8
0
100
AcDbBlockEnd
  0
BLOCK
  5
1B8
330
1B7
100
AcDbEntity
  8
0
100
AcDbBlockBegin
  2
SW_CENTERMARKSYMBOL_2
 70
     0
 10
0.0
 20
0.0
 30
0.0
  3
SW_CENTERMARKSYMBOL_2
  1

  0
LINE
  5
1BA
330
1B7
100
AcDbEntity
  8
LEVEL0
 62
     0
100
AcDbLine
 10
0.0
 20
0.0
 30
0.0
 11
-2.5
 21
0.0
 31
0.0
  0
LINE
  5
1BB
330
1B7
100
AcDbEntity
  8
LEVEL0
 62
     0
100
AcDbLine
 10
0.0
 20
0.0
 30
0.0
 11
0.0
 21
-2.5
 31
0.0
  0
LINE
  5
1BC
330
1B7
100
AcDbEntity
  8
LEVEL0
 62
     0
100
AcDbLine
 10
0.0
 20
0.0
 30
0.0
 11
2.5
 21
0.0
 31
0.0
  0
LINE
  5
1BD
330
1B7
100
AcDbEntity
  8
LEVEL0
 62
     0
100
AcDbLine
 10
0.0
 20
0.0
 30
0.0
 11
0.0
 21
2.5
 31
0.0
  0
LINE
  5
1BE
330
1B7
100
AcDbEntity
  8
LEVEL0
 62
     0
100
AcDbLine
 10
-2.5
 20
0.0
 30
0.0
 11
-126.7403600829
 21
0.0
 31
0.0
  0
LINE
  5
1BF
330
1B7
100
AcDbEntity
  8
LEVEL0
 62
     0
100
AcDbLine
 10
0.0
 20
-2.5
 30
0.0
 11
0.0
 21
-4.1
 31
0.0
  0
LINE
  5
1C0
330
1B7
100
AcDbEntity
  8
LEVEL0
 62
     0
100
AcDbLine
 10
2.5
 20
0.0
 30
0.0
 11
4.1
 21
0.0
 31
0.0
  0
LINE
  5
1C1
330
1B7
100
AcDbEntity
  8
LEVEL0
 62
     0
100
AcDbLine
 10
0.0
 20
2.5
 30
0.0
 11
0.0
 21
174.1022963336
 31
0.0
  0
ENDBLK
  5
1B9
330
1B7
100
AcDbEntity
  8
0
100
AcDbBlockEnd
  0
BLOCK
  5
1C4
330
1C3
100
AcDbEntity
  8
0
100
AcDbBlockBegin
  2
SW_CENTERMARKSYMBOL_3
 70
     0
 10
0.0
 20
0.0
 30
0.0
  3
SW_CENTERMARKSYMBOL_3
  1

  0
LINE
  5
1C6
330
1C3
100
AcDbEntity
  8
LEVEL0
 62
     0
100
AcDbLine
 10
0.0
 20
0.0
 30
0.0
 11
-2.5
 21
0.0
 31
0.0
  0
LINE
  5
1C7
330
1C3
100
AcDbEntity
  8
LEVEL0
 62
     0
100
AcDbLine
 10
0.0
 20
0.0
 30
0.0
 11
0.0
 21
-2.5
 31
0.0
  0
LINE
  5
1C8
330
1C3
100
AcDbEntity
  8
LEVEL0
 62
     0
100
AcDbLine
 10
0.0
 20
0.0
 30
0.0
 11
2.5
 21
0.0
 31
0.0
  0
LINE
  5
1C9
330
1C3
100
AcDbEntity
  8
LEVEL0
 62
     0
100
AcDbLine
 10
0.0
 20
0.0
 30
0.0
 11
0.0
 21
2.5
 31
0.0
  0
LINE
  5
1CA
330
1C3
100
AcDbEntity
  8
LEVEL0
 62
     0
100
AcDbLine
 10
-2.5
 20
0.0
 30
0.0
 11
-4.1
 21
0.0
 31
0.0
  0
LINE
  5
1CB
330
1C3
100
AcDbEntity
  8
LEVEL0
 62
     0
100
AcDbLine
 10
0.0
 20
-2.5
 30
0.0
 11
0.0
 21
-4.1
 31
0.0
  0
LINE
  5
1CC
330
1C3
100
AcDbEntity
  8
LEVEL0
 62
     0
100
AcDbLine
 10
2.5
 20
0.0
 30
0.0
 11
4.1
 21
0.0
 31
0.0
  0
LINE
  5
1CD
330
1C3
100
AcDbEntity
  8
LEVEL0
 62
     0
100
AcDbLine
 10
0.0
 20
2.5
 30
0.0
 11
0.0
 21
4.1
 31
0.0
  0
ENDBLK
  5
1C5
330
1C3
100
AcDbEntity
  8
0
100
AcDbBlockEnd
  0
BLOCK
  5
1D0
330
1CF
100
AcDbEntity
  8
0
100
AcDbBlockBegin
  2
SW_CENTERMARKSYMBOL_4
 70
     0
 10
0.0
 20
0.0
 30
0.0
  3
SW_CENTERMARKSYMBOL_4
  1

  0
LINE
  5
1D2
330
1CF
100
AcDbEntity
  8
LEVEL0
 62
     0
100
AcDbLine
 10
0.0
 20
0.0
 30
0.0
 11
0.0
 21
2.5
 31
0.0
  0
LINE
  5
1D3
330
1CF
100
AcDbEntity
  8
LEVEL0
 62
     0
100
AcDbLine
 10
0.0
 20
0.0
 30
0.0
 11
-2.5
 21
0.0
 31
0.0
  0
LINE
  5
1D4
330
1CF
100
AcDbEntity
  8
LEVEL0
 62
     0
100
AcDbLine
 10
0.0
 20
0.0
 30
0.0
 11
0.0
 21
-2.5
 31
0.0
  0
LINE
  5
1D5
330
1CF
100
AcDbEntity
  8
LEVEL0
 62
     0
100
AcDbLine
 10
0.0
 20
0.0
 30
0.0
 11
2.5
 21
0.0
 31
0.0
  0
LINE
  5
1D6
330
1CF
100
AcDbEntity
  8
LEVEL0
 62
     0
100
AcDbLine
 10
0.0
 20
5.0
 30
0.0
 11
0.0
 21
6.0
 31
0.0
  0
LINE
  5
1D7
330
1CF
100
AcDbEntity
  8
LEVEL0
 62
     0
100
AcDbLine
 10
-5.0
 20
0.0
 30
0.0
 11
-6.0
 21
0.0
 31
0.0
  0
LINE
  5
1D8
330
1CF
100
AcDbEntity
  8
LEVEL0
 62
     0
100
AcDbLine
 10
0.0
 20
-5.0
 30
0.0
 11
0.0
 21
-6.0
 31
0.0
  0
LINE
  5
1D9
330
1CF
100
AcDbEntity
  8
LEVEL0
 62
     0
100
AcDbLine
 10
5.0
 20
0.0
 30
0.0
 11
6.0
 21
0.0
 31
0.0
  0
ENDBLK
  5
1D1
330
1CF
100
AcDbEntity
  8
0
100
AcDbBlockEnd
  0
BLOCK
  5
1DC
330
1DB
100
AcDbEntity
  8
0
100
AcDbBlockBegin
  2
SW_CENTERMARKSYMBOL_5
 70
     0
 10
0.0
 20
0.0
 30
0.0
  3
SW_CENTERMARKSYMBOL_5
  1

  0
LINE
  5
1DE
330
1DB
100
AcDbEntity
  8
LEVEL0
 62
     0
100
AcDbLine
 10
0.0
 20
0.0
 30
0.0
 11
0.0
 21
2.5
 31
0.0
  0
LINE
  5
1DF
330
1DB
100
AcDbEntity
  8
LEVEL0
 62
     0
100
AcDbLine
 10
0.0
 20
0.0
 30
0.0
 11
-2.5
 21
0.0
 31
0.0
  0
LINE
  5
1E0
330
1DB
100
AcDbEntity
  8
LEVEL0
 62
     0
100
AcDbLine
 10
0.0
 20
0.0
 30
0.0
 11
0.0
 21
-2.5
 31
0.0
  0
LINE
  5
1E1
330
1DB
100
AcDbEntity
  8
LEVEL0
 62
     0
100
AcDbLine
 10
0.0
 20
0.0
 30
0.0
 11
2.5
 21
0.0
 31
0.0
  0
LINE
  5
1E2
330
1DB
100
AcDbEntity
  8
LEVEL0
 62
     0
100
AcDbLine
 10
0.0
 20
5.0
 30
0.0
 11
0.0
 21
6.0
 31
0.0
  0
LINE
  5
1E3
330
1DB
100
AcDbEntity
  8
LEVEL0
 62
     0
100
AcDbLine
 10
-5.0
 20
0.0
 30
0.0
 11
-6.0
 21
0.0
 31
0.0
  0
LINE
  5
1E4
330
1DB
100
AcDbEntity
  8
LEVEL0
 62
     0
100
AcDbLine
 10
0.0
 20
-5.0
 30
0.0
 11
0.0
 21
-6.0
 31
0.0
  0
LINE
  5
1E5
330
1DB
100
AcDbEntity
  8
LEVEL0
 62
     0
100
AcDbLine
 10
5.0
 20
0.0
 30
0.0
 11
6.0
 21
0.0
 31
0.0
  0
ENDBLK
  5
1DD
330
1DB
100
AcDbEntity
  8
0
100
AcDbBlockEnd
  0
ENDSEC
  0
SECTION
  2
ENTITIES
  0
CIRCLE
  5
A7
330
1F
100
AcDbEntity
  8
0
  6
Continuous
 62
     7
370
    25
100
AcDbCircle
 10
179.9939420935
 20
68.8868151448
 30
0.0
 40
1.59999999999998
  0
CIRCLE
  5
A8
330
1F
100
AcDbEntity
  8
0
  6
Continuous
 62
     7
370
    25
100
AcDbCircle
 10
46.8939420935
 20
68.8868151448
 30
0.0
 40
1.59999999999998
  0
CIRCLE
  5
A9
330
1F
100
AcDbEntity
  8
0
  6
Continuous
 62
     7
370
    25
100
AcDbCircle
 10
46.8939420935
 20
249.7868151448
 30
0.0
 40
1.599999999999994
  0
ARC
  5
AA
330
1F
100
AcDbEntity
  8
0
  6
Continuous
 62
     7
370
    25
100
AcDbCircle
 10
169.6939420935
 20
239.4868151448
 30
0.0
 40
3.699999999999989
100
AcDbArc
 50
0.0
 51
90.0
  0
LINE
  5
AB
330
1F
100
AcDbEntity
  8
0
  6
Continuous
 62
     7
370
    25
100
AcDbLine
 10
169.6939420935
 20
243.1868151448
 30
0.0
 11
57.1939420935
 21
243.1868151448
 31
0.0
  0
ARC
  5
AC
330
1F
100
AcDbEntity
  8
0
  6
Continuous
 62
     7
370
    25
100
AcDbCircle
 10
57.1939420935
 20
239.4868151448
 30
0.0
 40
3.700000000000003
100
AcDbArc
 50
90.0
 51
180.0
  0
LINE
  5
AD
330
1F
100
AcDbEntity
  8
0
  6
Continuous
 62
     7
370
    25
100
AcDbLine
 10
53.4939420935
 20
239.4868151448
 30
0.0
 11
53.4939420935
 21
79.1868151448
 31
0.0
  0
ARC
  5
AE
330
1F
100
AcDbEntity
  8
0
  6
Continuous
 62
     7
370
    25
100
AcDbCircle
 10
57.1939420935
 20
79.1868151448
 30
0.0
 40
3.700000000000024
100
AcDbArc
 50
180.0
 51
270.0
  0
LINE
  5
AF
330
1F
100
AcDbEntity
  8
0
  6
Continuous
 62
     7
370
    25
100
AcDbLine
 10
57.1939420935
 20
75.4868151448
 30
0.0
 11
169.6939420935
 21
75.4868151448
 31
0.0
  0
ARC
  5
B0
330
1F
100
AcDbEntity
  8
0
  6
Continuous
 62
     7
370
    25
100
AcDbCircle
 10
169.6939420935
 20
79.1868151448
 30
0.0
 40
3.700000000000003
100
AcDbArc
 50
270.0
 51
0.0
  0
LINE
  5
B1
330
1F
100
AcDbEntity
  8
0
  6
Continuous
 62
     7
370
    25
100
AcDbLine
 10
173.3939420935
 20
79.1868151448
 30
0.0
 11
173.3939420935
 21
133.0943151448
 31
0.0
  0
ARC
  5
B2
330
1F
100
AcDbEntity
  8
0
  6
Continuous
 62
     7
370
    25
100
AcDbCircle
 10
171.3939420935
 20
135.966596468
 30
0.0
 40
3.500000000000006
100
AcDbArc
 50
304.849904579
 51
0.0
  0
LINE
  5
B3
330
1F
100
AcDbEntity
  8
0
  6
Continuous
 62
     7
370
    25
100
AcDbLine
 10
174.8939420935
 20
135.966596468
 30
0.0
 11
174.8939420935
 21
136.7220338215
 31
0.0
  0
ARC
  5
B4
330
1F
100
AcDbEntity
  8
0
  6
Continuous
 62
     7
370
    25
100
AcDbCircle
 10
171.3939420935
 20
136.7220338215
 30
0.0
 40
3.500000000000006
100
AcDbArc
 50
0.0
 51
55.150095421
  0
LINE
  5
B5
330
1F
100
AcDbEntity
  8
0
  6
Continuous
 62
     7
370
    25
100
AcDbLine
 10
173.3939420935
 20
139.5943151448
 30
0.0
 11
173.3939420935
 21
179.0793151448
 31
0.0
  0
ARC
  5
B6
330
1F
100
AcDbEntity
  8
0
  6
Continuous
 62
     7
370
    25
100
AcDbCircle
 10
171.3939420935
 20
181.951596468
 30
0.0
 40
3.500000000000006
100
AcDbArc
 50
304.849904579
 51
0.0
  0
LINE
  5
B7
330
1F
100
AcDbEntity
  8
0
  6
Continuous
 62
     7
370
    25
100
AcDbLine
 10
174.8939420935
 20
181.951596468
 30
0.0
 11
174.8939420935
 21
182.7070338215
 31
0.0
  0
ARC
  5
B8
330
1F
100
AcDbEntity
  8
0
  6
Continuous
 62
     7
370
    25
100
AcDbCircle
 10
171.3939420935
 20
182.7070338215
 30
0.0
 40
3.500000000000006
100
AcDbArc
 50
0.0
 51
55.150095421
  0
LINE
  5
B9
330
1F
100
AcDbEntity
  8
0
  6
Continuous
 62
     7
370
    25
100
AcDbLine
 10
173.3939420935
 20
185.5793151448
 30
0.0
 11
173.3939420935
 21
239.4868151448
 31
0.0
  0
CIRCLE
  5
BA
330
1F
100
AcDbEntity
  8
0
  6
Continuous
 62
     7
370
    25
100
AcDbCircle
 10
179.9939420935
 20
249.7868151448
 30
0.0
 40
1.600000000000051
  0
LINE
  5
BB
330
1F
100
AcDbEntity
  8
LEVEL0
100
AcDbLine
 10
173.3939420935
 20
159.3368151448
 30
0.0
 11
189.7752122097
 21
159.3368151448
 31
0.0
  0
LINE
  5
BC
330
1F
100
AcDbEntity
  8
LEVEL0
100
AcDbLine
 10
173.3939420935
 20
159.3368151448
 30
0.0
 11
41.6661915405
 21
159.3368151448
 31
0.0
  0
DIMENSION
  5
BD
330
1F
100
AcDbEntity
  8
LEVEL0
100
AcDbDimension
  2
_D
 10
179.9939420935
 20
52.8868151448
 30
0.0
 11
108.6636452588
 21
52.8868151448
 31
0.0
 70
   160
  1
<>
 71
     2
 42
-1.0
  3
SLDDIMSTYLE0
100
AcDbAlignedDimension
 13
46.8939420935
 23
64.7868151448
 33
0.0
 14
179.9939420935
 24
64.7868151448
 34
0.0
 50
0.0
100
AcDbRotatedDimension
  0
DIMENSION
  5
D9
330
1F
100
AcDbEntity
  8
LEVEL0
100
AcDbDimension
  2
_D_1
 10
53.4939420935
 20
58.753595463
 30
0.0
 11
67.596183031
 21
58.753595463
 31
0.0
 70
   160
  1
<>
 71
     2
 42
-1.0
  3
SLDDIMSTYLE0
100
AcDbAlignedDimension
 13
46.8939420935
 23
64.7868151448
 33
0.0
 14
53.4939420935
 24
79.1868151448
 34
0.0
 50
0.0
100
AcDbRotatedDimension
  0
DIMENSION
  5
ED
330
1F
100
AcDbEntity
  8
LEVEL0
100
AcDbDimension
  2
_D_2
 10
30.8939420935
 20
68.8868151448
 30
0.0
 11
30.8939420935
 21
151.0685738504
 31
0.0
 70
   160
  1
<>
 71
     2
 42
-1.0
  3
SLDDIMSTYLE0
100
AcDbAlignedDimension
 13
42.7939420935
 23
249.7868151448
 33
0.0
 14
42.7939420935
 24
68.8868151448
 34
0.0
 50
90.0
100
AcDbRotatedDimension
  0
DIMENSION
  5
100
330
1F
100
AcDbEntity
  8
LEVEL0
100
AcDbDimension
  2
_D_3
 10
40.7228219821
 20
249.7868151448
 30
0.0
 11
40.7228219821
 21
230.3872313734
 31
0.0
 70
   160
  1
<>
 71
     2
 42
-1.0
  3
SLDDIMSTYLE0
100
AcDbAlignedDimension
 13
57.1939420935
 23
243.1868151448
 33
0.0
 14
42.7939420935
 24
249.7868151448
 34
0.0
 50
90.0
100
AcDbRotatedDimension
  0
DIMENSION
  5
114
330
1F
100
AcDbEntity
  8
LEVEL0
100
AcDbDimension
  2
_D_4
 10
173.3939420935
 20
213.8782641014
 30
0.0
 11
108.6636452588
 21
213.8782641014
 31
0.0
 70
   160
  1
<>
 71
     2
 42
-1.0
  3
SLDDIMSTYLE1
100
AcDbAlignedDimension
 13
53.4939420935
 23
239.4868151448
 33
0.0
 14
173.3939420935
 24
239.4868151448
 34
0.0
 50
0.0
100
AcDbRotatedDimension
  0
DIMENSION
  5
130
330
1F
100
AcDbEntity
  8
LEVEL0
100
AcDbDimension
  2
_D_5
 10
90.0138814086
 20
75.4868151448
 30
0.0
 11
90.0138814086
 21
176.3793241548
 31
0.0
 70
   160
  1
<>
 71
     2
 42
-1.0
  3
SLDDIMSTYLE1
100
AcDbAlignedDimension
 13
57.1939420935
 23
243.1868151448
 33
0.0
 14
57.1939420935
 24
75.4868151448
 34
0.0
 50
90.0
100
AcDbRotatedDimension
  0
DIMENSION
  5
14B
330
1F
100
AcDbEntity
  8
LEVEL0
100
AcDbDimension
  2
_D_6
 10
57.1939420935
 20
79.1868151448
 30
0.0
 11
67.596193031
 21
89.5890660823
 31
0.0
 70
   164
  1
<>
 71
     1
 42
-1.0
  3
SLDDIMSTYLE2
100
AcDbRadialDimension
 15
54.5776470032
 25
76.5705200544
 35
0.0
 40
0.0
  0
DIMENSION
  5
15B
330
1F
100
AcDbEntity
  8
LEVEL0
100
AcDbDimension
  2
_D_7
 10
171.3939420935
 20
136.7220338215
 30
0.0
 11
151.7007102079
 21
125.3521453176
 31
0.0
 70
   164
  1
<>
 71
     1
 42
-1.0
  3
SLDDIMSTYLE2
100
AcDbRadialDimension
 15
174.4250310068
 25
138.4720338215
 35
0.0
 40
0.0
  0
DIMENSION
  5
16A
330
1F
100
AcDbEntity
  8
LEVEL0
100
AcDbDimension
  2
_D_8
 10
163.8796347519
 20
181.951596468
 30
0.0
 11
163.8796347519
 21
169.8524461865
 31
0.0
 70
   160
  1
<>
 71
     2
 42
-1.0
  3
SLDDIMSTYLE0
100
AcDbAlignedDimension
 13
165.3939420935
 23
136.7220338215
 33
0.0
 14
165.3939420935
 24
181.951596468
 34
0.0
 50
90.0
100
AcDbRotatedDimension
  0
DIMENSION
  5
17D
330
1F
100
AcDbEntity
  8
LEVEL0
100
AcDbDimension
  2
_D_9
 10
173.3939420935
 20
192.5213669949
 30
0.0
 11
157.6369487215
 21
192.5213669949
 31
0.0
 70
   160
  1
<>
 71
     2
 42
-1.0
  3
SLDDIMSTYLE3
100
AcDbAlignedDimension
 13
171.3939420935
 23
187.951596468
 33
0.0
 14
173.3939420935
 24
185.5793151448
 34
0.0
100
AcDbRotatedDimension
  0
INSERT
  5
196
330
1F
100
AcDbEntity
  8
LEVEL0
100
AcDbBlockReference
  2
SW_NOTE_0
 10
115.7583518931
 20
44.1069040416
 30
0.0
  0
LEADER
  5
198
330
1F
100
AcDbEntity
  8
LEVEL0
100
AcDbLeader
  3
SLDDIMSTYLE4
 76
     2
 10
76.0542063029
 20
43.9355947692
 30
0.0
 10
115.7583518931
 20
44.1069040416
 30
0.0
  0
INSERT
  5
19D
330
1F
100
AcDbEntity
  8
LEVEL0
100
AcDbBlockReference
  2
SW_NOTE_0_1
 10
56.070155902
 20
258.0358172289
 30
0.0
  0
LEADER
  5
19E
330
1F
100
AcDbEntity
  8
LEVEL0
100
AcDbLeader
  3
SLDDIMSTYLE4
 76
     2
 10
48.1900613672
 20
250.7249381795
 30
0.0
 10
56.070155902
 20
258.0358172289
 30
0.0
  0
INSERT
  5
1AA
330
1F
100
AcDbEntity
  8
LEVEL0
100
AcDbBlockReference
  2
SW_CENTERMARKSYMBOL_0
 10
46.8939420935
 20
249.7868151448
 30
0.0
  0
INSERT
  5
1B6
330
1F
100
AcDbEntity
  8
LEVEL0
100
AcDbBlockReference
  2
SW_CENTERMARKSYMBOL_1
 10
179.9939420935
 20
249.7868151448
 30
0.0
  0
INSERT
  5
1C2
330
1F
100
AcDbEntity
  8
LEVEL0
100
AcDbBlockReference
  2
SW_CENTERMARKSYMBOL_2
 10
179.9939420935
 20
68.8868151448
 30
0.0
  0
INSERT
  5
1CE
330
1F
100
AcDbEntity
  8
LEVEL0
100
AcDbBlockReference
  2
SW_CENTERMARKSYMBOL_3
 10
46.8939420935
 20
68.8868151448
 30
0.0
  0
INSERT
  5
1DA
330
1F
100
AcDbEntity
  8
LEVEL0
100
AcDbBlockReference
  2
SW_CENTERMARKSYMBOL_4
 10
171.3939420935
 20
181.951596468
 30
0.0
  0
INSERT
  5
1E6
330
1F
100
AcDbEntity
  8
LEVEL0
100
AcDbBlockReference
  2
SW_CENTERMARKSYMBOL_5
 10
171.3939420935
 20
136.7220338215
 30
0.0
  0
ENDSEC
  0
SECTION
  2
OBJECTS
  0
DICTIONARY
  5
C
330
0
100
AcDbDictionary
281
     1
  3
ACAD_GROUP
350
D
  3
ACAD_LAYOUT
350
1A
  3
ACAD_MLINESTYLE
350
17
  3
ACAD_PLOTSETTINGS
350
19
  3
ACAD_PLOTSTYLENAME
350
E
  3
ACAD_SCALELIST
350
47
  0
DICTIONARY
  5
D
102
{ACAD_REACTORS
330
C
102
}
330
C
100
AcDbDictionary
281
     1
  0
DICTIONARY
  5
1A
102
{ACAD_REACTORS
330
C
102
}
330
C
100
AcDbDictionary
281
     1
  3
Layout1
350
1E
  3
Layout2
350
26
  3
Model
350
22
  0
DICTIONARY
  5
17
102
{ACAD_REACTORS
330
C
102
}
330
C
100
AcDbDictionary
281
     1
  3
Standard
350
18
  0
DICTIONARY
  5
19
102
{ACAD_REACTORS
330
C
102
}
330
C
100
AcDbDictionary
281
     1
  0
ACDBDICTIONARYWDFLT
  5
E
102
{ACAD_REACTORS
330
C
102
}
330
C
100
AcDbDictionary
281
     1
  3
Normal
350
F
100
AcDbDictionaryWithDefault
340
F
  0
DICTIONARY
  5
47
102
{ACAD_REACTORS
330
C
102
}
330
C
100
AcDbDictionary
281
     1
  3
A0
350
48
  3
A1
350
49
  3
A2
350
4A
  3
A3
350
4B
  3
A4
350
4C
  3
A5
350
4D
  3
A6
350
4E
  3
A7
350
4F
  3
A8
350
50
  3
A9
350
51
  3
B0
350
52
  3
B1
350
53
  3
B2
350
54
  3
B3
350
55
  3
B4
350
56
  3
B5
350
57
  3
B6
350
58
  3
B7
350
59
  3
B8
350
5A
  3
B9
350
5B
  3
C0
350
5C
  3
C1
350
5D
  3
C2
350
5E
  3
C3
350
5F
  3
C4
350
60
  3
C5
350
61
  3
C6
350
62
  3
C7
350
63
  3
C8
350
64
  3
C9
350
65
  3
D0
350
66
  3
D1
350
67
  3
D2
350
68
  0
LAYOUT
  5
1E
102
{ACAD_REACTORS
330
1A
102
}
330
1A
100
AcDbPlotSettings
  1

  2
none_device
  4

  6

 40
0.0
 41
0.0
 42
0.0
 43
0.0
 44
0.0
 45
0.0
 46
0.0
 47
0.0
 48
0.0
 49
0.0
140
0.0
141
0.0
142
1.0
143
1.0
 70
   688
 72
     1
 73
     0
 74
     5
  7

 75
    16
147
1.0
148
0.0
149
0.0
100
AcDbLayout
  1
Layout1
 70
     1
 71
     1
 10
0.0
 20
0.0
 11
420.0
 21
297.0
 12
0.0
 22
0.0
 32
0.0
 14
1.0000000000E+20
 24
1.0000000000E+20
 34
1.0000000000E+20
 15
-1.0000000000E+20
 25
-1.0000000000E+20
 35
-1.0000000000E+20
146
0.0
 13
0.0
 23
0.0
 33
0.0
 16
1.0
 26
0.0
 36
0.0
 17
0.0
 27
1.0
 37
0.0
 76
     0
330
1B
  0
LAYOUT
  5
26
102
{ACAD_REACTORS
330
1A
102
}
330
1A
100
AcDbPlotSettings
  1

  2
none_device
  4

  6

 40
0.0
 41
0.0
 42
0.0
 43
0.0
 44
0.0
 45
0.0
 46
0.0
 47
0.0
 48
0.0
 49
0.0
140
0.0
141
0.0
142
1.0
143
1.0
 70
   688
 72
     1
 73
     0
 74
     5
  7

 75
    16
147
1.0
148
0.0
149
0.0
100
AcDbLayout
  1
Layout2
 70
     1
 71
     2
 10
0.0
 20
0.0
 11
0.0
 21
0.0
 12
0.0
 22
0.0
 32
0.0
 14
0.0
 24
0.0
 34
0.0
 15
0.0
 25
0.0
 35
0.0
146
0.0
 13
0.0
 23
0.0
 33
0.0
 16
1.0
 26
0.0
 36
0.0
 17
0.0
 27
1.0
 37
0.0
 76
     0
330
23
  0
LAYOUT
  5
22
102
{ACAD_REACTORS
330
1A
102
}
330
1A
100
AcDbPlotSettings
  1

  2
none_device
  4
Letter_(8.50_x_11.00_Inches)
  6

 40
6.35
 41
6.35
 42
6.35000508
 43
6.35000508
 44
215.9
 45
279.4
 46
0.0
 47
0.0
 48
0.0
 49
0.0
140
0.0
141
0.0
142
1.0
143
1.0
 70
  1712
 72
     1
 73
     0
 74
     0
  7

 75
     0
147
1.0
148
0.0
149
0.0
100
AcDbLayout
  1
Model
 70
     1
 71
     0
 10
0.0
 20
0.0
 11
210.0
 21
297.0
 12
0.0
 22
0.0
 32
0.0
 14
0.0
 24
0.0
 34
0.0
 15
210.0
 25
297.0
 35
0.0
146
0.0
 13
0.0
 23
0.0
 33
0.0
 16
1.0
 26
0.0
 36
0.0
 17
0.0
 27
1.0
 37
0.0
 76
     0
330
1F
331
29
  0
MLINESTYLE
  5
18
102
{ACAD_REACTORS
330
17
102
}
330
17
100
AcDbMlineStyle
  2
Standard
 70
     0
  3

 62
   256
 51
90.0
 52
90.0
 71
     2
 49
0.5
 62
   256
  6
BYLAYER
 49
-0.5
 62
   256
  6
BYLAYER
  0
ACDBPLACEHOLDER
  5
F
102
{ACAD_REACTORS
330
E
102
}
330
E
  0
SCALE
  5
48
102
{ACAD_REACTORS
330
47
102
}
330
47
100
AcDbScale
 70
     0
300
1:1
140
1.0
141
1.0
290
     1
  0
SCALE
  5
49
102
{ACAD_REACTORS
330
47
102
}
330
47
100
AcDbScale
 70
     0
300
1:2
140
1.0
141
2.0
290
     0
  0
SCALE
  5
4A
102
{ACAD_REACTORS
330
47
102
}
330
47
100
AcDbScale
 70
     0
300
1:4
140
1.0
141
4.0
290
     0
  0
SCALE
  5
4B
102
{ACAD_REACTORS
330
47
102
}
330
47
100
AcDbScale
 70
     0
300
1:5
140
1.0
141
5.0
290
     0
  0
SCALE
  5
4C
102
{ACAD_REACTORS
330
47
102
}
330
47
100
AcDbScale
 70
     0
300
1:8
140
1.0
141
8.0
290
     0
  0
SCALE
  5
4D
102
{ACAD_REACTORS
330
47
102
}
330
47
100
AcDbScale
 70
     0
300
1:10
140
1.0
141
10.0
290
     0
  0
SCALE
  5
4E
102
{ACAD_REACTORS
330
47
102
}
330
47
100
AcDbScale
 70
     0
300
1:16
140
1.0
141
16.0
290
     0
  0
SCALE
  5
4F
102
{ACAD_REACTORS
330
47
102
}
330
47
100
AcDbScale
 70
     0
300
1:20
140
1.0
141
20.0
290
     0
  0
SCALE
  5
50
102
{ACAD_REACTORS
330
47
102
}
330
47
100
AcDbScale
 70
     0
300
1:30
140
1.0
141
30.0
290
     0
  0
SCALE
  5
51
102
{ACAD_REACTORS
330
47
102
}
330
47
100
AcDbScale
 70
     0
300
1:40
140
1.0
141
40.0
290
     0
  0
SCALE
  5
52
102
{ACAD_REACTORS
330
47
102
}
330
47
100
AcDbScale
 70
     0
300
1:50
140
1.0
141
50.0
290
     0
  0
SCALE
  5
53
102
{ACAD_REACTORS
330
47
102
}
330
47
100
AcDbScale
 70
     0
300
1:100
140
1.0
141
100.0
290
     0
  0
SCALE
  5
54
102
{ACAD_REACTORS
330
47
102
}
330
47
100
AcDbScale
 70
     0
300
2:1
140
2.0
141
1.0
290
     0
  0
SCALE
  5
55
102
{ACAD_REACTORS
330
47
102
}
330
47
100
AcDbScale
 70
     0
300
4:1
140
4.0
141
1.0
290
     0
  0
SCALE
  5
56
102
{ACAD_REACTORS
330
47
102
}
330
47
100
AcDbScale
 70
     0
300
8:1
140
8.0
141
1.0
290
     0
  0
SCALE
  5
57
102
{ACAD_REACTORS
330
47
102
}
330
47
100
AcDbScale
 70
     0
300
10:1
140
10.0
141
1.0
290
     0
  0
SCALE
  5
58
102
{ACAD_REACTORS
330
47
102
}
330
47
100
AcDbScale
 70
     0
300
100:1
140
100.0
141
1.0
290
     0
  0
SCALE
  5
59
102
{ACAD_REACTORS
330
47
102
}
330
47
100
AcDbScale
 70
     0
300
1/128" = 1'-0"
140
0.0078125
141
12.0
290
     0
  0
SCALE
  5
5A
102
{ACAD_REACTORS
330
47
102
}
330
47
100
AcDbScale
 70
     0
300
1/64" = 1'-0"
140
0.015625
141
12.0
290
     0
  0
SCALE
  5
5B
102
{ACAD_REACTORS
330
47
102
}
330
47
100
AcDbScale
 70
     0
300
1/32" = 1'-0"
140
0.03125
141
12.0
290
     0
  0
SCALE
  5
5C
102
{ACAD_REACTORS
330
47
102
}
330
47
100
AcDbScale
 70
     0
300
1/16" = 1'-0"
140
0.0625
141
12.0
290
     0
  0
SCALE
  5
5D
102
{ACAD_REACTORS
330
47
102
}
330
47
100
AcDbScale
 70
     0
300
3/32" = 1'-0"
140
0.09375
141
12.0
290
     0
  0
SCALE
  5
5E
102
{ACAD_REACTORS
330
47
102
}
330
47
100
AcDbScale
 70
     0
300
1/8" = 1'-0"
140
0.125
141
12.0
290
     0
  0
SCALE
  5
5F
102
{ACAD_REACTORS
330
47
102
}
330
47
100
AcDbScale
 70
     0
300
3/16" = 1'-0"
140
0.1875
141
12.0
290
     0
  0
SCALE
  5
60
102
{ACAD_REACTORS
330
47
102
}
330
47
100
AcDbScale
 70
     0
300
1/4" = 1'-0"
140
0.25
141
12.0
290
     0
  0
SCALE
  5
61
102
{ACAD_REACTORS
330
47
102
}
330
47
100
AcDbScale
 70
     0
300
3/8" = 1'-0"
140
0.375
141
12.0
290
     0
  0
SCALE
  5
62
102
{ACAD_REACTORS
330
47
102
}
330
47
100
AcDbScale
 70
     0
300
1/2" = 1'-0"
140
0.5
141
12.0
290
     0
  0
SCALE
  5
63
102
{ACAD_REACTORS
330
47
102
}
330
47
100
AcDbScale
 70
     0
300
3/4" = 1'-0"
140
0.75
141
12.0
290
     0
  0
SCALE
  5
64
102
{ACAD_REACTORS
330
47
102
}
330
47
100
AcDbScale
 70
     0
300
1" = 1'-0"
140
1.0
141
12.0
290
     0
  0
SCALE
  5
65
102
{ACAD_REACTORS
330
47
102
}
330
47
100
AcDbScale
 70
     0
300
1-1/2" = 1'-0"
140
1.5
141
12.0
290
     0
  0
SCALE
  5
66
102
{ACAD_REACTORS
330
47
102
}
330
47
100
AcDbScale
 70
     0
300
3" = 1'-0"
140
3.0
141
12.0
290
     0
  0
SCALE
  5
67
102
{ACAD_REACTORS
330
47
102
}
330
47
100
AcDbScale
 70
     0
300
6" = 1'-0"
140
6.0
141
12.0
290
     0
  0
SCALE
  5
68
102
{ACAD_REACTORS
330
47
102
}
330
47
100
AcDbScale
 70
     0
300
1'-0" = 1'-0"
140
12.0
141
12.0
290
     0
  0
ENDSEC
  0
EOF
