  0
SECTION
  2
HEADER
  9
$ACADVER
  1
AC1009
  9
$DWGCODEPAGE
  3
ansi_1252
  9
$INSBASE
 10
0.0
 20
0.0
 30
0.0
  9
$EXTMIN
 10
0.0
 20
0.0
 30
0.0
  9
$EXTMAX
 10
210.0
 20
297.0
 30
0.0
  9
$LIMMIN
 10
0.0
 20
0.0
  9
$LIMMAX
 10
210.0
 20
297.0
  9
$ORTHOMODE
 70
     0
  9
$REGENMODE
 70
     1
  9
$FILLMODE
 70
     1
  9
$QTEXTMODE
 70
     0
  9
$MIRRTEXT
 70
     1
  9
$DRAGMODE
 70
     2
  9
$LTSCALE
 40
1.0
  9
$OSMODE
 70
    37
  9
$ATTMODE
 70
     1
  9
$TEXTSIZE
 40
2.0
  9
$TRACEWID
 40
1.0
  9
$TEXTSTYLE
  7
STANDARD
  9
$CLAYER
  8
0
  9
$CELTYPE
  6
BYLAYER
  9
$CECOLOR
 62
   256
  9
$DIMSCALE
 40
1.0
  9
$DIMASZ
 40
2.0
  9
$DIMEXO
 40
1.0
  9
$DIMDLI
 40
3.75
  9
$DIMRND
 40
0.0
  9
$DIMDLE
 40
0.0
  9
$DIMEXE
 40
1.0
  9
$DIMTP
 40
0.0
  9
$DIMTM
 40
0.0
  9
$DIMTXT
 40
2.0
  9
$DIMCEN
 40
2.5
  9
$DIMTSZ
 40
0.0
  9
$DIMTOL
 70
     0
  9
$DIMLIM
 70
     0
  9
$DIMTIH
 70
     1
  9
$DIMTOH
 70
     1
  9
$DIMSE1
 70
     0
  9
$DIMSE2
 70
     0
  9
$DIMTAD
 70
     1
  9
$DIMZIN
 70
     0
  9
$DIMBLK
  1

  9
$DIMASO
 70
     1
  9
$DIMSHO
 70
     1
  9
$DIMPOST
  1

  9
$DIMAPOST
  1

  9
$DIMALT
 70
     0
  9
$DIMALTD
 70
     3
  9
$DIMALTF
 40
0.0393700787
  9
$DIMLFAC
 40
1.0
  9
$DIMTOFL
 70
     1
  9
$DIMTVP
 40
0.0
  9
$DIMTIX
 70
     0
  9
$DIMSOXD
 70
     0
  9
$DIMSAH
 70
     0
  9
$DIMBLK1
  1

  9
$DIMBLK2
  1

  9
$DIMSTYLE
  2
ISO-25
  9
$DIMCLRD
 70
     0
  9
$DIMCLRE
 70
     0
  9
$DIMCLRT
 70
     0
  9
$DIMTFAC
 40
1.0
  9
$DIMGAP
 40
1.524
  9
$LUNITS
 70
     2
  9
$LUPREC
 70
     2
  9
$SKETCHINC
 40
1.0
  9
$FILLETRAD
 40
10.0
  9
$AUNITS
 70
     0
  9
$AUPREC
 70
     2
  9
$MENU
  1
.
  9
$ELEVATION
 40
0.0
  9
$PELEVATION
 40
0.0
  9
$THICKNESS
 40
0.0
  9
$LIMCHECK
 70
     0
  9
$CHAMFERA
 40
0.0
  9
$CHAMFERB
 40
0.0
  9
$SKPOLY
 70
     0
  9
$TDCREATE
 40
2459367.57660809
  9
$TDUPDATE
 40
2459367.576609282
  9
$TDINDWG
 40
0.0000000116
  9
$TDUSRTIMER
 40
0.0000000116
  9
$USRTIMER
 70
     1
  9
$ANGBASE
 50
0.0
  9
$ANGDIR
 70
     0
  9
$PDMODE
 70
     0
  9
$PDSIZE
 40
-1.0
  9
$PLINEWID
 40
0.0
  9
$COORDS
 70
     1
  9
$SPLFRAME
 70
     0
  9
$SPLINETYPE
 70
     6
  9
$SPLINESEGS
 70
     8
  9
$ATTDIA
 70
     0
  9
$ATTREQ
 70
     1
  9
$HANDLING
 70
     1
  9
$HANDSEED
  5
19C
  9
$SURFTAB1
 70
     6
  9
$SURFTAB2
 70
     6
  9
$SURFTYPE
 70
     6
  9
$SURFU
 70
     6
  9
$SURFV
 70
     6
  9
$UCSNAME
  2

  9
$UCSORG
 10
0.0
 20
0.0
 30
0.0
  9
$UCSXDIR
 10
1.0
 20
0.0
 30
0.0
  9
$UCSYDIR
 10
0.0
 20
1.0
 30
0.0
  9
$PUCSNAME
  2

  9
$PUCSORG
 10
0.0
 20
0.0
 30
0.0
  9
$PUCSXDIR
 10
1.0
 20
0.0
 30
0.0
  9
$PUCSYDIR
 10
0.0
 20
1.0
 30
0.0
  9
$USERI1
 70
     0
  9
$USERI2
 70
     0
  9
$USERI3
 70
     0
  9
$USERI4
 70
     0
  9
$USERI5
 70
     0
  9
$USERR1
 40
0.0
  9
$USERR2
 40
0.0
  9
$USERR3
 40
0.0
  9
$USERR4
 40
0.0
  9
$USERR5
 40
0.0
  9
$WORLDVIEW
 70
     1
  9
$SHADEDGE
 70
     3
  9
$SHADEDIF
 70
    70
  9
$TILEMODE
 70
     1
  9
$MAXACTVP
 70
    64
  9
$PLIMCHECK
 70
     0
  9
$PEXTMIN
 10
1.0000000000E+20
 20
1.0000000000E+20
 30
1.0000000000E+20
  9
$PEXTMAX
 10
-1.0000000000E+20
 20
-1.0000000000E+20
 30
-1.0000000000E+20
  9
$PLIMMIN
 10
0.0
 20
0.0
  9
$PLIMMAX
 10
420.0
 20
297.0
  9
$UNITMODE
 70
     0
  9
$VISRETAIN
 70
     1
  9
$PLINEGEN
 70
     0
  9
$PSLTSCALE
 70
     1
  0
ENDSEC
  0
SECTION
  2
TABLES
  0
TABLE
  2
VPORT
 70
     1
  0
VPORT
  2
*ACTIVE
 70
     0
 10
0.0
 20
0.0
 11
1.0
 21
1.0
 12
105.0
 22
148.5
 13
0.0
 23
0.0
 14
10.0
 24
10.0
 15
10.0
 25
10.0
 16
0.0
 26
0.0
 36
1.0
 17
0.0
 27
0.0
 37
0.0
 40
297.0
 41
0.7070707071
 42
50.0
 43
0.0
 44
0.0
 50
0.0
 51
0.0
 71
     0
 72
  2000
 73
     1
 74
     3
 75
     0
 76
     0
 77
     0
 78
     0
  0
ENDTAB
  0
TABLE
  2
LTYPE
 70
     6
  0
LTYPE
  2
CONTINUOUS
 70
     0
  3
Solid line
 72
    65
 73
     0
 40
0.0
  0
LTYPE
  2
HIDDEN
 70
     0
  3
Hidden __ __ __ __ __ __ __ __ __ __ __ __ __ __
 72
    65
 73
     2
 40
1.905
 49
1.27
 49
-0.635
  0
LTYPE
  2
PHANTOM
 70
     0
  3
Phantom ______  __  __  ______  __  __  ______
 72
    65
 73
     6
 40
12.7
 49
6.35
 49
-1.27
 49
1.27
 49
-1.27
 49
1.27
 49
-1.27
  0
LTYPE
  2
CENTER
 70
     0
  3
Center ____ _ ____ _ ____ _ ____ _ ____ _ ____
 72
    65
 73
     4
 40
10.16
 49
6.35
 49
-1.27
 49
1.27
 49
-1.27
  0
LTYPE
  2
CENTERX2
 70
     0
  3
Center (2x) ________  __  ________  __  _____
 72
    65
 73
     4
 40
20.32
 49
12.7
 49
-2.54
 49
2.54
 49
-2.54
  0
LTYPE
  2
DOT2
 70
     0
  3
Dot (.5x) ........................................
 72
    65
 73
     2
 40
0.635
 49
0.0
 49
-0.635
  0
ENDTAB
  0
TABLE
  2
LAYER
 70
    53
  0
LAYER
  2
0
 70
     0
 62
     7
  6
CONTINUOUS
  0
LAYER
  2
SLD-0
 70
     0
 62
     7
  6
CONTINUOUS
  0
LAYER
  2
LEVEL0
 70
     0
 62
     7
  6
CONTINUOUS
  0
LAYER
  2
1
 70
     0
 62
     7
  6
CONTINUOUS
  0
LAYER
  2
2
 70
     0
 62
     7
  6
CONTINUOUS
  0
LAYER
  2
3
 70
     0
 62
     7
  6
CONTINUOUS
  0
LAYER
  2
4
 70
     0
 62
     7
  6
CONTINUOUS
  0
LAYER
  2
5
 70
     0
 62
     7
  6
CONTINUOUS
  0
LAYER
  2
6
 70
     0
 62
     7
  6
CONTINUOUS
  0
LAYER
  2
7
 70
     0
 62
     7
  6
CONTINUOUS
  0
LAYER
  2
8
 70
     0
 62
     7
  6
CONTINUOUS
  0
LAYER
  2
9
 70
     0
 62
     7
  6
CONTINUOUS
  0
LAYER
  2
10
 70
     0
 62
     7
  6
CONTINUOUS
  0
LAYER
  2
11
 70
     0
 62
     7
  6
CONTINUOUS
  0
LAYER
  2
12
 70
     0
 62
     7
  6
CONTINUOUS
  0
LAYER
  2
13
 70
     0
 62
     7
  6
CONTINUOUS
  0
LAYER
  2
14
 70
     0
 62
     7
  6
CONTINUOUS
  0
LAYER
  2
15
 70
     0
 62
     7
  6
CONTINUOUS
  0
LAYER
  2
16
 70
     0
 62
     7
  6
CONTINUOUS
  0
LAYER
  2
17
 70
     0
 62
     7
  6
CONTINUOUS
  0
LAYER
  2
18
 70
     0
 62
     7
  6
CONTINUOUS
  0
LAYER
  2
19
 70
     0
 62
     7
  6
CONTINUOUS
  0
LAYER
  2
20
 70
     0
 62
     7
  6
CONTINUOUS
  0
LAYER
  2
21
 70
     0
 62
     7
  6
CONTINUOUS
  0
LAYER
  2
22
 70
     0
 62
     7
  6
CONTINUOUS
  0
LAYER
  2
23
 70
     0
 62
     7
  6
CONTINUOUS
  0
LAYER
  2
24
 70
     0
 62
     7
  6
CONTINUOUS
  0
LAYER
  2
25
 70
     0
 62
     7
  6
CONTINUOUS
  0
LAYER
  2
26
 70
     0
 62
     7
  6
CONTINUOUS
  0
LAYER
  2
27
 70
     0
 62
     7
  6
CONTINUOUS
  0
LAYER
  2
28
 70
     0
 62
     7
  6
CONTINUOUS
  0
LAYER
  2
29
 70
     0
 62
     7
  6
CONTINUOUS
  0
LAYER
  2
30
 70
     0
 62
     7
  6
CONTINUOUS
  0
LAYER
  2
31
 70
     0
 62
     7
  6
CONTINUOUS
  0
LAYER
  2
32
 70
     0
 62
     7
  6
CONTINUOUS
  0
LAYER
  2
33
 70
     0
 62
     7
  6
CONTINUOUS
  0
LAYER
  2
34
 70
     0
 62
     7
  6
CONTINUOUS
  0
LAYER
  2
35
 70
     0
 62
     7
  6
CONTINUOUS
  0
LAYER
  2
36
 70
     0
 62
     7
  6
CONTINUOUS
  0
LAYER
  2
37
 70
     0
 62
     7
  6
CONTINUOUS
  0
LAYER
  2
38
 70
     0
 62
     7
  6
CONTINUOUS
  0
LAYER
  2
39
 70
     0
 62
     7
  6
CONTINUOUS
  0
LAYER
  2
40
 70
     0
 62
     7
  6
CONTINUOUS
  0
LAYER
  2
41
 70
     0
 62
     7
  6
CONTINUOUS
  0
LAYER
  2
42
 70
     0
 62
     7
  6
CONTINUOUS
  0
LAYER
  2
43
 70
     0
 62
     7
  6
CONTINUOUS
  0
LAYER
  2
44
 70
     0
 62
     7
  6
CONTINUOUS
  0
LAYER
  2
45
 70
     0
 62
     7
  6
CONTINUOUS
  0
LAYER
  2
46
 70
     0
 62
     7
  6
CONTINUOUS
  0
LAYER
  2
47
 70
     0
 62
     7
  6
CONTINUOUS
  0
LAYER
  2
48
 70
     0
 62
     7
  6
CONTINUOUS
  0
LAYER
  2
49
 70
     0
 62
     7
  6
CONTINUOUS
  0
LAYER
  2
50
 70
     0
 62
     7
  6
CONTINUOUS
  0
ENDTAB
  0
TABLE
  2
STYLE
 70
     1
  0
STYLE
  2
STANDARD
 70
     0
 40
0.0
 41
1.0
 50
0.0
 71
     0
 42
2.0
  3
txt
  4

  0
ENDTAB
  0
TABLE
  2
VIEW
 70
     0
  0
ENDTAB
  0
TABLE
  2
UCS
 70
     0
  0
ENDTAB
  0
TABLE
  2
APPID
 70
     1
  0
APPID
  2
ACAD
 70
     0
  0
ENDTAB
  0
TABLE
  2
DIMSTYLE
 70
     6
  0
DIMSTYLE
  2
ISO-25
 70
     0
  3

  4

  5

  6

  7

 40
1.0
 41
2.5
 42
0.625
 43
3.75
 44
1.25
 45
0.0
 46
0.0
 47
0.0
 48
0.0
140
2.5
141
2.5
142
0.0
143
0.0393700787
144
1.0
145
0.0
146
1.0
147
0.625
 71
     0
 72
     0
 73
     0
 74
     0
 75
     0
 76
     0
 77
     1
 78
     8
170
     0
171
     3
172
     1
173
     0
174
     0
175
     0
176
     0
177
     0
178
     0
  0
DIMSTYLE
  2
SLDDIMSTYLE0
 70
     0
  3
<>
  4

  5

  6
NONE
  7
CLOSED
 40
1.0
 41
2.0
 42
0.0625
 43
0.38
 44
0.0
 45
0.000000001
 46
0.0
 47
0.0
 48
0.0
140
2.0
141
0.0
142
0.0
143
25.4
144
1.0
145
0.0
146
1.0
147
0.5
 71
     0
 72
     0
 73
     1
 74
     1
 75
     0
 76
     0
 77
     0
 78
    12
170
     0
171
     2
172
     1
173
     1
174
     0
175
     0
176
     0
177
     0
178
     0
  0
DIMSTYLE
  2
SLDDIMSTYLE1
 70
     0
  3

  4

  5

  6
CLOSED
  7
CLOSED
 40
1.0
 41
2.0
 42
0.0625
 43
0.38
 44
0.0
 45
0.000000001
 46
0.0
 47
0.0
 48
0.0
140
2.0
141
0.09
142
0.0
143
0.0393700787
144
1.0
145
0.0
146
1.0
147
0.5
 71
     0
 72
     0
 73
     0
 74
     0
 75
     0
 76
     0
 77
     1
 78
    12
170
     1
171
     2
172
     0
173
     1
174
     0
175
     0
176
     0
177
     0
178
     0
  0
DIMSTYLE
  2
SLDDIMSTYLE2
 70
     0
  3

  4

  5

  6
CLOSED
  7
CLOSED
 40
1.0
 41
2.0
 42
0.0625
 43
0.38
 44
0.0
 45
0.000000001
 46
0.0
 47
0.3
 48
0.2
140
2.0
141
0.09
142
0.0
143
0.0393700787
144
1.0
145
0.0
146
1.0
147
0.5
 71
     1
 72
     0
 73
     0
 74
     0
 75
     0
 76
     0
 77
     1
 78
    12
170
     1
171
     4
172
     0
173
     1
174
     0
175
     0
176
     0
177
     0
178
     0
  0
DIMSTYLE
  2
SLDDIMSTYLE3
 70
     0
  3

  4

  5

  6
CLOSED
  7
CLOSED
 40
1.0
 41
2.0
 42
0.0625
 43
0.38
 44
0.0
 45
0.000000001
 46
0.0
 47
0.3
 48
0.2
140
2.0
141
0.09
142
0.0
143
0.0393700787
144
1.0
145
0.0
146
1.0
147
0.5
 71
     1
 72
     0
 73
     0
 74
     0
 75
     0
 76
     0
 77
     1
 78
    12
170
     1
171
     3
172
     0
173
     1
174
     0
175
     0
176
     0
177
     0
178
     0
  0
DIMSTYLE
  2
SLDDIMSTYLE4
 70
     0
  3

  4

  5

  6
CLOSED
  7
CLOSED
 40
1.0
 41
2.0
 42
0.0625
 43
0.38
 44
0.0
 45
0.000000001
 46
0.0
 47
0.0
 48
0.0
140
2.0
141
0.0
142
0.0
143
0.0393700787
144
1.0
145
0.0
146
1.0
147
0.5
 71
     0
 72
     0
 73
     0
 74
     0
 75
     0
 76
     0
 77
     1
 78
    12
170
     1
171
     2
172
     0
173
     1
174
     0
175
     0
176
     0
177
     0
178
     0
  0
ENDTAB
  0
ENDSEC
  0
SECTION
  2
BLOCKS
  0
BLOCK
  8
0
  2
$MODEL_SPACE
 70
     0
 10
0.0
 20
0.0
 30
0.0
  3
$MODEL_SPACE
  1

  0
ENDBLK
  5
21
  8
0
  0
BLOCK
 67
     1
  8
0
  2
$PAPER_SPACE
 70
     0
 10
0.0
 20
0.0
 30
0.0
  3
$PAPER_SPACE
  1

  0
ENDBLK
  5
1D
 67
     1
  8
0
  0
BLOCK
  8
0
  2
SW_NOTE_0
 70
     0
 10
0.0
 20
0.0
 30
0.0
  3
SW_NOTE_0
  1

  0
TEXT
  5
AA
  8
LEVEL0
 62
     0
 10
0.0
 20
1.6423252458
 30
0.0
 40
3.175
  1
CUTOUT TEMPLATE FOR PALLADIOM US 2GANG 
 41
0.6461538462
 11
0.0
 21
0.0
 31
0.0
 73
     1
  0
TEXT
  5
AB
  8
LEVEL0
 62
     0
 10
96.4788421988
 20
1.6423252458
 30
0.0
 40
3.175
  1
MATTE (PLASTIC)
 41
0.7
 11
96.4788421988
 21
0.0
 31
0.0
 73
     1
  0
TEXT
  5
AC
  8
LEVEL0
 62
     0
 10
129.3988823891
 20
1.6423252458
 30
0.0
 40
3.175
  1
 FACEPLATE ONLY:
 41
0.65625
 11
129.3988823891
 21
0.0
 31
0.0
 73
     1
  0
ENDBLK
  5
A9
  8
0
  0
BLOCK
  8
0
  2
_NONE
 70
     0
 10
0.0
 20
0.0
 30
0.0
  3
_NONE
  1

  0
ENDBLK
  5
C2
  8
0
  0
BLOCK
  8
0
  2
_CLOSED
 70
     0
 10
0.0
 20
0.0
 30
0.0
  3
_CLOSED
  1

  0
LINE
  5
C6
  8
0
  6
BYBLOCK
 62
     0
 10
-1.0
 20
0.166667
 30
0.0
 11
0.0
 21
0.0
 31
0.0
  0
LINE
  5
C7
  8
0
  6
BYBLOCK
 62
     0
 10
0.0
 20
0.0
 30
0.0
 11
-1.0
 21
-0.166667
 31
0.0
  0
LINE
  5
C8
  8
0
  6
BYBLOCK
 62
     0
 10
-1.0
 20
0.166667
 30
0.0
 11
-1.0
 21
-0.166667
 31
0.0
  0
LINE
  5
C9
  8
0
  6
BYBLOCK
 62
     0
 10
0.0
 20
0.0
 30
0.0
 11
-1.0
 21
0.0
 31
0.0
  0
ENDBLK
  5
C5
  8
0
  0
BLOCK
  8
0
  2
_D
 70
     0
 10
0.0
 20
0.0
 30
0.0
  3
_D
  1

  0
INSERT
  5
CD
  8
LEVEL0
  2
_CLOSED
 10
187.3729293982
 20
224.5161412042
 30
10.05
 41
2.0
 42
2.0
 50
317.8166458061
  0
LINE
  5
CE
  8
LEVEL0
 10
187.3729293982
 20
224.5161412042
 30
0.0
 11
171.8010729393
 21
238.6275970246
 31
0.0
  0
LINE
  5
CF
  8
LEVEL0
 10
187.7434292562
 20
224.1803885345
 30
0.0
 11
187.3729293982
 21
224.5161412042
 31
0.0
  0
LINE
  5
D0
  8
LEVEL0
 10
171.8010729393
 20
238.6275970246
 30
0.0
 11
133.0246816179
 21
238.6275970246
 31
0.0
  0
TEXT
  5
D1
  8
LEVEL0
 10
133.0246816179
 20
239.6621326125
 30
10.05
 40
2.0
  1
(X4) MARK SCREW POSITIONS
 41
0.658
 11
133.0246816179
 21
238.6275970246
 31
10.05
 73
     1
  0
ENDBLK
  5
CC
  8
0
  0
BLOCK
  8
0
  2
_D_1
 70
     0
 10
0.0
 20
0.0
 30
0.0
  3
_D_1
  1

  0
INSERT
  5
D7
  8
LEVEL0
  2
_CLOSED
 10
46.0581793272
 20
51.8358296788
 30
10.05
 41
2.0
 42
2.0
 50
180.0
  0
INSERT
  5
D8
  8
LEVEL0
  2
_CLOSED
 10
187.5581793272
 20
51.8358296788
 30
10.05
 41
2.0
 42
2.0
 50
0.0
  0
LINE
  5
D9
  8
LEVEL0
 10
112.9681928598
 20
58.0031907259
 30
0.0
 11
112.3588178472
 21
58.0031907259
 31
0.0
  0
LINE
  5
DA
  8
LEVEL0
 10
112.3588178472
 20
58.0031907259
 30
0.0
 11
112.3588178472
 21
54.8281907643
 31
0.0
  0
LINE
  5
DB
  8
LEVEL0
 10
112.3588178472
 20
54.8281907643
 30
0.0
 11
112.9681928598
 21
54.8281907643
 31
0.0
  0
LINE
  5
DC
  8
LEVEL0
 10
118.1404147812
 20
58.0031907259
 30
0.0
 11
118.7497897938
 21
58.0031907259
 31
0.0
  0
LINE
  5
DD
  8
LEVEL0
 10
118.7497897938
 20
58.0031907259
 30
0.0
 11
118.7497897938
 21
54.8281907643
 31
0.0
  0
LINE
  5
DE
  8
LEVEL0
 10
118.7497897938
 20
54.8281907643
 30
0.0
 11
118.1404147812
 21
54.8281907643
 31
0.0
  0
LINE
  5
DF
  8
LEVEL0
 10
46.0581793272
 20
81.0982648693
 30
0.0
 11
46.0581793272
 21
50.8358296788
 31
0.0
  0
LINE
  5
E0
  8
LEVEL0
 10
187.5581793272
 20
81.0982648693
 30
0.0
 11
187.5581793272
 21
50.8358296788
 31
0.0
  0
LINE
  5
E1
  8
LEVEL0
 10
46.0581793272
 20
51.8358296788
 30
0.0
 11
187.5581793272
 21
51.8358296788
 31
0.0
  0
TEXT
  5
E2
  8
LEVEL0
 10
110.2716651096
 20
52.9009207962
 30
10.05
 40
2.0
  1
  
 41
0.7
 11
110.2716651096
 21
51.8663852083
 31
10.05
 73
     1
  0
TEXT
  5
E3
  8
LEVEL0
 10
112.9681928598
 20
55.8627263522
 30
10.05
 40
2.0
  1
5.57
 41
0.7
 11
112.9681928598
 21
54.8281907643
 31
10.05
 73
     1
  0
TEXT
  5
E4
  8
LEVEL0
 10
112.2293039973
 20
52.8703650339
 30
10.05
 40
2.0
  1
141.5
 41
0.7
 11
112.2293039973
 21
51.835829446
 31
10.05
 73
     1
  0
TEXT
  5
E5
  8
LEVEL0
 10
119.359165272
 20
52.9009207962
 30
10.05
 40
2.0
  1
  
 41
0.7
 11
119.359165272
 21
51.8663852083
 31
10.05
 73
     1
  0
ENDBLK
  5
D6
  8
0
  0
BLOCK
  8
0
  2
_D_2
 70
     0
 10
0.0
 20
0.0
 30
0.0
  3
_D_2
  1

  0
INSERT
  5
EA
  8
LEVEL0
  2
_CLOSED
 10
29.9795214104
 20
84.8482648693
 30
10.05
 41
2.0
 42
2.0
 50
270.0
  0
INSERT
  5
EB
  8
LEVEL0
  2
_CLOSED
 10
29.9795214104
 20
224.3482648693
 30
10.05
 41
2.0
 42
2.0
 50
90.0
  0
LINE
  5
EC
  8
LEVEL0
 10
23.8121603633
 20
151.3342081788
 30
0.0
 11
23.8121603633
 21
150.7248331662
 31
0.0
  0
LINE
  5
ED
  8
LEVEL0
 10
23.8121603633
 20
150.7248331662
 30
0.0
 11
26.9871603249
 21
150.7248331662
 31
0.0
  0
LINE
  5
EE
  8
LEVEL0
 10
26.9871603249
 20
150.7248331662
 30
0.0
 11
26.9871603249
 21
151.3342081788
 31
0.0
  0
LINE
  5
EF
  8
LEVEL0
 10
23.8121603633
 20
156.5064301002
 30
0.0
 11
23.8121603633
 21
157.1158051127
 31
0.0
  0
LINE
  5
F0
  8
LEVEL0
 10
23.8121603633
 20
157.1158051127
 30
0.0
 11
26.9871603249
 21
157.1158051127
 31
0.0
  0
LINE
  5
F1
  8
LEVEL0
 10
26.9871603249
 20
157.1158051127
 30
0.0
 11
26.9871603249
 21
156.5064301002
 31
0.0
  0
LINE
  5
F2
  8
LEVEL0
 10
42.3081793272
 20
84.8482648693
 30
0.0
 11
28.9795214104
 21
84.8482648693
 31
0.0
  0
LINE
  5
F3
  8
LEVEL0
 10
42.3081793272
 20
224.3482648693
 30
0.0
 11
28.9795214104
 21
224.3482648693
 31
0.0
  0
LINE
  5
F4
  8
LEVEL0
 10
29.9795214104
 20
84.8482648693
 30
0.0
 11
29.9795214104
 21
224.3482648693
 31
0.0
  0
TEXT
  5
F5
  8
LEVEL0
 10
28.914430293
 20
148.6376804286
 30
10.05
 40
2.0
  1
  
 50
90.0
 41
0.7
 11
29.9489658809
 21
148.6376804286
 31
10.05
 73
     1
  0
TEXT
  5
F6
  8
LEVEL0
 10
25.952624737
 20
151.3342081788
 30
10.05
 40
2.0
  1
5.49
 50
90.0
 41
0.7
 11
26.9871603249
 21
151.3342081788
 31
10.05
 73
     1
  0
TEXT
  5
F7
  8
LEVEL0
 10
28.9449860553
 20
150.5953193162
 30
10.05
 40
2.0
  1
139.5
 50
90.0
 41
0.7
 11
29.9795216432
 21
150.5953193162
 31
10.05
 73
     1
  0
TEXT
  5
F8
  8
LEVEL0
 10
28.914430293
 20
157.725180591
 30
10.05
 40
2.0
  1
  
 50
90.0
 41
0.7
 11
29.9489658809
 21
157.725180591
 31
10.05
 73
     1
  0
ENDBLK
  5
E9
  8
0
  0
BLOCK
  8
0
  2
_D_3
 70
     0
 10
0.0
 20
0.0
 30
0.0
  3
_D_3
  1

  0
INSERT
  5
FE
  8
LEVEL0
  2
_CLOSED
 10
46.5102634564
 20
214.4482648693
 30
10.05
 41
2.0
 42
2.0
 50
90.0
  0
INSERT
  5
FF
  8
LEVEL0
  2
_CLOSED
 10
46.5102634564
 20
94.7482648693
 30
10.05
 41
2.0
 42
2.0
 50
270.0
  0
LINE
  5
100
  8
LEVEL0
 10
35.7595687903
 20
144.6147637661
 30
0.0
 11
35.7595687903
 21
144.0053887535
 31
0.0
  0
LINE
  5
101
  8
LEVEL0
 10
35.7595687903
 20
144.0053887535
 30
0.0
 11
40.9317911774
 21
144.0053887535
 31
0.0
  0
LINE
  5
102
  8
LEVEL0
 10
40.9317911774
 20
144.0053887535
 30
0.0
 11
40.9317911774
 21
144.6147637661
 31
0.0
  0
LINE
  5
103
  8
LEVEL0
 10
35.7595687903
 20
163.2258745129
 30
0.0
 11
35.7595687903
 21
163.8352495255
 31
0.0
  0
LINE
  5
104
  8
LEVEL0
 10
35.7595687903
 20
163.8352495255
 30
0.0
 11
40.9317911774
 21
163.8352495255
 31
0.0
  0
LINE
  5
105
  8
LEVEL0
 10
40.9317911774
 20
163.8352495255
 30
0.0
 11
40.9317911774
 21
163.2258745129
 31
0.0
  0
LINE
  5
106
  8
LEVEL0
 10
56.3581793272
 20
214.4482648693
 30
0.0
 11
45.5102634564
 21
214.4482648693
 31
0.0
  0
LINE
  5
107
  8
LEVEL0
 10
56.3581793272
 20
94.7482648693
 30
0.0
 11
45.5102634564
 21
94.7482648693
 31
0.0
  0
LINE
  5
108
  8
LEVEL0
 10
46.5102634564
 20
214.4482648693
 30
0.0
 11
46.5102634564
 21
94.7482648693
 31
0.0
  0
TEXT
  5
109
  8
LEVEL0
 10
45.445172339
 20
141.9182360158
 30
10.05
 40
2.0
  1
  
 50
90.0
 41
0.7
 11
46.4797079269
 21
141.9182360158
 31
10.05
 73
     1
  0
TEXT
  5
10A
  8
LEVEL0
 10
39.86670006
 20
144.6147637661
 30
10.05
 40
2.0
  1
4.7126
 50
90.0
 41
0.7
 11
40.9012356479
 21
144.6147637661
 31
10.05
 73
     1
  0
TEXT
  5
10B
  8
LEVEL0
 10
39.86670006
 20
152.7425416033
 30
10.05
 40
2.0
  1
 
 50
90.0
 41
0.7
 11
40.9012356479
 21
152.7425416033
 31
10.05
 73
     1
  0
TEXT
  5
10C
  8
LEVEL0
 10
37.311144396
 20
153.4814296509
 30
10.05
 40
2.0
  1
+
 50
90.0
 41
0.7
 11
38.3456799838
 21
153.4814296509
 31
10.05
 73
     1
  0
TEXT
  5
10D
  8
LEVEL0
 10
39.8972555895
 20
153.8467074323
 30
10.05
 40
2.0
  1
-
 50
90.0
 41
0.7
 11
40.9317911774
 21
153.8467074323
 31
10.05
 73
     1
  0
TEXT
  5
10E
  8
LEVEL0
 10
37.311144396
 20
155.0980966757
 30
10.05
 40
2.0
  1
0.0118
 50
90.0
 41
0.7
 11
38.3456799838
 21
155.0980966757
 31
10.05
 73
     1
  0
TEXT
  5
10F
  8
LEVEL0
 10
39.8972555895
 20
155.0980966757
 30
10.05
 40
2.0
  1
0.0079
 50
90.0
 41
0.7
 11
40.9317911774
 21
155.0980966757
 31
10.05
 73
     1
  0
TEXT
  5
110
  8
LEVEL0
 10
45.4757283342
 20
147.5703193326
 30
10.05
 40
2.0
  1
119.7
 50
90.0
 41
0.7
 11
46.510263922
 21
147.5703193326
 31
10.05
 73
     1
  0
TEXT
  5
111
  8
LEVEL0
 10
45.4757283342
 20
154.2203192119
 30
10.05
 40
2.0
  1
 
 50
90.0
 41
0.7
 11
46.510263922
 21
154.2203192119
 31
10.05
 73
     1
  0
TEXT
  5
112
  8
LEVEL0
 10
42.8896171406
 20
154.9592081909
 30
10.05
 40
2.0
  1
+
 50
90.0
 41
0.7
 11
43.9241527285
 21
154.9592081909
 31
10.05
 73
     1
  0
TEXT
  5
113
  8
LEVEL0
 10
45.4757283342
 20
155.3244859723
 30
10.05
 40
2.0
  1
-
 50
90.0
 41
0.7
 11
46.510263922
 21
155.3244859723
 31
10.05
 73
     1
  0
TEXT
  5
114
  8
LEVEL0
 10
42.8896171406
 20
156.5758742844
 30
10.05
 40
2.0
  1
0.3
 50
90.0
 41
0.7
 11
43.9241527285
 21
156.5758742844
 31
10.05
 73
     1
  0
TEXT
  5
115
  8
LEVEL0
 10
45.4757283342
 20
156.5758742844
 30
10.05
 40
2.0
  1
0.2
 50
90.0
 41
0.7
 11
46.510263922
 21
156.5758742844
 31
10.05
 73
     1
  0
TEXT
  5
116
  8
LEVEL0
 10
45.445172339
 20
164.4446250037
 30
10.05
 40
2.0
  1
  
 50
90.0
 41
0.7
 11
46.4797079269
 21
164.4446250037
 31
10.05
 73
     1
  0
ENDBLK
  5
FD
  8
0
  0
BLOCK
  8
0
  2
_D_4
 70
     0
 10
0.0
 20
0.0
 30
0.0
  3
_D_4
  1

  0
INSERT
  5
11C
  8
LEVEL0
  2
_CLOSED
 10
55.9581793272
 20
62.519133543
 30
10.05
 41
2.0
 42
2.0
 50
180.0
  0
INSERT
  5
11D
  8
LEVEL0
  2
_CLOSED
 10
177.6581793272
 20
62.519133543
 30
10.05
 41
2.0
 42
2.0
 50
0.0
  0
LINE
  5
11E
  8
LEVEL0
 10
107.726526405
 20
73.2698282091
 30
0.0
 11
107.1171513924
 21
73.2698282091
 31
0.0
  0
LINE
  5
11F
  8
LEVEL0
 10
107.1171513924
 20
73.2698282091
 30
0.0
 11
107.1171513924
 21
68.097605822
 31
0.0
  0
LINE
  5
120
  8
LEVEL0
 10
107.1171513924
 20
68.097605822
 30
0.0
 11
107.726526405
 21
68.097605822
 31
0.0
  0
LINE
  5
121
  8
LEVEL0
 10
123.382081236
 20
73.2698282091
 30
0.0
 11
123.9914562486
 21
73.2698282091
 31
0.0
  0
LINE
  5
122
  8
LEVEL0
 10
123.9914562486
 20
73.2698282091
 30
0.0
 11
123.9914562486
 21
68.097605822
 31
0.0
  0
LINE
  5
123
  8
LEVEL0
 10
123.9914562486
 20
68.097605822
 30
0.0
 11
123.382081236
 21
68.097605822
 31
0.0
  0
LINE
  5
124
  8
LEVEL0
 10
55.9581793272
 20
95.1482648693
 30
0.0
 11
55.9581793272
 21
61.519133543
 31
0.0
  0
LINE
  5
125
  8
LEVEL0
 10
177.6581793272
 20
95.1482648693
 30
0.0
 11
177.6581793272
 21
61.519133543
 31
0.0
  0
LINE
  5
126
  8
LEVEL0
 10
55.9581793272
 20
62.519133543
 30
0.0
 11
177.6581793272
 21
62.519133543
 31
0.0
  0
TEXT
  5
127
  8
LEVEL0
 10
105.0299986548
 20
63.5842246604
 30
10.05
 40
2.0
  1
  
 41
0.7
 11
105.0299986548
 21
62.5496890725
 31
10.05
 73
     1
  0
TEXT
  5
128
  8
LEVEL0
 10
107.726526405
 20
69.1626969394
 30
10.05
 40
2.0
  1
4.791
 41
0.7
 11
107.726526405
 21
68.1281613515
 31
10.05
 73
     1
  0
TEXT
  5
129
  8
LEVEL0
 10
114.3765262843
 20
69.1626969394
 30
10.05
 40
2.0
  1
 
 41
0.7
 11
114.3765262843
 21
68.1281613515
 31
10.05
 73
     1
  0
TEXT
  5
12A
  8
LEVEL0
 10
115.1154152632
 20
71.7182526034
 30
10.05
 40
2.0
  1
+
 41
0.7
 11
115.1154152632
 21
70.6837170156
 31
10.05
 73
     1
  0
TEXT
  5
12B
  8
LEVEL0
 10
115.4806930446
 20
69.1321414099
 30
10.05
 40
2.0
  1
-
 41
0.7
 11
115.4806930446
 21
68.097605822
 31
10.05
 73
     1
  0
TEXT
  5
12C
  8
LEVEL0
 10
116.7320813567
 20
71.7182526034
 30
10.05
 40
2.0
  1
0.012
 41
0.7
 11
116.7320813567
 21
70.6837170156
 31
10.05
 73
     1
  0
TEXT
  5
12D
  8
LEVEL0
 10
116.7320813567
 20
69.1321414099
 30
10.05
 40
2.0
  1
0.008
 41
0.7
 11
116.7320813567
 21
68.097605822
 31
10.05
 73
     1
  0
TEXT
  5
12E
  8
LEVEL0
 10
109.2043040137
 20
63.5536686652
 30
10.05
 40
2.0
  1
121.7
 41
0.7
 11
109.2043040137
 21
62.5191330774
 31
10.05
 73
     1
  0
TEXT
  5
12F
  8
LEVEL0
 10
115.854303893
 20
63.5536686652
 30
10.05
 40
2.0
  1
 
 41
0.7
 11
115.854303893
 21
62.5191330774
 31
10.05
 73
     1
  0
TEXT
  5
130
  8
LEVEL0
 10
116.5931928719
 20
66.1397798588
 30
10.05
 40
2.0
  1
+
 41
0.7
 11
116.5931928719
 21
65.1052442709
 31
10.05
 73
     1
  0
TEXT
  5
131
  8
LEVEL0
 10
116.9584706533
 20
63.5536686652
 30
10.05
 40
2.0
  1
-
 41
0.7
 11
116.9584706533
 21
62.5191330774
 31
10.05
 73
     1
  0
TEXT
  5
132
  8
LEVEL0
 10
118.2098589654
 20
66.1397798588
 30
10.05
 40
2.0
  1
0.3
 41
0.7
 11
118.2098589654
 21
65.1052442709
 31
10.05
 73
     1
  0
TEXT
  5
133
  8
LEVEL0
 10
118.2098589654
 20
63.5536686652
 30
10.05
 40
2.0
  1
0.2
 41
0.7
 11
118.2098589654
 21
62.5191330774
 31
10.05
 73
     1
  0
TEXT
  5
134
  8
LEVEL0
 10
124.6008317268
 20
63.5842246604
 30
10.05
 40
2.0
  1
  
 41
0.7
 11
124.6008317268
 21
62.5496890725
 31
10.05
 73
     1
  0
ENDBLK
  5
11B
  8
0
  0
BLOCK
  8
0
  2
_D_5
 70
     0
 10
0.0
 20
0.0
 30
0.0
  3
_D_5
  1

  0
INSERT
  5
13A
  8
LEVEL0
  2
_CLOSED
 10
177.3184771685
 20
95.2340611241
 30
10.05
 41
2.0
 42
2.0
 50
319.3136834639
  0
LINE
  5
13B
  8
LEVEL0
 10
161.8319423589
 20
116.6790868277
 30
0.0
 11
161.3704287801
 21
117.0770103411
 31
0.0
  0
LINE
  5
13C
  8
LEVEL0
 10
161.3704287801
 20
117.0770103411
 30
0.0
 11
159.2971453115
 21
114.6724063373
 31
0.0
  0
LINE
  5
13D
  8
LEVEL0
 10
159.2971453115
 20
114.6724063373
 30
0.0
 11
159.7586588903
 21
114.2744828239
 31
0.0
  0
LINE
  5
13E
  8
LEVEL0
 10
166.8683570135
 20
112.3366191166
 30
0.0
 11
167.3298705923
 21
111.9386956032
 31
0.0
  0
LINE
  5
13F
  8
LEVEL0
 10
167.3298705923
 20
111.9386956032
 30
0.0
 11
165.2565871236
 21
109.5340915994
 31
0.0
  0
LINE
  5
140
  8
LEVEL0
 10
165.2565871236
 20
109.5340915994
 30
0.0
 11
164.7950735448
 21
109.9320151128
 31
0.0
  0
LINE
  5
141
  8
LEVEL0
 10
177.3184771685
 20
95.2340611241
 30
0.0
 11
156.8816119387
 21
112.8040484227
 31
0.0
  0
TEXT
  5
142
  8
LEVEL0
 10
160.4342133967
 20
115.0579941457
 30
10.05
 40
2.0
  1
0.055
 50
-40.7683751498
 41
0.7
 11
159.7586588903
 21
114.2744828239
 31
10.05
 73
     1
  0
TEXT
  5
143
  8
LEVEL0
 10
158.9861490211
 20
112.3554705164
 30
10.05
 40
2.0
  1
R1.4
 50
-40.7683751498
 41
0.7
 11
158.3105945146
 21
111.5719591946
 31
10.05
 73
     1
  0
ENDBLK
  5
139
  8
0
  0
BLOCK
  8
0
  2
_D_6
 70
     0
 10
0.0
 20
0.0
 30
0.0
  3
_D_6
  1

  0
INSERT
  5
148
  8
LEVEL0
  2
_CLOSED
 10
46.0581793272
 20
62.519133543
 30
10.05
 41
2.0
 42
2.0
 50
180.0
  0
INSERT
  5
149
  8
LEVEL0
  2
_CLOSED
 10
55.9581793272
 20
62.519133543
 30
10.05
 41
2.0
 42
2.0
 50
0.0
  0
LINE
  5
14A
  8
LEVEL0
 10
31.5963977473
 20
68.6864945901
 30
0.0
 11
30.9870227347
 21
68.6864945901
 31
0.0
  0
LINE
  5
14B
  8
LEVEL0
 10
30.9870227347
 20
68.6864945901
 30
0.0
 11
30.9870227347
 21
65.5114946285
 31
0.0
  0
LINE
  5
14C
  8
LEVEL0
 10
30.9870227347
 20
65.5114946285
 30
0.0
 11
31.5963977473
 21
65.5114946285
 31
0.0
  0
LINE
  5
14D
  8
LEVEL0
 10
36.7686196686
 20
68.6864945901
 30
0.0
 11
37.3779946812
 21
68.6864945901
 31
0.0
  0
LINE
  5
14E
  8
LEVEL0
 10
37.3779946812
 20
68.6864945901
 30
0.0
 11
37.3779946812
 21
65.5114946285
 31
0.0
  0
LINE
  5
14F
  8
LEVEL0
 10
37.3779946812
 20
65.5114946285
 30
0.0
 11
36.7686196686
 21
65.5114946285
 31
0.0
  0
LINE
  5
150
  8
LEVEL0
 10
46.0581793272
 20
81.0982648693
 30
0.0
 11
46.0581793272
 21
61.519133543
 31
0.0
  0
LINE
  5
151
  8
LEVEL0
 10
55.9581793272
 20
95.1482648693
 30
0.0
 11
55.9581793272
 21
61.519133543
 31
0.0
  0
LINE
  5
152
  8
LEVEL0
 10
46.0581793272
 20
62.519133543
 30
0.0
 11
28.899869997
 21
62.519133543
 31
0.0
  0
LINE
  5
153
  8
LEVEL0
 10
46.0581793272
 20
62.519133543
 30
0.0
 11
55.9581793272
 21
62.519133543
 31
0.0
  0
TEXT
  5
154
  8
LEVEL0
 10
28.899869997
 20
63.5842246604
 30
10.05
 40
2.0
  1
  
 50
360.0
 41
0.7
 11
28.899869997
 21
62.5496890725
 31
10.05
 73
     1
  0
TEXT
  5
155
  8
LEVEL0
 10
31.5963977473
 20
66.5460302164
 30
10.05
 40
2.0
  1
0.39
 50
360.0
 41
0.7
 11
31.5963977473
 21
65.5114946285
 31
10.05
 73
     1
  0
TEXT
  5
156
  8
LEVEL0
 10
32.3352867262
 20
63.5536688981
 30
10.05
 40
2.0
  1
9.9
 50
360.0
 41
0.7
 11
32.3352867262
 21
62.5191333102
 31
10.05
 73
     1
  0
TEXT
  5
157
  8
LEVEL0
 10
37.9873701595
 20
63.5842246604
 30
10.05
 40
2.0
  1
  
 50
360.0
 41
0.7
 11
37.9873701595
 21
62.5496890725
 31
10.05
 73
     1
  0
ENDBLK
  5
147
  8
0
  0
BLOCK
  8
0
  2
_D_7
 70
     0
 10
0.0
 20
0.0
 30
0.0
  3
_D_7
  1

  0
INSERT
  5
15C
  8
LEVEL0
  2
_CLOSED
 10
35.8252400231
 20
84.8482648693
 30
10.05
 41
2.0
 42
2.0
 50
270.0
  0
INSERT
  5
15D
  8
LEVEL0
  2
_CLOSED
 10
35.8252400231
 20
94.7482648693
 30
10.05
 41
2.0
 42
2.0
 50
90.0
  0
LINE
  5
15E
  8
LEVEL0
 10
29.657878976
 20
74.822377372
 30
0.0
 11
29.657878976
 21
74.2130023594
 31
0.0
  0
LINE
  5
15F
  8
LEVEL0
 10
29.657878976
 20
74.2130023594
 30
0.0
 11
32.8328789376
 21
74.2130023594
 31
0.0
  0
LINE
  5
160
  8
LEVEL0
 10
32.8328789376
 20
74.2130023594
 30
0.0
 11
32.8328789376
 21
74.822377372
 31
0.0
  0
LINE
  5
161
  8
LEVEL0
 10
29.657878976
 20
79.9945992934
 30
0.0
 11
29.657878976
 21
80.603974306
 31
0.0
  0
LINE
  5
162
  8
LEVEL0
 10
29.657878976
 20
80.603974306
 30
0.0
 11
32.8328789376
 21
80.603974306
 31
0.0
  0
LINE
  5
163
  8
LEVEL0
 10
32.8328789376
 20
80.603974306
 30
0.0
 11
32.8328789376
 21
79.9945992934
 31
0.0
  0
LINE
  5
164
  8
LEVEL0
 10
42.3081793272
 20
84.8482648693
 30
0.0
 11
34.8252400231
 21
84.8482648693
 31
0.0
  0
LINE
  5
165
  8
LEVEL0
 10
56.3581793272
 20
94.7482648693
 30
0.0
 11
34.8252400231
 21
94.7482648693
 31
0.0
  0
LINE
  5
166
  8
LEVEL0
 10
35.8252400231
 20
84.8482648693
 30
0.0
 11
35.8252400231
 21
72.1258496218
 31
0.0
  0
LINE
  5
167
  8
LEVEL0
 10
35.8252400231
 20
84.8482648693
 30
0.0
 11
35.8252400231
 21
94.7482648693
 31
0.0
  0
TEXT
  5
168
  8
LEVEL0
 10
34.7601489057
 20
72.1258496218
 30
10.05
 40
2.0
  1
  
 50
90.0
 41
0.7
 11
35.7946844936
 21
72.1258496218
 31
10.05
 73
     1
  0
TEXT
  5
169
  8
LEVEL0
 10
31.7983433497
 20
74.822377372
 30
10.05
 40
2.0
  1
0.39
 50
90.0
 41
0.7
 11
32.8328789376
 21
74.822377372
 31
10.05
 73
     1
  0
TEXT
  5
16A
  8
LEVEL0
 10
34.7907046681
 20
75.561266351
 30
10.05
 40
2.0
  1
9.9
 50
90.0
 41
0.7
 11
35.8252402559
 21
75.561266351
 31
10.05
 73
     1
  0
TEXT
  5
16B
  8
LEVEL0
 10
34.7601489057
 20
81.2133497842
 30
10.05
 40
2.0
  1
  
 50
90.0
 41
0.7
 11
35.7946844936
 21
81.2133497842
 31
10.05
 73
     1
  0
ENDBLK
  5
15B
  8
0
  0
BLOCK
  8
0
  2
SW_CENTERMARKSYMBOL_0
 70
     0
 10
0.0
 20
0.0
 30
0.0
  3
SW_CENTERMARKSYMBOL_0
  1

  0
LINE
  5
16F
  8
LEVEL0
 62
     0
 10
0.0
 20
0.0
 30
0.0
 11
0.0
 21
2.5
 31
0.0
  0
LINE
  5
170
  8
LEVEL0
 62
     0
 10
0.0
 20
0.0
 30
0.0
 11
-2.5
 21
0.0
 31
0.0
  0
LINE
  5
171
  8
LEVEL0
 62
     0
 10
0.0
 20
0.0
 30
0.0
 11
0.0
 21
-2.5
 31
0.0
  0
LINE
  5
172
  8
LEVEL0
 62
     0
 10
0.0
 20
0.0
 30
0.0
 11
2.5
 21
0.0
 31
0.0
  0
LINE
  5
173
  8
LEVEL0
 62
     0
 10
0.0
 20
2.5
 30
0.0
 11
0.0
 21
2.75
 31
0.0
  0
LINE
  5
174
  8
LEVEL0
 62
     0
 10
-2.5
 20
0.0
 30
0.0
 11
-2.75
 21
0.0
 31
0.0
  0
LINE
  5
175
  8
LEVEL0
 62
     0
 10
0.0
 20
-2.5
 30
0.0
 11
0.0
 21
-2.75
 31
0.0
  0
LINE
  5
176
  8
LEVEL0
 62
     0
 10
2.5
 20
0.0
 30
0.0
 11
2.75
 21
0.0
 31
0.0
  0
ENDBLK
  5
16E
  8
0
  0
BLOCK
  8
0
  2
SW_CENTERMARKSYMBOL_1
 70
     0
 10
0.0
 20
0.0
 30
0.0
  3
SW_CENTERMARKSYMBOL_1
  1

  0
LINE
  5
17B
  8
LEVEL0
 62
     0
 10
0.0
 20
0.0
 30
0.0
 11
0.0
 21
2.5
 31
0.0
  0
LINE
  5
17C
  8
LEVEL0
 62
     0
 10
0.0
 20
0.0
 30
0.0
 11
-2.5
 21
0.0
 31
0.0
  0
LINE
  5
17D
  8
LEVEL0
 62
     0
 10
0.0
 20
0.0
 30
0.0
 11
0.0
 21
-2.5
 31
0.0
  0
LINE
  5
17E
  8
LEVEL0
 62
     0
 10
0.0
 20
0.0
 30
0.0
 11
2.5
 21
0.0
 31
0.0
  0
LINE
  5
17F
  8
LEVEL0
 62
     0
 10
0.0
 20
2.5
 30
0.0
 11
0.0
 21
2.75
 31
0.0
  0
LINE
  5
180
  8
LEVEL0
 62
     0
 10
-2.5
 20
0.0
 30
0.0
 11
-2.75
 21
0.0
 31
0.0
  0
LINE
  5
181
  8
LEVEL0
 62
     0
 10
0.0
 20
-2.5
 30
0.0
 11
0.0
 21
-2.75
 31
0.0
  0
LINE
  5
182
  8
LEVEL0
 62
     0
 10
2.5
 20
0.0
 30
0.0
 11
2.75
 21
0.0
 31
0.0
  0
ENDBLK
  5
17A
  8
0
  0
BLOCK
  8
0
  2
SW_CENTERMARKSYMBOL_2
 70
     0
 10
0.0
 20
0.0
 30
0.0
  3
SW_CENTERMARKSYMBOL_2
  1

  0
LINE
  5
187
  8
LEVEL0
 62
     0
 10
0.0
 20
0.0
 30
0.0
 11
0.0
 21
2.5
 31
0.0
  0
LINE
  5
188
  8
LEVEL0
 62
     0
 10
0.0
 20
0.0
 30
0.0
 11
-2.5
 21
0.0
 31
0.0
  0
LINE
  5
189
  8
LEVEL0
 62
     0
 10
0.0
 20
0.0
 30
0.0
 11
0.0
 21
-2.5
 31
0.0
  0
LINE
  5
18A
  8
LEVEL0
 62
     0
 10
0.0
 20
0.0
 30
0.0
 11
2.5
 21
0.0
 31
0.0
  0
LINE
  5
18B
  8
LEVEL0
 62
     0
 10
0.0
 20
2.5
 30
0.0
 11
0.0
 21
2.75
 31
0.0
  0
LINE
  5
18C
  8
LEVEL0
 62
     0
 10
-2.5
 20
0.0
 30
0.0
 11
-2.75
 21
0.0
 31
0.0
  0
LINE
  5
18D
  8
LEVEL0
 62
     0
 10
0.0
 20
-2.5
 30
0.0
 11
0.0
 21
-2.75
 31
0.0
  0
LINE
  5
18E
  8
LEVEL0
 62
     0
 10
2.5
 20
0.0
 30
0.0
 11
2.75
 21
0.0
 31
0.0
  0
ENDBLK
  5
186
  8
0
  0
BLOCK
  8
0
  2
SW_CENTERMARKSYMBOL_3
 70
     0
 10
0.0
 20
0.0
 30
0.0
  3
SW_CENTERMARKSYMBOL_3
  1

  0
LINE
  5
193
  8
LEVEL0
 62
     0
 10
0.0
 20
0.0
 30
0.0
 11
0.0
 21
2.5
 31
0.0
  0
LINE
  5
194
  8
LEVEL0
 62
     0
 10
0.0
 20
0.0
 30
0.0
 11
-2.5
 21
0.0
 31
0.0
  0
LINE
  5
195
  8
LEVEL0
 62
     0
 10
0.0
 20
0.0
 30
0.0
 11
0.0
 21
-2.5
 31
0.0
  0
LINE
  5
196
  8
LEVEL0
 62
     0
 10
0.0
 20
0.0
 30
0.0
 11
2.5
 21
0.0
 31
0.0
  0
LINE
  5
197
  8
LEVEL0
 62
     0
 10
0.0
 20
2.5
 30
0.0
 11
0.0
 21
2.75
 31
0.0
  0
LINE
  5
198
  8
LEVEL0
 62
     0
 10
-2.5
 20
0.0
 30
0.0
 11
-2.75
 21
0.0
 31
0.0
  0
LINE
  5
199
  8
LEVEL0
 62
     0
 10
0.0
 20
-2.5
 30
0.0
 11
0.0
 21
-2.75
 31
0.0
  0
LINE
  5
19A
  8
LEVEL0
 62
     0
 10
2.5
 20
0.0
 30
0.0
 11
2.75
 21
0.0
 31
0.0
  0
ENDBLK
  5
192
  8
0
  0
ENDSEC
  0
SECTION
  2
ENTITIES
  0
INSERT
  5
AD
  8
LEVEL0
  2
SW_NOTE_0
 10
15.9526613717
 20
258.5280359162
 30
0.0
  0
ARC
  5
AE
  8
0
  6
CONTINUOUS
 62
     7
 10
176.2581793272
 20
96.1482648693
 30
0.0
 40
1.400000000000006
 50
270.0
 51
0.0
  0
LINE
  5
AF
  8
0
  6
CONTINUOUS
 62
     7
 10
177.6581774735
 20
213.0482637905
 30
0.0
 11
177.6581774735
 21
96.1482630693
 31
0.0
  0
ARC
  5
B0
  8
0
  6
CONTINUOUS
 62
     7
 10
176.2581793272
 20
213.0482648693
 30
0.0
 40
1.400000000000006
 50
0.0
 51
90.0
  0
LINE
  5
B1
  8
0
  6
CONTINUOUS
 62
     7
 10
57.3581788027
 20
214.4482651376
 30
0.0
 11
176.2581798518
 21
214.4482651376
 31
0.0
  0
ARC
  5
B2
  8
0
  6
CONTINUOUS
 62
     7
 10
57.3581793272
 20
213.0482648693
 30
0.0
 40
1.400000000000006
 50
90.0
 51
180.0
  0
LINE
  5
B3
  8
0
  6
CONTINUOUS
 62
     7
 10
55.9581811809
 20
96.1482630693
 30
0.0
 11
55.9581811809
 21
213.0482637905
 31
0.0
  0
ARC
  5
B4
  8
0
  6
CONTINUOUS
 62
     7
 10
57.3581793272
 20
96.1482648693
 30
0.0
 40
1.399999999999999
 50
180.0
 51
270.0
  0
LINE
  5
B5
  8
0
  6
CONTINUOUS
 62
     7
 10
176.2581798518
 20
94.7482654475
 30
0.0
 11
57.3581788027
 21
94.7482654475
 31
0.0
  0
CIRCLE
  5
B6
  8
0
  6
CONTINUOUS
 62
     7
 10
46.0581793272
 20
224.3482648693
 30
0.0
 40
0.25
  0
CIRCLE
  5
B7
  8
0
  6
CONTINUOUS
 62
     7
 10
187.5581793272
 20
224.3482648693
 30
0.0
 40
0.25
  0
CIRCLE
  5
B8
  8
0
  6
CONTINUOUS
 62
     7
 10
187.5581793272
 20
84.8482648693
 30
0.0
 40
0.25
  0
CIRCLE
  5
B9
  8
0
  6
CONTINUOUS
 62
     7
 10
46.0581793272
 20
84.8482648693
 30
0.0
 40
0.25
  0
LINE
  5
BA
  8
LEVEL0
 10
116.8081793272
 20
214.4232648693
 30
0.0
 11
116.8081793272
 21
236.5624831787
 31
0.0
  0
LINE
  5
BB
  8
LEVEL0
 10
116.8081793272
 20
214.4232648693
 30
0.0
 11
116.8081793272
 21
75.2487564842
 31
0.0
  0
LINE
  5
BC
  8
LEVEL0
 10
79.2031793272
 20
154.5732648693
 30
0.0
 11
184.7660243028
 21
154.5732648693
 31
0.0
  0
LINE
  5
BD
  8
LEVEL0
 10
79.2031793272
 20
154.5732648693
 30
0.0
 11
50.4222111464
 21
154.5732648693
 31
0.0
  0
DIMENSION
  5
BE
  8
LEVEL0
  2
_D
 10
187.7434292562
 20
224.1803885345
 30
0.0
 11
151.6191272786
 21
240.2150970054
 31
0.0
 70
   163
  1
(X4) MARK SCREW POSITIONS
  3
SLDDIMSTYLE0
 15
187.3729293982
 25
224.5161412042
 35
0.0
 40
0.0
  0
DIMENSION
  5
D2
  8
LEVEL0
  2
_D_1
 10
187.5581793272
 20
51.8358296788
 30
0.0
 11
115.5543041697
 21
51.8358296788
 31
0.0
 70
   160
  1
<>
  3
SLDDIMSTYLE1
 13
46.0581793272
 23
82.0982648693
 33
0.0
 14
187.5581793272
 24
82.0982648693
 34
0.0
 50
0.0
  0
DIMENSION
  5
E6
  8
LEVEL0
  2
_D_2
 10
29.9795214104
 20
224.3482648693
 30
0.0
 11
29.9795214104
 21
153.9203194887
 31
0.0
 70
   160
  1
<>
  3
SLDDIMSTYLE1
 13
43.3081793272
 23
84.8482648693
 33
0.0
 14
43.3081793272
 24
224.3482648693
 34
0.0
 50
90.0
  0
DIMENSION
  5
F9
  8
LEVEL0
  2
_D_3
 10
46.5102634564
 20
94.7482648693
 30
0.0
 11
46.5102634564
 21
153.9203194887
 31
0.0
 70
   160
  1
<>
  3
SLDDIMSTYLE2
 13
57.3581793272
 23
214.4482648693
 33
0.0
 14
57.3581793272
 24
94.7482648693
 34
0.0
 50
90.0
  0
DIMENSION
  5
117
  8
LEVEL0
  2
_D_4
 10
177.6581793272
 20
62.519133543
 30
0.0
 11
115.5543041697
 21
62.519133543
 31
0.0
 70
   160
  1
<>
  3
SLDDIMSTYLE3
 13
55.9581793272
 23
96.1482648693
 33
0.0
 14
177.6581793272
 24
96.1482648693
 34
0.0
 50
0.0
  0
DIMENSION
  5
135
  8
LEVEL0
  2
_D_5
 10
176.2581793272
 20
96.1482648693
 30
0.0
 11
160.1589973327
 21
110.0292251498
 31
0.0
 70
   164
  1
<>
  3
SLDDIMSTYLE4
 15
177.3184771685
 25
95.2340611241
 35
0.0
 40
0.0
  0
DIMENSION
  5
144
  8
LEVEL0
  2
_D_6
 10
55.9581793272
 20
62.519133543
 30
0.0
 11
34.1825090572
 21
62.519133543
 31
0.0
 70
   160
  1
<>
  3
SLDDIMSTYLE1
 13
46.0581793272
 23
82.0982648693
 33
0.0
 14
55.9581793272
 24
96.1482648693
 34
0.0
  0
DIMENSION
  5
158
  8
LEVEL0
  2
_D_7
 10
35.8252400231
 20
94.7482648693
 30
0.0
 11
35.8252400231
 21
77.408488682
 31
0.0
 70
   160
  1
<>
  3
SLDDIMSTYLE1
 13
43.3081793272
 23
84.8482648693
 33
0.0
 14
57.3581793272
 24
94.7482648693
 34
0.0
 50
90.0
  0
INSERT
  5
177
  8
LEVEL0
  2
SW_CENTERMARKSYMBOL_0
 10
46.0581793272
 20
224.3482648693
 30
0.0
  0
INSERT
  5
183
  8
LEVEL0
  2
SW_CENTERMARKSYMBOL_1
 10
187.5581793272
 20
224.3482648693
 30
0.0
  0
INSERT
  5
18F
  8
LEVEL0
  2
SW_CENTERMARKSYMBOL_2
 10
187.5581793272
 20
84.8482648693
 30
0.0
  0
INSERT
  5
19B
  8
LEVEL0
  2
SW_CENTERMARKSYMBOL_3
 10
46.0581793272
 20
84.8482648693
 30
0.0
  0
ENDSEC
  0
EOF
