  0
SECTION
  2
HEADER
  9
$ACADVER
  1
AC1009
  9
$DWGCODEPAGE
  3
ansi_1252
  9
$INSBASE
 10
0.0
 20
0.0
 30
0.0
  9
$EXTMIN
 10
0.0
 20
0.0
 30
0.0
  9
$EXTMAX
 10
210.0
 20
297.0
 30
0.0
  9
$LIMMIN
 10
0.0
 20
0.0
  9
$LIMMAX
 10
210.0
 20
297.0
  9
$ORTHOMODE
 70
     0
  9
$REGENMODE
 70
     1
  9
$FILLMODE
 70
     1
  9
$QTEXTMODE
 70
     0
  9
$MIRRTEXT
 70
     1
  9
$DRAGMODE
 70
     2
  9
$LTSCALE
 40
1.0
  9
$OSMODE
 70
    37
  9
$ATTMODE
 70
     1
  9
$TEXTSIZE
 40
2.0
  9
$TRACEWID
 40
1.0
  9
$TEXTSTYLE
  7
STANDARD
  9
$CLAYER
  8
0
  9
$CELTYPE
  6
BYLAYER
  9
$CECOLOR
 62
   256
  9
$DIMSCALE
 40
1.0
  9
$DIMASZ
 40
2.0
  9
$DIMEXO
 40
1.0
  9
$DIMDLI
 40
3.75
  9
$DIMRND
 40
0.0
  9
$DIMDLE
 40
0.0
  9
$DIMEXE
 40
1.0
  9
$DIMTP
 40
0.0
  9
$DIMTM
 40
0.0
  9
$DIMTXT
 40
2.0
  9
$DIMCEN
 40
2.5
  9
$DIMTSZ
 40
0.0
  9
$DIMTOL
 70
     0
  9
$DIMLIM
 70
     0
  9
$DIMTIH
 70
     1
  9
$DIMTOH
 70
     1
  9
$DIMSE1
 70
     0
  9
$DIMSE2
 70
     0
  9
$DIMTAD
 70
     1
  9
$DIMZIN
 70
     0
  9
$DIMBLK
  1

  9
$DIMASO
 70
     1
  9
$DIMSHO
 70
     1
  9
$DIMPOST
  1

  9
$DIMAPOST
  1

  9
$DIMALT
 70
     0
  9
$DIMALTD
 70
     3
  9
$DIMALTF
 40
0.0393700787
  9
$DIMLFAC
 40
1.0
  9
$DIMTOFL
 70
     1
  9
$DIMTVP
 40
0.0
  9
$DIMTIX
 70
     0
  9
$DIMSOXD
 70
     0
  9
$DIMSAH
 70
     0
  9
$DIMBLK1
  1

  9
$DIMBLK2
  1

  9
$DIMSTYLE
  2
ISO-25
  9
$DIMCLRD
 70
     0
  9
$DIMCLRE
 70
     0
  9
$DIMCLRT
 70
     0
  9
$DIMTFAC
 40
1.0
  9
$DIMGAP
 40
1.524
  9
$LUNITS
 70
     2
  9
$LUPREC
 70
     2
  9
$SKETCHINC
 40
1.0
  9
$FILLETRAD
 40
10.0
  9
$AUNITS
 70
     0
  9
$AUPREC
 70
     2
  9
$MENU
  1
.
  9
$ELEVATION
 40
0.0
  9
$PELEVATION
 40
0.0
  9
$THICKNESS
 40
0.0
  9
$LIMCHECK
 70
     0
  9
$CHAMFERA
 40
0.0
  9
$CHAMFERB
 40
0.0
  9
$SKPOLY
 70
     0
  9
$TDCREATE
 40
2459367.576839248
  9
$TDUPDATE
 40
2459367.57684044
  9
$TDINDWG
 40
0.0000000116
  9
$TDUSRTIMER
 40
0.0000000116
  9
$USRTIMER
 70
     1
  9
$ANGBASE
 50
0.0
  9
$ANGDIR
 70
     0
  9
$PDMODE
 70
     0
  9
$PDSIZE
 40
-1.0
  9
$PLINEWID
 40
0.0
  9
$COORDS
 70
     1
  9
$SPLFRAME
 70
     0
  9
$SPLINETYPE
 70
     6
  9
$SPLINESEGS
 70
     8
  9
$ATTDIA
 70
     0
  9
$ATTREQ
 70
     1
  9
$HANDLING
 70
     1
  9
$HANDSEED
  5
19C
  9
$SURFTAB1
 70
     6
  9
$SURFTAB2
 70
     6
  9
$SURFTYPE
 70
     6
  9
$SURFU
 70
     6
  9
$SURFV
 70
     6
  9
$UCSNAME
  2

  9
$UCSORG
 10
0.0
 20
0.0
 30
0.0
  9
$UCSXDIR
 10
1.0
 20
0.0
 30
0.0
  9
$UCSYDIR
 10
0.0
 20
1.0
 30
0.0
  9
$PUCSNAME
  2

  9
$PUCSORG
 10
0.0
 20
0.0
 30
0.0
  9
$PUCSXDIR
 10
1.0
 20
0.0
 30
0.0
  9
$PUCSYDIR
 10
0.0
 20
1.0
 30
0.0
  9
$USERI1
 70
     0
  9
$USERI2
 70
     0
  9
$USERI3
 70
     0
  9
$USERI4
 70
     0
  9
$USERI5
 70
     0
  9
$USERR1
 40
0.0
  9
$USERR2
 40
0.0
  9
$USERR3
 40
0.0
  9
$USERR4
 40
0.0
  9
$USERR5
 40
0.0
  9
$WORLDVIEW
 70
     1
  9
$SHADEDGE
 70
     3
  9
$SHADEDIF
 70
    70
  9
$TILEMODE
 70
     1
  9
$MAXACTVP
 70
    64
  9
$PLIMCHECK
 70
     0
  9
$PEXTMIN
 10
1.0000000000E+20
 20
1.0000000000E+20
 30
1.0000000000E+20
  9
$PEXTMAX
 10
-1.0000000000E+20
 20
-1.0000000000E+20
 30
-1.0000000000E+20
  9
$PLIMMIN
 10
0.0
 20
0.0
  9
$PLIMMAX
 10
420.0
 20
297.0
  9
$UNITMODE
 70
     0
  9
$VISRETAIN
 70
     1
  9
$PLINEGEN
 70
     0
  9
$PSLTSCALE
 70
     1
  0
ENDSEC
  0
SECTION
  2
TABLES
  0
TABLE
  2
VPORT
 70
     1
  0
VPORT
  2
*ACTIVE
 70
     0
 10
0.0
 20
0.0
 11
1.0
 21
1.0
 12
105.0
 22
148.5
 13
0.0
 23
0.0
 14
10.0
 24
10.0
 15
10.0
 25
10.0
 16
0.0
 26
0.0
 36
1.0
 17
0.0
 27
0.0
 37
0.0
 40
297.0
 41
0.7070707071
 42
50.0
 43
0.0
 44
0.0
 50
0.0
 51
0.0
 71
     0
 72
  2000
 73
     1
 74
     3
 75
     0
 76
     0
 77
     0
 78
     0
  0
ENDTAB
  0
TABLE
  2
LTYPE
 70
     6
  0
LTYPE
  2
CONTINUOUS
 70
     0
  3
Solid line
 72
    65
 73
     0
 40
0.0
  0
LTYPE
  2
HIDDEN
 70
     0
  3
Hidden __ __ __ __ __ __ __ __ __ __ __ __ __ __
 72
    65
 73
     2
 40
1.905
 49
1.27
 49
-0.635
  0
LTYPE
  2
PHANTOM
 70
     0
  3
Phantom ______  __  __  ______  __  __  ______
 72
    65
 73
     6
 40
12.7
 49
6.35
 49
-1.27
 49
1.27
 49
-1.27
 49
1.27
 49
-1.27
  0
LTYPE
  2
CENTER
 70
     0
  3
Center ____ _ ____ _ ____ _ ____ _ ____ _ ____
 72
    65
 73
     4
 40
10.16
 49
6.35
 49
-1.27
 49
1.27
 49
-1.27
  0
LTYPE
  2
CENTERX2
 70
     0
  3
Center (2x) ________  __  ________  __  _____
 72
    65
 73
     4
 40
20.32
 49
12.7
 49
-2.54
 49
2.54
 49
-2.54
  0
LTYPE
  2
DOT2
 70
     0
  3
Dot (.5x) ........................................
 72
    65
 73
     2
 40
0.635
 49
0.0
 49
-0.635
  0
ENDTAB
  0
TABLE
  2
LAYER
 70
    53
  0
LAYER
  2
0
 70
     0
 62
     7
  6
CONTINUOUS
  0
LAYER
  2
SLD-0
 70
     0
 62
     7
  6
CONTINUOUS
  0
LAYER
  2
LEVEL0
 70
     0
 62
     7
  6
CONTINUOUS
  0
LAYER
  2
1
 70
     0
 62
     7
  6
CONTINUOUS
  0
LAYER
  2
2
 70
     0
 62
     7
  6
CONTINUOUS
  0
LAYER
  2
3
 70
     0
 62
     7
  6
CONTINUOUS
  0
LAYER
  2
4
 70
     0
 62
     7
  6
CONTINUOUS
  0
LAYER
  2
5
 70
     0
 62
     7
  6
CONTINUOUS
  0
LAYER
  2
6
 70
     0
 62
     7
  6
CONTINUOUS
  0
LAYER
  2
7
 70
     0
 62
     7
  6
CONTINUOUS
  0
LAYER
  2
8
 70
     0
 62
     7
  6
CONTINUOUS
  0
LAYER
  2
9
 70
     0
 62
     7
  6
CONTINUOUS
  0
LAYER
  2
10
 70
     0
 62
     7
  6
CONTINUOUS
  0
LAYER
  2
11
 70
     0
 62
     7
  6
CONTINUOUS
  0
LAYER
  2
12
 70
     0
 62
     7
  6
CONTINUOUS
  0
LAYER
  2
13
 70
     0
 62
     7
  6
CONTINUOUS
  0
LAYER
  2
14
 70
     0
 62
     7
  6
CONTINUOUS
  0
LAYER
  2
15
 70
     0
 62
     7
  6
CONTINUOUS
  0
LAYER
  2
16
 70
     0
 62
     7
  6
CONTINUOUS
  0
LAYER
  2
17
 70
     0
 62
     7
  6
CONTINUOUS
  0
LAYER
  2
18
 70
     0
 62
     7
  6
CONTINUOUS
  0
LAYER
  2
19
 70
     0
 62
     7
  6
CONTINUOUS
  0
LAYER
  2
20
 70
     0
 62
     7
  6
CONTINUOUS
  0
LAYER
  2
21
 70
     0
 62
     7
  6
CONTINUOUS
  0
LAYER
  2
22
 70
     0
 62
     7
  6
CONTINUOUS
  0
LAYER
  2
23
 70
     0
 62
     7
  6
CONTINUOUS
  0
LAYER
  2
24
 70
     0
 62
     7
  6
CONTINUOUS
  0
LAYER
  2
25
 70
     0
 62
     7
  6
CONTINUOUS
  0
LAYER
  2
26
 70
     0
 62
     7
  6
CONTINUOUS
  0
LAYER
  2
27
 70
     0
 62
     7
  6
CONTINUOUS
  0
LAYER
  2
28
 70
     0
 62
     7
  6
CONTINUOUS
  0
LAYER
  2
29
 70
     0
 62
     7
  6
CONTINUOUS
  0
LAYER
  2
30
 70
     0
 62
     7
  6
CONTINUOUS
  0
LAYER
  2
31
 70
     0
 62
     7
  6
CONTINUOUS
  0
LAYER
  2
32
 70
     0
 62
     7
  6
CONTINUOUS
  0
LAYER
  2
33
 70
     0
 62
     7
  6
CONTINUOUS
  0
LAYER
  2
34
 70
     0
 62
     7
  6
CONTINUOUS
  0
LAYER
  2
35
 70
     0
 62
     7
  6
CONTINUOUS
  0
LAYER
  2
36
 70
     0
 62
     7
  6
CONTINUOUS
  0
LAYER
  2
37
 70
     0
 62
     7
  6
CONTINUOUS
  0
LAYER
  2
38
 70
     0
 62
     7
  6
CONTINUOUS
  0
LAYER
  2
39
 70
     0
 62
     7
  6
CONTINUOUS
  0
LAYER
  2
40
 70
     0
 62
     7
  6
CONTINUOUS
  0
LAYER
  2
41
 70
     0
 62
     7
  6
CONTINUOUS
  0
LAYER
  2
42
 70
     0
 62
     7
  6
CONTINUOUS
  0
LAYER
  2
43
 70
     0
 62
     7
  6
CONTINUOUS
  0
LAYER
  2
44
 70
     0
 62
     7
  6
CONTINUOUS
  0
LAYER
  2
45
 70
     0
 62
     7
  6
CONTINUOUS
  0
LAYER
  2
46
 70
     0
 62
     7
  6
CONTINUOUS
  0
LAYER
  2
47
 70
     0
 62
     7
  6
CONTINUOUS
  0
LAYER
  2
48
 70
     0
 62
     7
  6
CONTINUOUS
  0
LAYER
  2
49
 70
     0
 62
     7
  6
CONTINUOUS
  0
LAYER
  2
50
 70
     0
 62
     7
  6
CONTINUOUS
  0
ENDTAB
  0
TABLE
  2
STYLE
 70
     1
  0
STYLE
  2
STANDARD
 70
     0
 40
0.0
 41
1.0
 50
0.0
 71
     0
 42
2.0
  3
txt
  4

  0
ENDTAB
  0
TABLE
  2
VIEW
 70
     0
  0
ENDTAB
  0
TABLE
  2
UCS
 70
     0
  0
ENDTAB
  0
TABLE
  2
APPID
 70
     1
  0
APPID
  2
ACAD
 70
     0
  0
ENDTAB
  0
TABLE
  2
DIMSTYLE
 70
     5
  0
DIMSTYLE
  2
ISO-25
 70
     0
  3

  4

  5

  6

  7

 40
1.0
 41
2.5
 42
0.625
 43
3.75
 44
1.25
 45
0.0
 46
0.0
 47
0.0
 48
0.0
140
2.5
141
2.5
142
0.0
143
0.0393700787
144
1.0
145
0.0
146
1.0
147
0.625
 71
     0
 72
     0
 73
     0
 74
     0
 75
     0
 76
     0
 77
     1
 78
     8
170
     0
171
     3
172
     1
173
     0
174
     0
175
     0
176
     0
177
     0
178
     0
  0
DIMSTYLE
  2
SLDDIMSTYLE0
 70
     0
  3
<>
  4

  5

  6
NONE
  7
CLOSED
 40
1.0
 41
2.0
 42
0.0625
 43
0.38
 44
0.0
 45
0.000000001
 46
0.0
 47
0.0
 48
0.0
140
2.0
141
0.0
142
0.0
143
25.4
144
1.0
145
0.0
146
1.0
147
0.5
 71
     0
 72
     0
 73
     1
 74
     1
 75
     0
 76
     0
 77
     0
 78
    12
170
     0
171
     2
172
     1
173
     1
174
     0
175
     0
176
     0
177
     0
178
     0
  0
DIMSTYLE
  2
SLDDIMSTYLE1
 70
     0
  3

  4

  5

  6
CLOSED
  7
CLOSED
 40
1.0
 41
2.0
 42
0.0625
 43
0.38
 44
0.0
 45
0.000000001
 46
0.0
 47
0.0
 48
0.0
140
2.0
141
0.09
142
0.0
143
0.0393700787
144
1.0
145
0.0
146
1.0
147
0.5
 71
     0
 72
     0
 73
     0
 74
     0
 75
     0
 76
     0
 77
     1
 78
    12
170
     1
171
     2
172
     0
173
     1
174
     0
175
     0
176
     0
177
     0
178
     0
  0
DIMSTYLE
  2
SLDDIMSTYLE2
 70
     0
  3

  4

  5

  6
CLOSED
  7
CLOSED
 40
1.0
 41
2.0
 42
0.0625
 43
0.38
 44
0.0
 45
0.000000001
 46
0.0
 47
0.3
 48
0.2
140
2.0
141
0.09
142
0.0
143
0.0393700787
144
1.0
145
0.0
146
1.0
147
0.5
 71
     1
 72
     0
 73
     0
 74
     0
 75
     0
 76
     0
 77
     1
 78
    12
170
     1
171
     2
172
     0
173
     1
174
     0
175
     0
176
     0
177
     0
178
     0
  0
DIMSTYLE
  2
SLDDIMSTYLE3
 70
     0
  3

  4

  5

  6
CLOSED
  7
CLOSED
 40
1.0
 41
2.0
 42
0.0625
 43
0.38
 44
0.0
 45
0.000000001
 46
0.0
 47
0.0
 48
0.0
140
2.0
141
0.0
142
0.0
143
0.0393700787
144
1.0
145
0.0
146
1.0
147
0.5
 71
     0
 72
     0
 73
     0
 74
     0
 75
     0
 76
     0
 77
     1
 78
    12
170
     1
171
     2
172
     0
173
     1
174
     0
175
     0
176
     0
177
     0
178
     0
  0
ENDTAB
  0
ENDSEC
  0
SECTION
  2
BLOCKS
  0
BLOCK
  8
0
  2
$MODEL_SPACE
 70
     0
 10
0.0
 20
0.0
 30
0.0
  3
$MODEL_SPACE
  1

  0
ENDBLK
  5
21
  8
0
  0
BLOCK
 67
     1
  8
0
  2
$PAPER_SPACE
 70
     0
 10
0.0
 20
0.0
 30
0.0
  3
$PAPER_SPACE
  1

  0
ENDBLK
  5
1D
 67
     1
  8
0
  0
BLOCK
  8
0
  2
SW_NOTE_0
 70
     0
 10
0.0
 20
0.0
 30
0.0
  3
SW_NOTE_0
  1

  0
TEXT
  5
AA
  8
LEVEL0
 62
     0
 10
0.0
 20
1.6423252458
 30
0.0
 40
3.175
  1
CUTOUT TEMPLATE FOR PALLADIOM US 2GANG 
 41
0.6461538462
 11
0.0
 21
0.0
 31
0.0
 73
     1
  0
TEXT
  5
AB
  8
LEVEL0
 62
     0
 10
96.4788421988
 20
1.6423252458
 30
0.0
 40
3.175
  1
GLASS
 41
0.7
 11
96.4788421988
 21
0.0
 31
0.0
 73
     1
  0
TEXT
  5
AC
  8
LEVEL0
 62
     0
 10
109.431669116
 20
1.6423252458
 30
0.0
 40
3.175
  1
 FACEPLATE ONLY:
 41
0.65625
 11
109.431669116
 21
0.0
 31
0.0
 73
     1
  0
ENDBLK
  5
A9
  8
0
  0
BLOCK
  8
0
  2
_NONE
 70
     0
 10
0.0
 20
0.0
 30
0.0
  3
_NONE
  1

  0
ENDBLK
  5
C2
  8
0
  0
BLOCK
  8
0
  2
_CLOSED
 70
     0
 10
0.0
 20
0.0
 30
0.0
  3
_CLOSED
  1

  0
LINE
  5
C6
  8
0
  6
BYBLOCK
 62
     0
 10
-1.0
 20
0.166667
 30
0.0
 11
0.0
 21
0.0
 31
0.0
  0
LINE
  5
C7
  8
0
  6
BYBLOCK
 62
     0
 10
0.0
 20
0.0
 30
0.0
 11
-1.0
 21
-0.166667
 31
0.0
  0
LINE
  5
C8
  8
0
  6
BYBLOCK
 62
     0
 10
-1.0
 20
0.166667
 30
0.0
 11
-1.0
 21
-0.166667
 31
0.0
  0
LINE
  5
C9
  8
0
  6
BYBLOCK
 62
     0
 10
0.0
 20
0.0
 30
0.0
 11
-1.0
 21
0.0
 31
0.0
  0
ENDBLK
  5
C5
  8
0
  0
BLOCK
  8
0
  2
_D
 70
     0
 10
0.0
 20
0.0
 30
0.0
  3
_D
  1

  0
INSERT
  5
CD
  8
LEVEL0
  2
_CLOSED
 10
183.3463102696
 20
220.6389295027
 30
10.05
 41
2.0
 42
2.0
 50
318.5169453303
  0
LINE
  5
CE
  8
LEVEL0
 10
183.3463102696
 20
220.6389295027
 30
0.0
 11
170.7723660729
 21
231.756787753
 31
0.0
  0
LINE
  5
CF
  8
LEVEL0
 10
183.7208860992
 20
220.3077302456
 30
0.0
 11
183.3463102696
 21
220.6389295027
 31
0.0
  0
LINE
  5
D0
  8
LEVEL0
 10
170.7723660729
 20
231.756787753
 30
0.0
 11
131.9959747515
 21
231.756787753
 31
0.0
  0
TEXT
  5
D1
  8
LEVEL0
 10
131.9959747515
 20
232.7913233409
 30
10.05
 40
2.0
  1
(X4) MARK SCREW POSITIONS
 41
0.658
 11
131.9959747515
 21
231.756787753
 31
10.05
 73
     1
  0
ENDBLK
  5
CC
  8
0
  0
BLOCK
  8
0
  2
_D_1
 70
     0
 10
0.0
 20
0.0
 30
0.0
  3
_D_1
  1

  0
INSERT
  5
D7
  8
LEVEL0
  2
_CLOSED
 10
26.1545193072
 20
220.4733298742
 30
10.05
 41
2.0
 42
2.0
 50
90.0
  0
INSERT
  5
D8
  8
LEVEL0
  2
_CLOSED
 10
26.1545193072
 20
80.9733298742
 30
10.05
 41
2.0
 42
2.0
 50
270.0
  0
LINE
  5
D9
  8
LEVEL0
 10
19.98715826
 20
146.1451601387
 30
0.0
 11
19.98715826
 21
145.5357851261
 31
0.0
  0
LINE
  5
DA
  8
LEVEL0
 10
19.98715826
 20
145.5357851261
 30
0.0
 11
23.1621582217
 21
145.5357851261
 31
0.0
  0
LINE
  5
DB
  8
LEVEL0
 10
23.1621582217
 20
145.5357851261
 30
0.0
 11
23.1621582217
 21
146.1451601387
 31
0.0
  0
LINE
  5
DC
  8
LEVEL0
 10
19.98715826
 20
152.795160018
 30
0.0
 11
19.98715826
 21
153.4045350306
 31
0.0
  0
LINE
  5
DD
  8
LEVEL0
 10
19.98715826
 20
153.4045350306
 30
0.0
 11
23.1621582217
 21
153.4045350306
 31
0.0
  0
LINE
  5
DE
  8
LEVEL0
 10
23.1621582217
 20
153.4045350306
 30
0.0
 11
23.1621582217
 21
152.795160018
 31
0.0
  0
LINE
  5
DF
  8
LEVEL0
 10
38.2835981844
 20
220.4733298742
 30
0.0
 11
25.1545193072
 21
220.4733298742
 31
0.0
  0
LINE
  5
E0
  8
LEVEL0
 10
38.2835981844
 20
80.9733298742
 30
0.0
 11
25.1545193072
 21
80.9733298742
 31
0.0
  0
LINE
  5
E1
  8
LEVEL0
 10
26.1545193072
 20
220.4733298742
 30
0.0
 11
26.1545193072
 21
80.9733298742
 31
0.0
  0
TEXT
  5
E2
  8
LEVEL0
 10
25.0894281897
 20
143.4486323885
 30
10.05
 40
2.0
  1
  
 50
90.0
 41
0.7
 11
26.1239637776
 21
143.4486323885
 31
10.05
 73
     1
  0
TEXT
  5
E3
  8
LEVEL0
 10
22.1276226338
 20
146.1451601387
 30
10.05
 40
2.0
  1
5.492
 50
90.0
 41
0.7
 11
23.1621582217
 21
146.1451601387
 31
10.05
 73
     1
  0
TEXT
  5
E4
  8
LEVEL0
 10
25.1199839521
 20
146.1451602551
 30
10.05
 40
2.0
  1
139.5
 50
90.0
 41
0.7
 11
26.15451954
 21
146.1451602551
 31
10.05
 73
     1
  0
TEXT
  5
E5
  8
LEVEL0
 10
25.0894281897
 20
154.0139105088
 30
10.05
 40
2.0
  1
  
 50
90.0
 41
0.7
 11
26.1239637776
 21
154.0139105088
 31
10.05
 73
     1
  0
ENDBLK
  5
D6
  8
0
  0
BLOCK
  8
0
  2
_D_2
 70
     0
 10
0.0
 20
0.0
 30
0.0
  3
_D_2
  1

  0
INSERT
  5
EA
  8
LEVEL0
  2
_CLOSED
 10
42.0335981844
 20
56.8827214799
 30
10.05
 41
2.0
 42
2.0
 50
180.0
  0
INSERT
  5
EB
  8
LEVEL0
  2
_CLOSED
 10
183.5335981844
 20
56.8827214799
 30
10.05
 41
2.0
 42
2.0
 50
0.0
  0
LINE
  5
EC
  8
LEVEL0
 10
110.3246488239
 20
63.050082527
 30
0.0
 11
109.7152738113
 21
63.050082527
 31
0.0
  0
LINE
  5
ED
  8
LEVEL0
 10
109.7152738113
 20
63.050082527
 30
0.0
 11
109.7152738113
 21
59.8750825654
 31
0.0
  0
LINE
  5
EE
  8
LEVEL0
 10
109.7152738113
 20
59.8750825654
 30
0.0
 11
110.3246488239
 21
59.8750825654
 31
0.0
  0
LINE
  5
EF
  8
LEVEL0
 10
116.9746487032
 20
63.050082527
 30
0.0
 11
117.5840237157
 21
63.050082527
 31
0.0
  0
LINE
  5
F0
  8
LEVEL0
 10
117.5840237157
 20
63.050082527
 30
0.0
 11
117.5840237157
 21
59.8750825654
 31
0.0
  0
LINE
  5
F1
  8
LEVEL0
 10
117.5840237157
 20
59.8750825654
 30
0.0
 11
116.9746487032
 21
59.8750825654
 31
0.0
  0
LINE
  5
F2
  8
LEVEL0
 10
42.0335981844
 20
77.2233298742
 30
0.0
 11
42.0335981844
 21
55.8827214799
 31
0.0
  0
LINE
  5
F3
  8
LEVEL0
 10
183.5335981844
 20
77.2233298742
 30
0.0
 11
183.5335981844
 21
55.8827214799
 31
0.0
  0
LINE
  5
F4
  8
LEVEL0
 10
42.0335981844
 20
56.8827214799
 30
0.0
 11
183.5335981844
 21
56.8827214799
 31
0.0
  0
TEXT
  5
F5
  8
LEVEL0
 10
107.6281210736
 20
57.9478125973
 30
10.05
 40
2.0
  1
  
 41
0.7
 11
107.6281210736
 21
56.9132770094
 31
10.05
 73
     1
  0
TEXT
  5
F6
  8
LEVEL0
 10
110.3246488239
 20
60.9096181532
 30
10.05
 40
2.0
  1
5.571
 41
0.7
 11
110.3246488239
 21
59.8750825654
 31
10.05
 73
     1
  0
TEXT
  5
F7
  8
LEVEL0
 10
110.3246489403
 20
57.9172568349
 30
10.05
 40
2.0
  1
141.5
 41
0.7
 11
110.3246489403
 21
56.882721247
 31
10.05
 73
     1
  0
TEXT
  5
F8
  8
LEVEL0
 10
118.193399194
 20
57.9478125973
 30
10.05
 40
2.0
  1
  
 41
0.7
 11
118.193399194
 21
56.9132770094
 31
10.05
 73
     1
  0
ENDBLK
  5
E9
  8
0
  0
BLOCK
  8
0
  2
_D_3
 70
     0
 10
0.0
 20
0.0
 30
0.0
  3
_D_3
  1

  0
INSERT
  5
FE
  8
LEVEL0
  2
_CLOSED
 10
51.7335981844
 20
67.0673397641
 30
10.05
 41
2.0
 42
2.0
 50
180.0
  0
INSERT
  5
FF
  8
LEVEL0
  2
_CLOSED
 10
173.8335981844
 20
67.0673397641
 30
10.05
 41
2.0
 42
2.0
 50
0.0
  0
LINE
  5
100
  8
LEVEL0
 10
121.0987987744
 20
77.8180344302
 30
0.0
 11
120.4894237618
 21
77.8180344302
 31
0.0
  0
LINE
  5
101
  8
LEVEL0
 10
120.4894237618
 20
77.8180344302
 30
0.0
 11
120.4894237618
 21
72.6458120431
 31
0.0
  0
LINE
  5
102
  8
LEVEL0
 10
120.4894237618
 20
72.6458120431
 30
0.0
 11
121.0987987744
 21
72.6458120431
 31
0.0
  0
LINE
  5
103
  8
LEVEL0
 10
136.7543536054
 20
77.8180344302
 30
0.0
 11
137.363728618
 21
77.8180344302
 31
0.0
  0
LINE
  5
104
  8
LEVEL0
 10
137.363728618
 20
77.8180344302
 30
0.0
 11
137.363728618
 21
72.6458120431
 31
0.0
  0
LINE
  5
105
  8
LEVEL0
 10
137.363728618
 20
72.6458120431
 30
0.0
 11
136.7543536054
 21
72.6458120431
 31
0.0
  0
LINE
  5
106
  8
LEVEL0
 10
51.7335981844
 20
91.0483298742
 30
0.0
 11
51.7335981844
 21
66.0673397641
 31
0.0
  0
LINE
  5
107
  8
LEVEL0
 10
173.8335981844
 20
91.0483298742
 30
0.0
 11
173.8335981844
 21
66.0673397641
 31
0.0
  0
LINE
  5
108
  8
LEVEL0
 10
51.7335981844
 20
67.0673397641
 30
0.0
 11
173.8335981844
 21
67.0673397641
 31
0.0
  0
TEXT
  5
109
  8
LEVEL0
 10
118.4022710241
 20
68.1324308815
 30
10.05
 40
2.0
  1
  
 41
0.7
 11
118.4022710241
 21
67.0978952936
 31
10.05
 73
     1
  0
TEXT
  5
10A
  8
LEVEL0
 10
121.0987987744
 20
73.7109031605
 30
10.05
 40
2.0
  1
4.807
 41
0.7
 11
121.0987987744
 21
72.6763675726
 31
10.05
 73
     1
  0
TEXT
  5
10B
  8
LEVEL0
 10
127.7487986537
 20
73.7109031605
 30
10.05
 40
2.0
  1
 
 41
0.7
 11
127.7487986537
 21
72.6763675726
 31
10.05
 73
     1
  0
TEXT
  5
10C
  8
LEVEL0
 10
128.4876876326
 20
76.2664588245
 30
10.05
 40
2.0
  1
+
 41
0.7
 11
128.4876876326
 21
75.2319232367
 31
10.05
 73
     1
  0
TEXT
  5
10D
  8
LEVEL0
 10
128.852965414
 20
73.680347631
 30
10.05
 40
2.0
  1
-
 41
0.7
 11
128.852965414
 21
72.6458120431
 31
10.05
 73
     1
  0
TEXT
  5
10E
  8
LEVEL0
 10
130.1043537261
 20
76.2664588245
 30
10.05
 40
2.0
  1
0.012
 41
0.7
 11
130.1043537261
 21
75.2319232367
 31
10.05
 73
     1
  0
TEXT
  5
10F
  8
LEVEL0
 10
130.1043537261
 20
73.680347631
 30
10.05
 40
2.0
  1
0.008
 41
0.7
 11
130.1043537261
 21
72.6458120431
 31
10.05
 73
     1
  0
TEXT
  5
110
  8
LEVEL0
 10
122.576576383
 20
68.1018748863
 30
10.05
 40
2.0
  1
122.1
 41
0.7
 11
122.576576383
 21
67.0673392985
 31
10.05
 73
     1
  0
TEXT
  5
111
  8
LEVEL0
 10
129.2265762623
 20
68.1018748863
 30
10.05
 40
2.0
  1
 
 41
0.7
 11
129.2265762623
 21
67.0673392985
 31
10.05
 73
     1
  0
TEXT
  5
112
  8
LEVEL0
 10
129.9654652413
 20
70.6879860799
 30
10.05
 40
2.0
  1
+
 41
0.7
 11
129.9654652413
 21
69.653450492
 31
10.05
 73
     1
  0
TEXT
  5
113
  8
LEVEL0
 10
130.3307430227
 20
68.1018748863
 30
10.05
 40
2.0
  1
-
 41
0.7
 11
130.3307430227
 21
67.0673392985
 31
10.05
 73
     1
  0
TEXT
  5
114
  8
LEVEL0
 10
131.5821313348
 20
70.6879860799
 30
10.05
 40
2.0
  1
0.3
 41
0.7
 11
131.5821313348
 21
69.653450492
 31
10.05
 73
     1
  0
TEXT
  5
115
  8
LEVEL0
 10
131.5821313348
 20
68.1018748863
 30
10.05
 40
2.0
  1
0.2
 41
0.7
 11
131.5821313348
 21
67.0673392985
 31
10.05
 73
     1
  0
TEXT
  5
116
  8
LEVEL0
 10
137.9731040962
 20
68.1324308815
 30
10.05
 40
2.0
  1
  
 41
0.7
 11
137.9731040962
 21
67.0978952936
 31
10.05
 73
     1
  0
ENDBLK
  5
FD
  8
0
  0
BLOCK
  8
0
  2
_D_4
 70
     0
 10
0.0
 20
0.0
 30
0.0
  3
_D_4
  1

  0
INSERT
  5
11B
  8
LEVEL0
  2
_CLOSED
 10
44.209069902
 20
90.6483298742
 30
10.05
 41
2.0
 42
2.0
 50
270.0
  0
INSERT
  5
11C
  8
LEVEL0
  2
_CLOSED
 10
44.209069902
 20
210.7483298742
 30
10.05
 41
2.0
 42
2.0
 50
90.0
  0
LINE
  5
11D
  8
LEVEL0
 10
33.4583752359
 20
163.8633680103
 30
0.0
 11
33.4583752359
 21
163.2539929977
 31
0.0
  0
LINE
  5
11E
  8
LEVEL0
 10
33.4583752359
 20
163.2539929977
 30
0.0
 11
38.6305976229
 21
163.2539929977
 31
0.0
  0
LINE
  5
11F
  8
LEVEL0
 10
38.6305976229
 20
163.2539929977
 30
0.0
 11
38.6305976229
 21
163.8633680103
 31
0.0
  0
LINE
  5
120
  8
LEVEL0
 10
33.4583752359
 20
179.5189228413
 30
0.0
 11
33.4583752359
 21
180.1282978539
 31
0.0
  0
LINE
  5
121
  8
LEVEL0
 10
33.4583752359
 20
180.1282978539
 30
0.0
 11
38.6305976229
 21
180.1282978539
 31
0.0
  0
LINE
  5
122
  8
LEVEL0
 10
38.6305976229
 20
180.1282978539
 30
0.0
 11
38.6305976229
 21
179.5189228413
 31
0.0
  0
LINE
  5
123
  8
LEVEL0
 10
52.1335981844
 20
90.6483298742
 30
0.0
 11
43.209069902
 21
90.6483298742
 31
0.0
  0
LINE
  5
124
  8
LEVEL0
 10
52.1335981844
 20
210.7483298742
 30
0.0
 11
43.209069902
 21
210.7483298742
 31
0.0
  0
LINE
  5
125
  8
LEVEL0
 10
44.209069902
 20
90.6483298742
 30
0.0
 11
44.209069902
 21
210.7483298742
 31
0.0
  0
TEXT
  5
126
  8
LEVEL0
 10
43.1439787846
 20
161.1668402601
 30
10.05
 40
2.0
  1
  
 50
90.0
 41
0.7
 11
44.1785143724
 21
161.1668402601
 31
10.05
 73
     1
  0
TEXT
  5
127
  8
LEVEL0
 10
37.5655065055
 20
163.8633680103
 30
10.05
 40
2.0
  1
4.728
 50
90.0
 41
0.7
 11
38.6000420934
 21
163.8633680103
 31
10.05
 73
     1
  0
TEXT
  5
128
  8
LEVEL0
 10
37.5655065055
 20
170.5133678896
 30
10.05
 40
2.0
  1
 
 50
90.0
 41
0.7
 11
38.6000420934
 21
170.5133678896
 31
10.05
 73
     1
  0
TEXT
  5
129
  8
LEVEL0
 10
35.0099508415
 20
171.2522568685
 30
10.05
 40
2.0
  1
+
 50
90.0
 41
0.7
 11
36.0444864294
 21
171.2522568685
 31
10.05
 73
     1
  0
TEXT
  5
12A
  8
LEVEL0
 10
37.5960620351
 20
171.6175346499
 30
10.05
 40
2.0
  1
-
 50
90.0
 41
0.7
 11
38.6305976229
 21
171.6175346499
 31
10.05
 73
     1
  0
TEXT
  5
12B
  8
LEVEL0
 10
35.0099508415
 20
172.868922962
 30
10.05
 40
2.0
  1
0.012
 50
90.0
 41
0.7
 11
36.0444864294
 21
172.868922962
 31
10.05
 73
     1
  0
TEXT
  5
12C
  8
LEVEL0
 10
37.5960620351
 20
172.868922962
 30
10.05
 40
2.0
  1
0.008
 50
90.0
 41
0.7
 11
38.6305976229
 21
172.868922962
 31
10.05
 73
     1
  0
TEXT
  5
12D
  8
LEVEL0
 10
43.1745347797
 20
165.341145619
 30
10.05
 40
2.0
  1
120.1
 50
90.0
 41
0.7
 11
44.2090703676
 21
165.341145619
 31
10.05
 73
     1
  0
TEXT
  5
12E
  8
LEVEL0
 10
43.1745347797
 20
171.9911454983
 30
10.05
 40
2.0
  1
 
 50
90.0
 41
0.7
 11
44.2090703676
 21
171.9911454983
 31
10.05
 73
     1
  0
TEXT
  5
12F
  8
LEVEL0
 10
40.5884235862
 20
172.7300344772
 30
10.05
 40
2.0
  1
+
 50
90.0
 41
0.7
 11
41.6229591741
 21
172.7300344772
 31
10.05
 73
     1
  0
TEXT
  5
130
  8
LEVEL0
 10
43.1745347797
 20
173.0953122586
 30
10.05
 40
2.0
  1
-
 50
90.0
 41
0.7
 11
44.2090703676
 21
173.0953122586
 31
10.05
 73
     1
  0
TEXT
  5
131
  8
LEVEL0
 10
40.5884235862
 20
174.3467005707
 30
10.05
 40
2.0
  1
0.3
 50
90.0
 41
0.7
 11
41.6229591741
 21
174.3467005707
 31
10.05
 73
     1
  0
TEXT
  5
132
  8
LEVEL0
 10
43.1745347797
 20
174.3467005707
 30
10.05
 40
2.0
  1
0.2
 50
90.0
 41
0.7
 11
44.2090703676
 21
174.3467005707
 31
10.05
 73
     1
  0
TEXT
  5
133
  8
LEVEL0
 10
43.1439787846
 20
180.7376733321
 30
10.05
 40
2.0
  1
  
 50
90.0
 41
0.7
 11
44.1785143724
 21
180.7376733321
 31
10.05
 73
     1
  0
ENDBLK
  5
11A
  8
0
  0
BLOCK
  8
0
  2
_D_5
 70
     0
 10
0.0
 20
0.0
 30
0.0
  3
_D_5
  1

  0
INSERT
  5
138
  8
LEVEL0
  2
_CLOSED
 10
33.3242692138
 20
90.6483298742
 30
10.05
 41
2.0
 42
2.0
 50
90.0
  0
INSERT
  5
139
  8
LEVEL0
  2
_CLOSED
 10
33.3242692138
 20
80.9733298742
 30
10.05
 41
2.0
 42
2.0
 50
270.0
  0
LINE
  5
13A
  8
LEVEL0
 10
27.1569081667
 20
70.8217666866
 30
0.0
 11
27.1569081667
 21
70.2123916741
 31
0.0
  0
LINE
  5
13B
  8
LEVEL0
 10
27.1569081667
 20
70.2123916741
 30
0.0
 11
30.3319081283
 21
70.2123916741
 31
0.0
  0
LINE
  5
13C
  8
LEVEL0
 10
30.3319081283
 20
70.2123916741
 30
0.0
 11
30.3319081283
 21
70.8217666866
 31
0.0
  0
LINE
  5
13D
  8
LEVEL0
 10
27.1569081667
 20
77.4717665659
 30
0.0
 11
27.1569081667
 21
78.0811415785
 31
0.0
  0
LINE
  5
13E
  8
LEVEL0
 10
27.1569081667
 20
78.0811415785
 30
0.0
 11
30.3319081283
 21
78.0811415785
 31
0.0
  0
LINE
  5
13F
  8
LEVEL0
 10
30.3319081283
 20
78.0811415785
 30
0.0
 11
30.3319081283
 21
77.4717665659
 31
0.0
  0
LINE
  5
140
  8
LEVEL0
 10
52.1335981844
 20
90.6483298742
 30
0.0
 11
32.3242692138
 21
90.6483298742
 31
0.0
  0
LINE
  5
141
  8
LEVEL0
 10
38.2835981844
 20
80.9733298742
 30
0.0
 11
32.3242692138
 21
80.9733298742
 31
0.0
  0
LINE
  5
142
  8
LEVEL0
 10
33.3242692138
 20
90.6483298742
 30
0.0
 11
33.3242692138
 21
80.9733298742
 31
0.0
  0
LINE
  5
143
  8
LEVEL0
 10
33.3242692138
 20
80.9733298742
 30
0.0
 11
33.3242692138
 21
68.1252389364
 31
0.0
  0
TEXT
  5
144
  8
LEVEL0
 10
32.2591780964
 20
68.1252389364
 30
10.05
 40
2.0
  1
  
 50
90.0
 41
0.7
 11
33.2937136843
 21
68.1252389364
 31
10.05
 73
     1
  0
TEXT
  5
145
  8
LEVEL0
 10
29.2973725405
 20
70.8217666866
 30
10.05
 40
2.0
  1
0.381
 50
90.0
 41
0.7
 11
30.3319081283
 21
70.8217666866
 31
10.05
 73
     1
  0
TEXT
  5
146
  8
LEVEL0
 10
32.2897338588
 20
72.2995446446
 30
10.05
 40
2.0
  1
9.7
 50
90.0
 41
0.7
 11
33.3242694467
 21
72.2995446446
 31
10.05
 73
     1
  0
TEXT
  5
147
  8
LEVEL0
 10
32.2591780964
 20
78.6905170568
 30
10.05
 40
2.0
  1
  
 50
90.0
 41
0.7
 11
33.2937136843
 21
78.6905170568
 31
10.05
 73
     1
  0
ENDBLK
  5
137
  8
0
  0
BLOCK
  8
0
  2
_D_6
 70
     0
 10
0.0
 20
0.0
 30
0.0
  3
_D_6
  1

  0
INSERT
  5
14C
  8
LEVEL0
  2
_CLOSED
 10
42.0335981844
 20
56.8827214799
 30
10.05
 41
2.0
 42
2.0
 50
180.0
  0
INSERT
  5
14D
  8
LEVEL0
  2
_CLOSED
 10
51.7335981844
 20
56.8827214799
 30
10.05
 41
2.0
 42
2.0
 50
0.0
  0
LINE
  5
14E
  8
LEVEL0
 10
29.9992689249
 20
63.050082527
 30
0.0
 11
29.3898939124
 21
63.050082527
 31
0.0
  0
LINE
  5
14F
  8
LEVEL0
 10
29.3898939124
 20
63.050082527
 30
0.0
 11
29.3898939124
 21
59.8750825654
 31
0.0
  0
LINE
  5
150
  8
LEVEL0
 10
29.3898939124
 20
59.8750825654
 30
0.0
 11
29.9992689249
 21
59.8750825654
 31
0.0
  0
LINE
  5
151
  8
LEVEL0
 10
36.6492688042
 20
63.050082527
 30
0.0
 11
37.2586438168
 21
63.050082527
 31
0.0
  0
LINE
  5
152
  8
LEVEL0
 10
37.2586438168
 20
63.050082527
 30
0.0
 11
37.2586438168
 21
59.8750825654
 31
0.0
  0
LINE
  5
153
  8
LEVEL0
 10
37.2586438168
 20
59.8750825654
 30
0.0
 11
36.6492688042
 21
59.8750825654
 31
0.0
  0
LINE
  5
154
  8
LEVEL0
 10
42.0335981844
 20
77.2233298742
 30
0.0
 11
42.0335981844
 21
55.8827214799
 31
0.0
  0
LINE
  5
155
  8
LEVEL0
 10
51.7335981844
 20
91.0483298742
 30
0.0
 11
51.7335981844
 21
55.8827214799
 31
0.0
  0
LINE
  5
156
  8
LEVEL0
 10
42.0335981844
 20
56.8827214799
 30
0.0
 11
27.3027411747
 21
56.8827214799
 31
0.0
  0
LINE
  5
157
  8
LEVEL0
 10
42.0335981844
 20
56.8827214799
 30
0.0
 11
51.7335981844
 21
56.8827214799
 31
0.0
  0
TEXT
  5
158
  8
LEVEL0
 10
27.3027411747
 20
57.9478125973
 30
10.05
 40
2.0
  1
  
 41
0.7
 11
27.3027411747
 21
56.9132770094
 31
10.05
 73
     1
  0
TEXT
  5
159
  8
LEVEL0
 10
29.9992689249
 20
60.9096181532
 30
10.05
 40
2.0
  1
0.382
 41
0.7
 11
29.9992689249
 21
59.8750825654
 31
10.05
 73
     1
  0
TEXT
  5
15A
  8
LEVEL0
 10
31.4770468829
 20
57.9172568349
 30
10.05
 40
2.0
  1
9.7
 41
0.7
 11
31.4770468829
 21
56.882721247
 31
10.05
 73
     1
  0
TEXT
  5
15B
  8
LEVEL0
 10
37.868019295
 20
57.9478125973
 30
10.05
 40
2.0
  1
  
 41
0.7
 11
37.868019295
 21
56.9132770094
 31
10.05
 73
     1
  0
ENDBLK
  5
14B
  8
0
  0
BLOCK
  8
0
  2
_D_7
 70
     0
 10
0.0
 20
0.0
 30
0.0
  3
_D_7
  1

  0
INSERT
  5
161
  8
LEVEL0
  2
_CLOSED
 10
173.4235476781
 20
91.0583803805
 30
10.05
 41
2.0
 42
2.0
 50
135.1670518824
  0
LINE
  5
162
  8
LEVEL0
 10
163.0363806731
 20
110.0767525591
 30
0.0
 11
162.6054874694
 21
110.5076457628
 31
0.0
  0
LINE
  5
163
  8
LEVEL0
 10
162.6054874694
 20
110.5076457628
 30
0.0
 11
160.3604234663
 21
108.2625817597
 31
0.0
  0
LINE
  5
164
  8
LEVEL0
 10
160.3604234663
 20
108.2625817597
 30
0.0
 11
160.79131667
 21
107.831688556
 31
0.0
  0
LINE
  5
165
  8
LEVEL0
 10
167.7386406826
 20
105.3744925496
 30
0.0
 11
168.1695338863
 21
104.9435993459
 31
0.0
  0
LINE
  5
166
  8
LEVEL0
 10
168.1695338863
 20
104.9435993459
 30
0.0
 11
165.9244698832
 21
102.6985353428
 31
0.0
  0
LINE
  5
167
  8
LEVEL0
 10
165.9244698832
 20
102.6985353428
 30
0.0
 11
165.4935766795
 21
103.1294285464
 31
0.0
  0
LINE
  5
168
  8
LEVEL0
 10
173.4235476781
 20
91.0583803805
 30
0.0
 11
157.8136114473
 21
106.577556148
 31
0.0
  0
LINE
  5
169
  8
LEVEL0
 10
173.4235476781
 20
91.0583803805
 30
0.0
 11
176.1511069747
 21
88.3466798639
 31
0.0
  0
TEXT
  5
16A
  8
LEVEL0
 10
161.5228437995
 20
108.5632156856
 30
10.05
 40
2.0
  1
0.055
 50
-45.0
 41
0.7
 11
160.79131667
 21
107.831688556
 31
10.05
 73
     1
  0
TEXT
  5
16B
  8
LEVEL0
 10
159.8793113898
 20
105.9749101354
 30
10.05
 40
2.0
  1
R1.4
 50
-45.0
 41
0.7
 11
159.1477842603
 21
105.2433830058
 31
10.05
 73
     1
  0
ENDBLK
  5
160
  8
0
  0
BLOCK
  8
0
  2
SW_CENTERMARKSYMBOL_0
 70
     0
 10
0.0
 20
0.0
 30
0.0
  3
SW_CENTERMARKSYMBOL_0
  1

  0
LINE
  5
16F
  8
LEVEL0
 62
     0
 10
0.0
 20
0.0
 30
0.0
 11
0.0
 21
2.5
 31
0.0
  0
LINE
  5
170
  8
LEVEL0
 62
     0
 10
0.0
 20
0.0
 30
0.0
 11
-2.5
 21
0.0
 31
0.0
  0
LINE
  5
171
  8
LEVEL0
 62
     0
 10
0.0
 20
0.0
 30
0.0
 11
0.0
 21
-2.5
 31
0.0
  0
LINE
  5
172
  8
LEVEL0
 62
     0
 10
0.0
 20
0.0
 30
0.0
 11
2.5
 21
0.0
 31
0.0
  0
LINE
  5
173
  8
LEVEL0
 62
     0
 10
0.0
 20
2.5
 30
0.0
 11
0.0
 21
2.75
 31
0.0
  0
LINE
  5
174
  8
LEVEL0
 62
     0
 10
-2.5
 20
0.0
 30
0.0
 11
-2.75
 21
0.0
 31
0.0
  0
LINE
  5
175
  8
LEVEL0
 62
     0
 10
0.0
 20
-2.5
 30
0.0
 11
0.0
 21
-2.75
 31
0.0
  0
LINE
  5
176
  8
LEVEL0
 62
     0
 10
2.5
 20
0.0
 30
0.0
 11
2.75
 21
0.0
 31
0.0
  0
ENDBLK
  5
16E
  8
0
  0
BLOCK
  8
0
  2
SW_CENTERMARKSYMBOL_1
 70
     0
 10
0.0
 20
0.0
 30
0.0
  3
SW_CENTERMARKSYMBOL_1
  1

  0
LINE
  5
17B
  8
LEVEL0
 62
     0
 10
0.0
 20
0.0
 30
0.0
 11
0.0
 21
2.5
 31
0.0
  0
LINE
  5
17C
  8
LEVEL0
 62
     0
 10
0.0
 20
0.0
 30
0.0
 11
-2.5
 21
0.0
 31
0.0
  0
LINE
  5
17D
  8
LEVEL0
 62
     0
 10
0.0
 20
0.0
 30
0.0
 11
0.0
 21
-2.5
 31
0.0
  0
LINE
  5
17E
  8
LEVEL0
 62
     0
 10
0.0
 20
0.0
 30
0.0
 11
2.5
 21
0.0
 31
0.0
  0
LINE
  5
17F
  8
LEVEL0
 62
     0
 10
0.0
 20
2.5
 30
0.0
 11
0.0
 21
2.75
 31
0.0
  0
LINE
  5
180
  8
LEVEL0
 62
     0
 10
-2.5
 20
0.0
 30
0.0
 11
-2.75
 21
0.0
 31
0.0
  0
LINE
  5
181
  8
LEVEL0
 62
     0
 10
0.0
 20
-2.5
 30
0.0
 11
0.0
 21
-2.75
 31
0.0
  0
LINE
  5
182
  8
LEVEL0
 62
     0
 10
2.5
 20
0.0
 30
0.0
 11
2.75
 21
0.0
 31
0.0
  0
ENDBLK
  5
17A
  8
0
  0
BLOCK
  8
0
  2
SW_CENTERMARKSYMBOL_2
 70
     0
 10
0.0
 20
0.0
 30
0.0
  3
SW_CENTERMARKSYMBOL_2
  1

  0
LINE
  5
187
  8
LEVEL0
 62
     0
 10
0.0
 20
0.0
 30
0.0
 11
0.0
 21
2.5
 31
0.0
  0
LINE
  5
188
  8
LEVEL0
 62
     0
 10
0.0
 20
0.0
 30
0.0
 11
-2.5
 21
0.0
 31
0.0
  0
LINE
  5
189
  8
LEVEL0
 62
     0
 10
0.0
 20
0.0
 30
0.0
 11
0.0
 21
-2.5
 31
0.0
  0
LINE
  5
18A
  8
LEVEL0
 62
     0
 10
0.0
 20
0.0
 30
0.0
 11
2.5
 21
0.0
 31
0.0
  0
LINE
  5
18B
  8
LEVEL0
 62
     0
 10
0.0
 20
2.5
 30
0.0
 11
0.0
 21
2.75
 31
0.0
  0
LINE
  5
18C
  8
LEVEL0
 62
     0
 10
-2.5
 20
0.0
 30
0.0
 11
-2.75
 21
0.0
 31
0.0
  0
LINE
  5
18D
  8
LEVEL0
 62
     0
 10
0.0
 20
-2.5
 30
0.0
 11
0.0
 21
-2.75
 31
0.0
  0
LINE
  5
18E
  8
LEVEL0
 62
     0
 10
2.5
 20
0.0
 30
0.0
 11
2.75
 21
0.0
 31
0.0
  0
ENDBLK
  5
186
  8
0
  0
BLOCK
  8
0
  2
SW_CENTERMARKSYMBOL_3
 70
     0
 10
0.0
 20
0.0
 30
0.0
  3
SW_CENTERMARKSYMBOL_3
  1

  0
LINE
  5
193
  8
LEVEL0
 62
     0
 10
0.0
 20
0.0
 30
0.0
 11
0.0
 21
2.5
 31
0.0
  0
LINE
  5
194
  8
LEVEL0
 62
     0
 10
0.0
 20
0.0
 30
0.0
 11
-2.5
 21
0.0
 31
0.0
  0
LINE
  5
195
  8
LEVEL0
 62
     0
 10
0.0
 20
0.0
 30
0.0
 11
0.0
 21
-2.5
 31
0.0
  0
LINE
  5
196
  8
LEVEL0
 62
     0
 10
0.0
 20
0.0
 30
0.0
 11
2.5
 21
0.0
 31
0.0
  0
LINE
  5
197
  8
LEVEL0
 62
     0
 10
0.0
 20
2.5
 30
0.0
 11
0.0
 21
2.75
 31
0.0
  0
LINE
  5
198
  8
LEVEL0
 62
     0
 10
-2.5
 20
0.0
 30
0.0
 11
-2.75
 21
0.0
 31
0.0
  0
LINE
  5
199
  8
LEVEL0
 62
     0
 10
0.0
 20
-2.5
 30
0.0
 11
0.0
 21
-2.75
 31
0.0
  0
LINE
  5
19A
  8
LEVEL0
 62
     0
 10
2.5
 20
0.0
 30
0.0
 11
2.75
 21
0.0
 31
0.0
  0
ENDBLK
  5
192
  8
0
  0
ENDSEC
  0
SECTION
  2
ENTITIES
  0
INSERT
  5
AD
  8
LEVEL0
  2
SW_NOTE_0
 10
17.3275719645
 20
258.4533182869
 30
0.0
  0
CIRCLE
  5
AE
  8
0
  6
CONTINUOUS
 62
     7
 10
42.0335981844
 20
220.4733298742
 30
0.0
 40
0.25
  0
CIRCLE
  5
AF
  8
0
  6
CONTINUOUS
 62
     7
 10
183.5335981844
 20
220.4733298742
 30
0.0
 40
0.2499999999999716
  0
CIRCLE
  5
B0
  8
0
  6
CONTINUOUS
 62
     7
 10
183.5335981844
 20
80.9733298742
 30
0.0
 40
0.2499999999999716
  0
CIRCLE
  5
B1
  8
0
  6
CONTINUOUS
 62
     7
 10
42.0335981844
 20
80.9733298742
 30
0.0
 40
0.25
  0
ARC
  5
B2
  8
0
  6
CONTINUOUS
 62
     7
 10
172.4335981844
 20
92.0483298742
 30
0.0
 40
1.400000000000006
 50
270.0
 51
0.0
  0
LINE
  5
B3
  8
0
  6
CONTINUOUS
 62
     7
 10
173.8335997162
 20
209.3483280324
 30
0.0
 11
173.8335997162
 21
92.048331716
 31
0.0
  0
ARC
  5
B4
  8
0
  6
CONTINUOUS
 62
     7
 10
172.4335981844
 20
209.3483298742
 30
0.0
 40
1.400000000000006
 50
0.0
 51
90.0
  0
LINE
  5
B5
  8
0
  6
CONTINUOUS
 62
     7
 10
53.1335979996
 20
210.7483293795
 30
0.0
 11
172.4335983692
 21
210.7483293795
 31
0.0
  0
ARC
  5
B6
  8
0
  6
CONTINUOUS
 62
     7
 10
53.1335981844
 20
209.3483298742
 30
0.0
 40
1.399999999999999
 50
90.0
 51
180.0
  0
LINE
  5
B7
  8
0
  6
CONTINUOUS
 62
     7
 10
51.7335966526
 20
92.048331716
 30
0.0
 11
51.7335966526
 21
209.3483280324
 31
0.0
  0
ARC
  5
B8
  8
0
  6
CONTINUOUS
 62
     7
 10
53.1335981844
 20
92.0483298742
 30
0.0
 40
1.400000000000006
 50
180.0
 51
270.0
  0
LINE
  5
B9
  8
0
  6
CONTINUOUS
 62
     7
 10
172.4335983692
 20
90.6483303689
 30
0.0
 11
53.1335979996
 21
90.6483303689
 31
0.0
  0
LINE
  5
BA
  8
LEVEL0
 10
112.7835981844
 20
210.5483298742
 30
0.0
 11
112.7835981844
 21
232.6875481836
 31
0.0
  0
LINE
  5
BB
  8
LEVEL0
 10
112.7835981844
 20
210.5483298742
 30
0.0
 11
112.7835981844
 21
71.373821489
 31
0.0
  0
LINE
  5
BC
  8
LEVEL0
 10
75.1785981844
 20
150.6983298742
 30
0.0
 11
181.5654682475
 21
150.6983298742
 31
0.0
  0
LINE
  5
BD
  8
LEVEL0
 10
75.1785981844
 20
150.6983298742
 30
0.0
 11
42.0605932831
 21
150.6983298742
 31
0.0
  0
DIMENSION
  5
BE
  8
LEVEL0
  2
_D
 10
183.7208860992
 20
220.3077302456
 30
0.0
 11
150.5904204122
 21
233.3442877338
 31
0.0
 70
   163
  1
(X4) MARK SCREW POSITIONS
  3
SLDDIMSTYLE0
 15
183.3463102696
 25
220.6389295027
 35
0.0
 40
0.0
  0
DIMENSION
  5
D2
  8
LEVEL0
  2
_D_1
 10
26.1545193072
 20
80.9733298742
 30
0.0
 11
26.1545193072
 21
149.4701604276
 31
0.0
 70
   160
  1
<>
  3
SLDDIMSTYLE1
 13
39.2835981844
 23
220.4733298742
 33
0.0
 14
39.2835981844
 24
80.9733298742
 34
0.0
 50
90.0
  0
DIMENSION
  5
E6
  8
LEVEL0
  2
_D_2
 10
183.5335981844
 20
56.8827214799
 30
0.0
 11
113.6496491128
 21
56.8827214799
 31
0.0
 70
   160
  1
<>
  3
SLDDIMSTYLE1
 13
42.0335981844
 23
78.2233298742
 33
0.0
 14
183.5335981844
 24
78.2233298742
 34
0.0
 50
0.0
  0
DIMENSION
  5
F9
  8
LEVEL0
  2
_D_3
 10
173.8335981844
 20
67.0673397641
 30
0.0
 11
128.9265765391
 21
67.0673397641
 31
0.0
 70
   160
  1
<>
  3
SLDDIMSTYLE2
 13
51.7335981844
 23
92.0483298742
 33
0.0
 14
173.8335981844
 24
92.0483298742
 34
0.0
  0
DIMENSION
  5
117
  8
LEVEL0
  2
_D_4
 10
44.209069902
 20
210.7483298742
 30
0.0
 11
44.209069902
 21
171.691145775
 31
0.0
 70
   160
  1
<>
  3
SLDDIMSTYLE2
 13
53.1335981844
 23
90.6483298742
 33
0.0
 14
53.1335981844
 24
210.7483298742
 34
0.0
 50
90.0
  0
DIMENSION
  5
134
  8
LEVEL0
  2
_D_5
 10
33.3242692138
 20
80.9733298742
 30
0.0
 11
33.3242692138
 21
74.1467669755
 31
0.0
 70
   160
  1
<>
  3
SLDDIMSTYLE1
 13
53.1335981844
 23
90.6483298742
 33
0.0
 14
39.2835981844
 24
80.9733298742
 34
0.0
 50
90.0
  0
DIMENSION
  5
148
  8
LEVEL0
  2
_D_6
 10
51.7335981844
 20
56.8827214799
 30
0.0
 11
33.3242692138
 21
56.8827214799
 31
0.0
 70
   160
  1
<>
  3
SLDDIMSTYLE1
 13
42.0335981844
 23
78.2233298742
 33
0.0
 14
51.7335981844
 24
92.0483298742
 34
0.0
  0
DIMENSION
  5
15C
  8
LEVEL0
  2
_D_7
 10
172.4335981844
 20
92.0483298742
 30
0.0
 11
160.8456547007
 21
103.6362933579
 31
0.0
 70
   164
  1
<>
  3
SLDDIMSTYLE3
 15
173.4235476781
 25
91.0583803805
 35
0.0
 40
0.0
  0
INSERT
  5
177
  8
LEVEL0
  2
SW_CENTERMARKSYMBOL_0
 10
183.5335981844
 20
220.4733298742
 30
0.0
  0
INSERT
  5
183
  8
LEVEL0
  2
SW_CENTERMARKSYMBOL_1
 10
42.0335981844
 20
220.4733298742
 30
0.0
  0
INSERT
  5
18F
  8
LEVEL0
  2
SW_CENTERMARKSYMBOL_2
 10
42.0335981844
 20
80.9733298742
 30
0.0
  0
INSERT
  5
19B
  8
LEVEL0
  2
SW_CENTERMARKSYMBOL_3
 10
183.5335981844
 20
80.9733298742
 30
0.0
  0
ENDSEC
  0
EOF
