  0
SECTION
  2
HEADER
  9
$ACADVER
  1
AC1009
  9
$DWGCODEPAGE
  3
ansi_1255
  9
$INSBASE
 10
0.0
 20
0.0
 30
0.0
  9
$EXTMIN
 10
0.0
 20
0.0
 30
0.0
  9
$EXTMAX
 10
210.0
 20
297.0
 30
0.0
  9
$LIMMIN
 10
0.0
 20
0.0
  9
$LIMMAX
 10
210.0
 20
297.0
  9
$ORTHOMODE
 70
     0
  9
$REGENMODE
 70
     1
  9
$FILLMODE
 70
     1
  9
$QTEXTMODE
 70
     0
  9
$MIRRTEXT
 70
     1
  9
$DRAGMODE
 70
     2
  9
$LTSCALE
 40
1.0
  9
$OSMODE
 70
    37
  9
$ATTMODE
 70
     1
  9
$TEXTSIZE
 40
2.0
  9
$TRACEWID
 40
1.0
  9
$TEXTSTYLE
  7
STANDARD
  9
$CLAYER
  8
0
  9
$CELTYPE
  6
BYLAYER
  9
$CECOLOR
 62
   256
  9
$DIMSCALE
 40
1.0
  9
$DIMASZ
 40
2.0
  9
$DIMEXO
 40
1.0
  9
$DIMDLI
 40
3.75
  9
$DIMRND
 40
0.0
  9
$DIMDLE
 40
0.0
  9
$DIMEXE
 40
1.0
  9
$DIMTP
 40
0.0
  9
$DIMTM
 40
0.0
  9
$DIMTXT
 40
2.0
  9
$DIMCEN
 40
2.5
  9
$DIMTSZ
 40
0.0
  9
$DIMTOL
 70
     0
  9
$DIMLIM
 70
     0
  9
$DIMTIH
 70
     1
  9
$DIMTOH
 70
     1
  9
$DIMSE1
 70
     0
  9
$DIMSE2
 70
     0
  9
$DIMTAD
 70
     1
  9
$DIMZIN
 70
     0
  9
$DIMBLK
  1

  9
$DIMASO
 70
     1
  9
$DIMSHO
 70
     1
  9
$DIMPOST
  1

  9
$DIMAPOST
  1

  9
$DIMALT
 70
     0
  9
$DIMALTD
 70
     3
  9
$DIMALTF
 40
0.0393700787
  9
$DIMLFAC
 40
1.0
  9
$DIMTOFL
 70
     1
  9
$DIMTVP
 40
0.0
  9
$DIMTIX
 70
     0
  9
$DIMSOXD
 70
     0
  9
$DIMSAH
 70
     0
  9
$DIMBLK1
  1

  9
$DIMBLK2
  1

  9
$DIMSTYLE
  2
ISO-25
  9
$DIMCLRD
 70
     0
  9
$DIMCLRE
 70
     0
  9
$DIMCLRT
 70
     0
  9
$DIMTFAC
 40
1.0
  9
$DIMGAP
 40
1.524
  9
$LUNITS
 70
     2
  9
$LUPREC
 70
     2
  9
$SKETCHINC
 40
1.0
  9
$FILLETRAD
 40
10.0
  9
$AUNITS
 70
     0
  9
$AUPREC
 70
     2
  9
$MENU
  1
.
  9
$ELEVATION
 40
0.0
  9
$PELEVATION
 40
0.0
  9
$THICKNESS
 40
0.0
  9
$LIMCHECK
 70
     0
  9
$CHAMFERA
 40
0.0
  9
$CHAMFERB
 40
0.0
  9
$SKPOLY
 70
     0
  9
$TDCREATE
 40
2458091.467922465
  9
$TDUPDATE
 40
2458091.467923461
  9
$TDINDWG
 40
0.0000000116
  9
$TDUSRTIMER
 40
0.0000000116
  9
$USRTIMER
 70
     1
  9
$ANGBASE
 50
0.0
  9
$ANGDIR
 70
     0
  9
$PDMODE
 70
     0
  9
$PDSIZE
 40
-1.0
  9
$PLINEWID
 40
0.0
  9
$COORDS
 70
     1
  9
$SPLFRAME
 70
     0
  9
$SPLINETYPE
 70
     6
  9
$SPLINESEGS
 70
     8
  9
$ATTDIA
 70
     0
  9
$ATTREQ
 70
     1
  9
$HANDLING
 70
     1
  9
$HANDSEED
  5
174
  9
$SURFTAB1
 70
     6
  9
$SURFTAB2
 70
     6
  9
$SURFTYPE
 70
     6
  9
$SURFU
 70
     6
  9
$SURFV
 70
     6
  9
$UCSNAME
  2

  9
$UCSORG
 10
0.0
 20
0.0
 30
0.0
  9
$UCSXDIR
 10
1.0
 20
0.0
 30
0.0
  9
$UCSYDIR
 10
0.0
 20
1.0
 30
0.0
  9
$PUCSNAME
  2

  9
$PUCSORG
 10
0.0
 20
0.0
 30
0.0
  9
$PUCSXDIR
 10
1.0
 20
0.0
 30
0.0
  9
$PUCSYDIR
 10
0.0
 20
1.0
 30
0.0
  9
$USERI1
 70
     0
  9
$USERI2
 70
     0
  9
$USERI3
 70
     0
  9
$USERI4
 70
     0
  9
$USERI5
 70
     0
  9
$USERR1
 40
0.0
  9
$USERR2
 40
0.0
  9
$USERR3
 40
0.0
  9
$USERR4
 40
0.0
  9
$USERR5
 40
0.0
  9
$WORLDVIEW
 70
     1
  9
$SHADEDGE
 70
     3
  9
$SHADEDIF
 70
    70
  9
$TILEMODE
 70
     1
  9
$MAXACTVP
 70
    64
  9
$PLIMCHECK
 70
     0
  9
$PEXTMIN
 10
1.0000000000E+20
 20
1.0000000000E+20
 30
1.0000000000E+20
  9
$PEXTMAX
 10
-1.0000000000E+20
 20
-1.0000000000E+20
 30
-1.0000000000E+20
  9
$PLIMMIN
 10
0.0
 20
0.0
  9
$PLIMMAX
 10
420.0
 20
297.0
  9
$UNITMODE
 70
     0
  9
$VISRETAIN
 70
     1
  9
$PLINEGEN
 70
     0
  9
$PSLTSCALE
 70
     1
  0
ENDSEC
  0
SECTION
  2
TABLES
  0
TABLE
  2
VPORT
 70
     1
  0
VPORT
  2
*ACTIVE
 70
     0
 10
0.0
 20
0.0
 11
1.0
 21
1.0
 12
105.0
 22
148.5
 13
0.0
 23
0.0
 14
10.0
 24
10.0
 15
10.0
 25
10.0
 16
0.0
 26
0.0
 36
1.0
 17
0.0
 27
0.0
 37
0.0
 40
297.0
 41
0.7070707071
 42
50.0
 43
0.0
 44
0.0
 50
0.0
 51
0.0
 71
     0
 72
  2000
 73
     1
 74
     3
 75
     0
 76
     0
 77
     0
 78
     0
  0
ENDTAB
  0
TABLE
  2
LTYPE
 70
     6
  0
LTYPE
  2
CONTINUOUS
 70
     0
  3
Solid line
 72
    65
 73
     0
 40
0.0
  0
LTYPE
  2
HIDDEN
 70
     0
  3
Hidden __ __ __ __ __ __ __ __ __ __ __ __ __ __
 72
    65
 73
     2
 40
1.905
 49
1.27
 49
-0.635
  0
LTYPE
  2
PHANTOM
 70
     0
  3
Phantom ______  __  __  ______  __  __  ______
 72
    65
 73
     6
 40
12.7
 49
6.35
 49
-1.27
 49
1.27
 49
-1.27
 49
1.27
 49
-1.27
  0
LTYPE
  2
CENTER
 70
     0
  3
Center ____ _ ____ _ ____ _ ____ _ ____ _ ____
 72
    65
 73
     4
 40
10.16
 49
6.35
 49
-1.27
 49
1.27
 49
-1.27
  0
LTYPE
  2
CENTERX2
 70
     0
  3
Center (2x) ________  __  ________  __  _____
 72
    65
 73
     4
 40
20.32
 49
12.7
 49
-2.54
 49
2.54
 49
-2.54
  0
LTYPE
  2
DOT2
 70
     0
  3
Dot (.5x) ........................................
 72
    65
 73
     2
 40
0.635
 49
0.0
 49
-0.635
  0
ENDTAB
  0
TABLE
  2
LAYER
 70
    53
  0
LAYER
  2
0
 70
     0
 62
     7
  6
CONTINUOUS
  0
LAYER
  2
SLD-0
 70
     0
 62
     7
  6
CONTINUOUS
  0
LAYER
  2
LEVEL0
 70
     0
 62
     7
  6
CONTINUOUS
  0
LAYER
  2
1
 70
     0
 62
     7
  6
CONTINUOUS
  0
LAYER
  2
2
 70
     0
 62
     7
  6
CONTINUOUS
  0
LAYER
  2
3
 70
     0
 62
     7
  6
CONTINUOUS
  0
LAYER
  2
4
 70
     0
 62
     7
  6
CONTINUOUS
  0
LAYER
  2
5
 70
     0
 62
     7
  6
CONTINUOUS
  0
LAYER
  2
6
 70
     0
 62
     7
  6
CONTINUOUS
  0
LAYER
  2
7
 70
     0
 62
     7
  6
CONTINUOUS
  0
LAYER
  2
8
 70
     0
 62
     7
  6
CONTINUOUS
  0
LAYER
  2
9
 70
     0
 62
     7
  6
CONTINUOUS
  0
LAYER
  2
10
 70
     0
 62
     7
  6
CONTINUOUS
  0
LAYER
  2
11
 70
     0
 62
     7
  6
CONTINUOUS
  0
LAYER
  2
12
 70
     0
 62
     7
  6
CONTINUOUS
  0
LAYER
  2
13
 70
     0
 62
     7
  6
CONTINUOUS
  0
LAYER
  2
14
 70
     0
 62
     7
  6
CONTINUOUS
  0
LAYER
  2
15
 70
     0
 62
     7
  6
CONTINUOUS
  0
LAYER
  2
16
 70
     0
 62
     7
  6
CONTINUOUS
  0
LAYER
  2
17
 70
     0
 62
     7
  6
CONTINUOUS
  0
LAYER
  2
18
 70
     0
 62
     7
  6
CONTINUOUS
  0
LAYER
  2
19
 70
     0
 62
     7
  6
CONTINUOUS
  0
LAYER
  2
20
 70
     0
 62
     7
  6
CONTINUOUS
  0
LAYER
  2
21
 70
     0
 62
     7
  6
CONTINUOUS
  0
LAYER
  2
22
 70
     0
 62
     7
  6
CONTINUOUS
  0
LAYER
  2
23
 70
     0
 62
     7
  6
CONTINUOUS
  0
LAYER
  2
24
 70
     0
 62
     7
  6
CONTINUOUS
  0
LAYER
  2
25
 70
     0
 62
     7
  6
CONTINUOUS
  0
LAYER
  2
26
 70
     0
 62
     7
  6
CONTINUOUS
  0
LAYER
  2
27
 70
     0
 62
     7
  6
CONTINUOUS
  0
LAYER
  2
28
 70
     0
 62
     7
  6
CONTINUOUS
  0
LAYER
  2
29
 70
     0
 62
     7
  6
CONTINUOUS
  0
LAYER
  2
30
 70
     0
 62
     7
  6
CONTINUOUS
  0
LAYER
  2
31
 70
     0
 62
     7
  6
CONTINUOUS
  0
LAYER
  2
32
 70
     0
 62
     7
  6
CONTINUOUS
  0
LAYER
  2
33
 70
     0
 62
     7
  6
CONTINUOUS
  0
LAYER
  2
34
 70
     0
 62
     7
  6
CONTINUOUS
  0
LAYER
  2
35
 70
     0
 62
     7
  6
CONTINUOUS
  0
LAYER
  2
36
 70
     0
 62
     7
  6
CONTINUOUS
  0
LAYER
  2
37
 70
     0
 62
     7
  6
CONTINUOUS
  0
LAYER
  2
38
 70
     0
 62
     7
  6
CONTINUOUS
  0
LAYER
  2
39
 70
     0
 62
     7
  6
CONTINUOUS
  0
LAYER
  2
40
 70
     0
 62
     7
  6
CONTINUOUS
  0
LAYER
  2
41
 70
     0
 62
     7
  6
CONTINUOUS
  0
LAYER
  2
42
 70
     0
 62
     7
  6
CONTINUOUS
  0
LAYER
  2
43
 70
     0
 62
     7
  6
CONTINUOUS
  0
LAYER
  2
44
 70
     0
 62
     7
  6
CONTINUOUS
  0
LAYER
  2
45
 70
     0
 62
     7
  6
CONTINUOUS
  0
LAYER
  2
46
 70
     0
 62
     7
  6
CONTINUOUS
  0
LAYER
  2
47
 70
     0
 62
     7
  6
CONTINUOUS
  0
LAYER
  2
48
 70
     0
 62
     7
  6
CONTINUOUS
  0
LAYER
  2
49
 70
     0
 62
     7
  6
CONTINUOUS
  0
LAYER
  2
50
 70
     0
 62
     7
  6
CONTINUOUS
  0
ENDTAB
  0
TABLE
  2
STYLE
 70
     1
  0
STYLE
  2
STANDARD
 70
     0
 40
0.0
 41
1.0
 50
0.0
 71
     0
 42
2.0
  3
txt
  4

  0
ENDTAB
  0
TABLE
  2
VIEW
 70
     0
  0
ENDTAB
  0
TABLE
  2
UCS
 70
     0
  0
ENDTAB
  0
TABLE
  2
APPID
 70
     1
  0
APPID
  2
ACAD
 70
     0
  0
ENDTAB
  0
TABLE
  2
DIMSTYLE
 70
     3
  0
DIMSTYLE
  2
ISO-25
 70
     0
  3

  4

  5

  6

  7

 40
1.0
 41
2.5
 42
0.625
 43
3.75
 44
1.25
 45
0.0
 46
0.0
 47
0.0
 48
0.0
140
2.5
141
2.5
142
0.0
143
0.0393700787
144
1.0
145
0.0
146
1.0
147
0.625
 71
     0
 72
     0
 73
     0
 74
     0
 75
     0
 76
     0
 77
     1
 78
     8
170
     0
171
     3
172
     1
173
     0
174
     0
175
     0
176
     0
177
     0
178
     0
  0
DIMSTYLE
  2
SLDDIMSTYLE0
 70
     0
  3

  4

  5

  6
CLOSED
  7
CLOSED
 40
1.0
 41
2.0
 42
0.0625
 43
0.38
 44
0.0
 45
0.000000001
 46
0.0
 47
0.0
 48
0.0
140
2.0
141
0.09
142
0.0
143
0.0393700787
144
1.0
145
0.0
146
1.0
147
0.5
 71
     0
 72
     0
 73
     0
 74
     0
 75
     0
 76
     0
 77
     1
 78
    12
170
     1
171
     2
172
     0
173
     1
174
     0
175
     0
176
     0
177
     0
178
     0
  0
DIMSTYLE
  2
SLDDIMSTYLE1
 70
     0
  3

  4

  5

  6
CLOSED
  7
CLOSED
 40
1.0
 41
2.0
 42
0.0625
 43
0.38
 44
0.0
 45
0.000000001
 46
0.0
 47
0.3
 48
0.2
140
2.0
141
0.09
142
0.0
143
0.0393700787
144
1.0
145
0.0
146
1.0
147
0.5
 71
     1
 72
     0
 73
     0
 74
     0
 75
     0
 76
     0
 77
     1
 78
    12
170
     1
171
     3
172
     0
173
     1
174
     0
175
     0
176
     0
177
     0
178
     0
  0
ENDTAB
  0
ENDSEC
  0
SECTION
  2
BLOCKS
  0
BLOCK
  8
0
  2
$MODEL_SPACE
 70
     0
 10
0.0
 20
0.0
 30
0.0
  3
$MODEL_SPACE
  1

  0
ENDBLK
  5
21
  8
0
  0
BLOCK
 67
     1
  8
0
  2
$PAPER_SPACE
 70
     0
 10
0.0
 20
0.0
 30
0.0
  3
$PAPER_SPACE
  1

  0
ENDBLK
  5
1D
 67
     1
  8
0
  0
BLOCK
  8
0
  2
_CLOSED
 70
     0
 10
0.0
 20
0.0
 30
0.0
  3
_CLOSED
  1

  0
LINE
  5
B4
  8
0
  6
BYBLOCK
 62
     0
 10
-1.0
 20
0.166667
 30
0.0
 11
0.0
 21
0.0
 31
0.0
  0
LINE
  5
B5
  8
0
  6
BYBLOCK
 62
     0
 10
0.0
 20
0.0
 30
0.0
 11
-1.0
 21
-0.166667
 31
0.0
  0
LINE
  5
B6
  8
0
  6
BYBLOCK
 62
     0
 10
-1.0
 20
0.166667
 30
0.0
 11
-1.0
 21
-0.166667
 31
0.0
  0
LINE
  5
B7
  8
0
  6
BYBLOCK
 62
     0
 10
0.0
 20
0.0
 30
0.0
 11
-1.0
 21
0.0
 31
0.0
  0
ENDBLK
  5
B3
  8
0
  0
BLOCK
  8
0
  2
_D
 70
     0
 10
0.0
 20
0.0
 30
0.0
  3
_D
  1

  0
INSERT
  5
BB
  8
LEVEL0
  2
_CLOSED
 10
62.4831348278
 20
216.0266641608
 30
8.55
 41
2.0
 42
2.0
 50
180.0
  0
INSERT
  5
BC
  8
LEVEL0
  2
_CLOSED
 10
166.1231348278
 20
216.0266641608
 30
8.55
 41
2.0
 42
2.0
 50
0.0
  0
LINE
  5
BD
  8
LEVEL0
 10
113.5354980047
 20
222.1940252079
 30
0.0
 11
113.1292479964
 21
222.1940252079
 31
0.0
  0
LINE
  5
BE
  8
LEVEL0
 10
113.1292479964
 20
222.1940252079
 30
0.0
 11
113.1292479964
 21
219.0190252463
 31
0.0
  0
LINE
  5
BF
  8
LEVEL0
 10
113.1292479964
 20
219.0190252463
 30
0.0
 11
113.5354980047
 21
219.0190252463
 31
0.0
  0
LINE
  5
C0
  8
LEVEL0
 10
119.7233449471
 20
222.1940252079
 30
0.0
 11
120.1295949555
 21
222.1940252079
 31
0.0
  0
LINE
  5
C1
  8
LEVEL0
 10
120.1295949555
 20
222.1940252079
 30
0.0
 11
120.1295949555
 21
219.0190252463
 31
0.0
  0
LINE
  5
C2
  8
LEVEL0
 10
120.1295949555
 20
219.0190252463
 30
0.0
 11
119.7233449471
 21
219.0190252463
 31
0.0
  0
LINE
  5
C3
  8
LEVEL0
 10
62.4831348278
 20
209.6445344702
 30
0.0
 11
62.4831348278
 21
217.0266641608
 31
0.0
  0
LINE
  5
C4
  8
LEVEL0
 10
166.1231348278
 20
209.6445344702
 30
0.0
 11
166.1231348278
 21
217.0266641608
 31
0.0
  0
LINE
  5
C5
  8
LEVEL0
 10
62.4831348278
 20
216.0266641608
 30
0.0
 11
166.1231348278
 21
216.0266641608
 31
0.0
  0
TEXT
  5
C6
  8
LEVEL0
 10
111.346782765
 20
216.7637398141
 30
8.55
 40
2.0
  1
  
 50
360.0
 41
0.7
 11
111.346782765
 21
216.0572196903
 31
8.55
 73
     1
  0
TEXT
  5
C7
  8
LEVEL0
 10
114.0433105152
 20
219.7255453701
 30
8.55
 40
2.0
  1
4.08
 50
360.0
 41
0.7
 11
114.0433105152
 21
219.0190252463
 31
8.55
 73
     1
  0
TEXT
  5
C8
  8
LEVEL0
 10
113.3044216527
 20
216.7331840518
 30
8.55
 40
2.0
  1
103.6
 50
360.0
 41
0.7
 11
113.3044216527
 21
216.026663928
 31
8.55
 73
     1
  0
TEXT
  5
C9
  8
LEVEL0
 10
120.4342829274
 20
216.7637398141
 30
8.55
 40
2.0
  1
  
 50
360.0
 41
0.7
 11
120.4342829274
 21
216.0572196903
 31
8.55
 73
     1
  0
ENDBLK
  5
BA
  8
0
  0
BLOCK
  8
0
  2
_D_1
 70
     0
 10
0.0
 20
0.0
 30
0.0
  3
_D_1
  1

  0
INSERT
  5
CE
  8
LEVEL0
  2
_CLOSED
 10
55.6271851966
 20
205.1445344702
 30
8.55
 41
2.0
 42
2.0
 50
90.0
  0
INSERT
  5
CF
  8
LEVEL0
  2
_CLOSED
 10
55.6271851966
 20
101.5045344702
 30
8.55
 41
2.0
 42
2.0
 50
270.0
  0
LINE
  5
D0
  8
LEVEL0
 10
49.4598241495
 20
148.4334608273
 30
0.0
 11
49.4598241495
 21
148.0272108189
 31
0.0
  0
LINE
  5
D1
  8
LEVEL0
 10
49.4598241495
 20
148.0272108189
 30
0.0
 11
52.6348241111
 21
148.0272108189
 31
0.0
  0
LINE
  5
D2
  8
LEVEL0
 10
52.6348241111
 20
148.0272108189
 30
0.0
 11
52.6348241111
 21
148.4334608273
 31
0.0
  0
LINE
  5
D3
  8
LEVEL0
 10
49.4598241495
 20
154.6213077696
 30
0.0
 11
49.4598241495
 21
155.027557778
 31
0.0
  0
LINE
  5
D4
  8
LEVEL0
 10
49.4598241495
 20
155.027557778
 30
0.0
 11
52.6348241111
 21
155.027557778
 31
0.0
  0
LINE
  5
D5
  8
LEVEL0
 10
52.6348241111
 20
155.027557778
 30
0.0
 11
52.6348241111
 21
154.6213077696
 31
0.0
  0
LINE
  5
D6
  8
LEVEL0
 10
57.9831348278
 20
205.1445344702
 30
0.0
 11
54.6271851966
 21
205.1445344702
 31
0.0
  0
LINE
  5
D7
  8
LEVEL0
 10
57.9831348278
 20
101.5045344702
 30
0.0
 11
54.6271851966
 21
101.5045344702
 31
0.0
  0
LINE
  5
D8
  8
LEVEL0
 10
55.6271851966
 20
205.1445344702
 30
0.0
 11
55.6271851966
 21
101.5045344702
 31
0.0
  0
TEXT
  5
D9
  8
LEVEL0
 10
54.8901095432
 20
146.2447455875
 30
8.55
 40
2.0
  1
  
 50
90.0
 41
0.7
 11
55.5966296671
 21
146.2447455875
 31
8.55
 73
     1
  0
TEXT
  5
DA
  8
LEVEL0
 10
51.9283039873
 20
148.9412733377
 30
8.55
 40
2.0
  1
4.08
 50
90.0
 41
0.7
 11
52.6348241111
 21
148.9412733377
 31
8.55
 73
     1
  0
TEXT
  5
DB
  8
LEVEL0
 10
54.9206653056
 20
148.2023844752
 30
8.55
 40
2.0
  1
103.6
 50
90.0
 41
0.7
 11
55.6271854294
 21
148.2023844752
 31
8.55
 73
     1
  0
TEXT
  5
DC
  8
LEVEL0
 10
54.8901095432
 20
155.3322457499
 30
8.55
 40
2.0
  1
  
 50
90.0
 41
0.7
 11
55.5966296671
 21
155.3322457499
 31
8.55
 73
     1
  0
ENDBLK
  5
CD
  8
0
  0
BLOCK
  8
0
  2
_D_2
 70
     0
 10
0.0
 20
0.0
 30
0.0
  3
_D_2
  1

  0
INSERT
  5
E1
  8
LEVEL0
  2
_CLOSED
 10
67.1478850046
 20
205.1445344702
 30
8.55
 41
2.0
 42
2.0
 50
90.0
  0
INSERT
  5
E2
  8
LEVEL0
  2
_CLOSED
 10
67.1478850046
 20
197.1445344702
 30
8.55
 41
2.0
 42
2.0
 50
270.0
  0
LINE
  5
E3
  8
LEVEL0
 10
60.9805239575
 20
185.5927472333
 30
0.0
 11
60.9805239575
 21
185.1864972249
 31
0.0
  0
LINE
  5
E4
  8
LEVEL0
 10
60.9805239575
 20
185.1864972249
 30
0.0
 11
64.1555239192
 21
185.1864972249
 31
0.0
  0
LINE
  5
E5
  8
LEVEL0
 10
64.1555239192
 20
185.1864972249
 30
0.0
 11
64.1555239192
 21
185.5927472333
 31
0.0
  0
LINE
  5
E6
  8
LEVEL0
 10
60.9805239575
 20
191.7805941757
 30
0.0
 11
60.9805239575
 21
192.186844184
 31
0.0
  0
LINE
  5
E7
  8
LEVEL0
 10
60.9805239575
 20
192.186844184
 30
0.0
 11
64.1555239192
 21
192.186844184
 31
0.0
  0
LINE
  5
E8
  8
LEVEL0
 10
64.1555239192
 20
192.186844184
 30
0.0
 11
64.1555239192
 21
191.7805941757
 31
0.0
  0
LINE
  5
E9
  8
LEVEL0
 10
66.9831348278
 20
205.1445344702
 30
0.0
 11
68.1478850046
 21
205.1445344702
 31
0.0
  0
LINE
  5
EA
  8
LEVEL0
 10
69.4831348278
 20
197.1445344702
 30
0.0
 11
66.1478850046
 21
197.1445344702
 31
0.0
  0
LINE
  5
EB
  8
LEVEL0
 10
67.1478850046
 20
205.1445344702
 30
0.0
 11
67.1478850046
 21
197.1445344702
 31
0.0
  0
LINE
  5
EC
  8
LEVEL0
 10
67.1478850046
 20
197.1445344702
 30
0.0
 11
67.1478850046
 21
183.4040319936
 31
0.0
  0
TEXT
  5
ED
  8
LEVEL0
 10
66.4108093513
 20
183.4040319936
 30
8.55
 40
2.0
  1
  
 50
90.0
 41
0.7
 11
67.1173294751
 21
183.4040319936
 31
8.55
 73
     1
  0
TEXT
  5
EE
  8
LEVEL0
 10
63.4490037953
 20
186.1005597438
 30
8.55
 40
2.0
  1
0.31
 50
90.0
 41
0.7
 11
64.1555239192
 21
186.1005597438
 31
8.55
 73
     1
  0
TEXT
  5
EF
  8
LEVEL0
 10
66.4413651136
 20
187.9477819584
 30
8.55
 40
2.0
  1
8
 50
90.0
 41
0.7
 11
67.1478852375
 21
187.9477819584
 31
8.55
 73
     1
  0
TEXT
  5
F0
  8
LEVEL0
 10
66.4108093513
 20
192.491532156
 30
8.55
 40
2.0
  1
  
 50
90.0
 41
0.7
 11
67.1173294751
 21
192.491532156
 31
8.55
 73
     1
  0
ENDBLK
  5
E0
  8
0
  0
BLOCK
  8
0
  2
_D_3
 70
     0
 10
0.0
 20
0.0
 30
0.0
  3
_D_3
  1

  0
INSERT
  5
F5
  8
LEVEL0
  2
_CLOSED
 10
62.4831348278
 20
94.9220468063
 30
8.55
 41
2.0
 42
2.0
 50
180.0
  0
INSERT
  5
F6
  8
LEVEL0
  2
_CLOSED
 10
70.4831348278
 20
94.9220468063
 30
8.55
 41
2.0
 42
2.0
 50
0.0
  0
LINE
  5
F7
  8
LEVEL0
 10
75.6060709478
 20
101.0894078534
 30
0.0
 11
75.1998209394
 21
101.0894078534
 31
0.0
  0
LINE
  5
F8
  8
LEVEL0
 10
75.1998209394
 20
101.0894078534
 30
0.0
 11
75.1998209394
 21
97.9144078918
 31
0.0
  0
LINE
  5
F9
  8
LEVEL0
 10
75.1998209394
 20
97.9144078918
 30
0.0
 11
75.6060709478
 21
97.9144078918
 31
0.0
  0
LINE
  5
FA
  8
LEVEL0
 10
81.7939178901
 20
101.0894078534
 30
0.0
 11
82.2001678985
 21
101.0894078534
 31
0.0
  0
LINE
  5
FB
  8
LEVEL0
 10
82.2001678985
 20
101.0894078534
 30
0.0
 11
82.2001678985
 21
97.9144078918
 31
0.0
  0
LINE
  5
FC
  8
LEVEL0
 10
82.2001678985
 20
97.9144078918
 30
0.0
 11
81.7939178901
 21
97.9144078918
 31
0.0
  0
LINE
  5
FD
  8
LEVEL0
 10
62.4831348278
 20
97.0045344702
 30
0.0
 11
62.4831348278
 21
93.9220468063
 31
0.0
  0
LINE
  5
FE
  8
LEVEL0
 10
70.4831348278
 20
108.5045344702
 30
0.0
 11
70.4831348278
 21
93.9220468063
 31
0.0
  0
LINE
  5
FF
  8
LEVEL0
 10
62.4831348278
 20
94.9220468063
 30
0.0
 11
70.4831348278
 21
94.9220468063
 31
0.0
  0
LINE
  5
100
  8
LEVEL0
 10
70.4831348278
 20
94.9220468063
 30
0.0
 11
83.9826338284
 21
94.9220468063
 31
0.0
  0
TEXT
  5
101
  8
LEVEL0
 10
73.417355708
 20
95.6591224597
 30
8.55
 40
2.0
  1
  
 50
360.0
 41
0.7
 11
73.417355708
 21
94.9526023358
 31
8.55
 73
     1
  0
TEXT
  5
102
  8
LEVEL0
 10
76.1138834582
 20
98.6209280156
 30
8.55
 40
2.0
  1
0.31
 50
360.0
 41
0.7
 11
76.1138834582
 21
97.9144078918
 31
8.55
 73
     1
  0
TEXT
  5
103
  8
LEVEL0
 10
77.9611056728
 20
95.6285666973
 30
8.55
 40
2.0
  1
8
 50
360.0
 41
0.7
 11
77.9611056728
 21
94.9220465735
 31
8.55
 73
     1
  0
TEXT
  5
104
  8
LEVEL0
 10
82.5048558704
 20
95.6591224597
 30
8.55
 40
2.0
  1
  
 50
360.0
 41
0.7
 11
82.5048558704
 21
94.9526023358
 31
8.55
 73
     1
  0
ENDBLK
  5
F4
  8
0
  0
BLOCK
  8
0
  2
_D_4
 70
     0
 10
0.0
 20
0.0
 30
0.0
  3
_D_4
  1

  0
INSERT
  5
10A
  8
LEVEL0
  2
_CLOSED
 10
70.4831348278
 20
146.3624305636
 30
8.55
 41
2.0
 42
2.0
 50
180.0
  0
INSERT
  5
10B
  8
LEVEL0
  2
_CLOSED
 10
158.1231348278
 20
146.3624305636
 30
8.55
 41
2.0
 42
2.0
 50
0.0
  0
LINE
  5
10C
  8
LEVEL0
 10
108.2938315499
 20
157.1131252297
 30
0.0
 11
107.8875815415
 21
157.1131252297
 31
0.0
  0
LINE
  5
10D
  8
LEVEL0
 10
107.8875815415
 20
157.1131252297
 30
0.0
 11
107.8875815415
 21
151.9409028426
 31
0.0
  0
LINE
  5
10E
  8
LEVEL0
 10
107.8875815415
 20
151.9409028426
 30
0.0
 11
108.2938315499
 21
151.9409028426
 31
0.0
  0
LINE
  5
10F
  8
LEVEL0
 10
124.9650114019
 20
157.1131252297
 30
0.0
 11
125.3712614103
 21
157.1131252297
 31
0.0
  0
LINE
  5
110
  8
LEVEL0
 10
125.3712614103
 20
157.1131252297
 30
0.0
 11
125.3712614103
 21
151.9409028426
 31
0.0
  0
LINE
  5
111
  8
LEVEL0
 10
125.3712614103
 20
151.9409028426
 30
0.0
 11
124.9650114019
 21
151.9409028426
 31
0.0
  0
LINE
  5
112
  8
LEVEL0
 10
70.4831348278
 20
146.3624305636
 30
0.0
 11
158.1231348278
 21
146.3624305636
 31
0.0
  0
TEXT
  5
113
  8
LEVEL0
 10
106.1051163102
 20
147.099506217
 30
8.55
 40
2.0
  1
  
 50
360.0
 41
0.7
 11
106.1051163102
 21
146.3929860931
 31
8.55
 73
     1
  0
TEXT
  5
114
  8
LEVEL0
 10
108.8016440604
 20
152.677978496
 30
8.55
 40
2.0
  1
3.450
 50
360.0
 41
0.7
 11
108.8016440604
 21
151.9714583721
 31
8.55
 73
     1
  0
TEXT
  5
115
  8
LEVEL0
 10
115.4516439397
 20
152.677978496
 30
8.55
 40
2.0
  1
 
 50
360.0
 41
0.7
 11
115.4516439397
 21
151.9714583721
 31
8.55
 73
     1
  0
TEXT
  5
116
  8
LEVEL0
 10
116.1905329186
 20
155.23353416
 30
8.55
 40
2.0
  1
+
 50
360.0
 41
0.7
 11
116.1905329186
 21
154.5270140361
 31
8.55
 73
     1
  0
TEXT
  5
117
  8
LEVEL0
 10
116.5558107
 20
152.6474229664
 30
8.55
 40
2.0
  1
-
 50
360.0
 41
0.7
 11
116.5558107
 21
151.9409028426
 31
8.55
 73
     1
  0
TEXT
  5
118
  8
LEVEL0
 10
117.8071990121
 20
155.23353416
 30
8.55
 40
2.0
  1
0.012
 50
360.0
 41
0.7
 11
117.8071990121
 21
154.5270140361
 31
8.55
 73
     1
  0
TEXT
  5
119
  8
LEVEL0
 10
117.8071990121
 20
152.6474229664
 30
8.55
 40
2.0
  1
0.008
 50
360.0
 41
0.7
 11
117.8071990121
 21
151.9409028426
 31
8.55
 73
     1
  0
TEXT
  5
11A
  8
LEVEL0
 10
111.018310648
 20
147.0689502218
 30
8.55
 40
2.0
  1
87.6
 50
360.0
 41
0.7
 11
111.018310648
 21
146.3624300979
 31
8.55
 73
     1
  0
TEXT
  5
11B
  8
LEVEL0
 10
116.1905325694
 20
147.0689502218
 30
8.55
 40
2.0
  1
 
 50
360.0
 41
0.7
 11
116.1905325694
 21
146.3624300979
 31
8.55
 73
     1
  0
TEXT
  5
11C
  8
LEVEL0
 10
116.9294215484
 20
149.6550614153
 30
8.55
 40
2.0
  1
+
 50
360.0
 41
0.7
 11
116.9294215484
 21
148.9485412915
 31
8.55
 73
     1
  0
TEXT
  5
11D
  8
LEVEL0
 10
117.2946993297
 20
147.0689502218
 30
8.55
 40
2.0
  1
-
 50
360.0
 41
0.7
 11
117.2946993297
 21
146.3624300979
 31
8.55
 73
     1
  0
TEXT
  5
11E
  8
LEVEL0
 10
118.5460881075
 20
149.6550614153
 30
8.55
 40
2.0
  1
0.3
 50
360.0
 41
0.7
 11
118.5460881075
 21
148.9485412915
 31
8.55
 73
     1
  0
TEXT
  5
11F
  8
LEVEL0
 10
118.5460881075
 20
147.0689502218
 30
8.55
 40
2.0
  1
0.2
 50
360.0
 41
0.7
 11
118.5460881075
 21
146.3624300979
 31
8.55
 73
     1
  0
TEXT
  5
120
  8
LEVEL0
 10
125.6759493822
 20
147.099506217
 30
8.55
 40
2.0
  1
  
 50
360.0
 41
0.7
 11
125.6759493822
 21
146.3929860931
 31
8.55
 73
     1
  0
ENDBLK
  5
109
  8
0
  0
BLOCK
  8
0
  2
_D_5
 70
     0
 10
0.0
 20
0.0
 30
0.0
  3
_D_5
  1

  0
INSERT
  5
125
  8
LEVEL0
  2
_CLOSED
 10
95.5441817393
 20
197.1445344702
 30
8.55
 41
2.0
 42
2.0
 50
90.0
  0
INSERT
  5
126
  8
LEVEL0
  2
_CLOSED
 10
95.5441817393
 20
109.5045344702
 30
8.55
 41
2.0
 42
2.0
 50
270.0
  0
LINE
  5
127
  8
LEVEL0
 10
84.7934870732
 20
160.08539006
 30
0.0
 11
84.7934870732
 21
159.6791400516
 31
0.0
  0
LINE
  5
128
  8
LEVEL0
 10
84.7934870732
 20
159.6791400516
 30
0.0
 11
89.9657094602
 21
159.6791400516
 31
0.0
  0
LINE
  5
129
  8
LEVEL0
 10
89.9657094602
 20
159.6791400516
 30
0.0
 11
89.9657094602
 21
160.08539006
 31
0.0
  0
LINE
  5
12A
  8
LEVEL0
 10
84.7934870732
 20
176.7565699119
 30
0.0
 11
84.7934870732
 21
177.1628199203
 31
0.0
  0
LINE
  5
12B
  8
LEVEL0
 10
84.7934870732
 20
177.1628199203
 30
0.0
 11
89.9657094602
 21
177.1628199203
 31
0.0
  0
LINE
  5
12C
  8
LEVEL0
 10
89.9657094602
 20
177.1628199203
 30
0.0
 11
89.9657094602
 21
176.7565699119
 31
0.0
  0
LINE
  5
12D
  8
LEVEL0
 10
95.5441817393
 20
197.1445344702
 30
0.0
 11
95.5441817393
 21
109.5045344702
 31
0.0
  0
TEXT
  5
12E
  8
LEVEL0
 10
94.8071060859
 20
157.8966748202
 30
8.55
 40
2.0
  1
  
 50
90.0
 41
0.7
 11
95.5136262097
 21
157.8966748202
 31
8.55
 73
     1
  0
TEXT
  5
12F
  8
LEVEL0
 10
89.2286338069
 20
160.5932025704
 30
8.55
 40
2.0
  1
3.450
 50
90.0
 41
0.7
 11
89.9351539307
 21
160.5932025704
 31
8.55
 73
     1
  0
TEXT
  5
130
  8
LEVEL0
 10
89.2286338069
 20
167.2432024497
 30
8.55
 40
2.0
  1
 
 50
90.0
 41
0.7
 11
89.9351539307
 21
167.2432024497
 31
8.55
 73
     1
  0
TEXT
  5
131
  8
LEVEL0
 10
86.6730781429
 20
167.9820914287
 30
8.55
 40
2.0
  1
+
 50
90.0
 41
0.7
 11
87.3795982667
 21
167.9820914287
 31
8.55
 73
     1
  0
TEXT
  5
132
  8
LEVEL0
 10
89.2591893364
 20
168.3473692101
 30
8.55
 40
2.0
  1
-
 50
90.0
 41
0.7
 11
89.9657094602
 21
168.3473692101
 31
8.55
 73
     1
  0
TEXT
  5
133
  8
LEVEL0
 10
86.6730781429
 20
169.5987575222
 30
8.55
 40
2.0
  1
0.012
 50
90.0
 41
0.7
 11
87.3795982667
 21
169.5987575222
 31
8.55
 73
     1
  0
TEXT
  5
134
  8
LEVEL0
 10
89.2591893364
 20
169.5987575222
 30
8.55
 40
2.0
  1
0.008
 50
90.0
 41
0.7
 11
89.9657094602
 21
169.5987575222
 31
8.55
 73
     1
  0
TEXT
  5
135
  8
LEVEL0
 10
94.8376620811
 20
162.8098691581
 30
8.55
 40
2.0
  1
87.6
 50
90.0
 41
0.7
 11
95.5441822049
 21
162.8098691581
 31
8.55
 73
     1
  0
TEXT
  5
136
  8
LEVEL0
 10
94.8376620811
 20
167.9820910795
 30
8.55
 40
2.0
  1
 
 50
90.0
 41
0.7
 11
95.5441822049
 21
167.9820910795
 31
8.55
 73
     1
  0
TEXT
  5
137
  8
LEVEL0
 10
92.2515508876
 20
168.7209800584
 30
8.55
 40
2.0
  1
+
 50
90.0
 41
0.7
 11
92.9580710114
 21
168.7209800584
 31
8.55
 73
     1
  0
TEXT
  5
138
  8
LEVEL0
 10
94.8376620811
 20
169.0862578398
 30
8.55
 40
2.0
  1
-
 50
90.0
 41
0.7
 11
95.5441822049
 21
169.0862578398
 31
8.55
 73
     1
  0
TEXT
  5
139
  8
LEVEL0
 10
92.2515508876
 20
170.3376466175
 30
8.55
 40
2.0
  1
0.3
 50
90.0
 41
0.7
 11
92.9580710114
 21
170.3376466175
 31
8.55
 73
     1
  0
TEXT
  5
13A
  8
LEVEL0
 10
94.8376620811
 20
170.3376466175
 30
8.55
 40
2.0
  1
0.2
 50
90.0
 41
0.7
 11
95.5441822049
 21
170.3376466175
 31
8.55
 73
     1
  0
TEXT
  5
13B
  8
LEVEL0
 10
94.8071060859
 20
177.4675078923
 30
8.55
 40
2.0
  1
  
 50
90.0
 41
0.7
 11
95.5136262097
 21
177.4675078923
 31
8.55
 73
     1
  0
ENDBLK
  5
124
  8
0
  0
BLOCK
  8
0
  2
SW_NOTE_0
 70
     0
 10
0.0
 20
0.0
 30
0.0
  3
SW_NOTE_0
  1

  0
TEXT
  5
13F
  8
LEVEL0
 62
     0
 10
-39.529114788
 20
-5.7055134554
 30
0.0
 40
2.0
  1
MARK SCREW POSITION
 41
0.6631578947
 11
-39.529114788
 21
-6.4120335793
 31
0.0
 73
     1
  0
LINE
  5
140
  8
LEVEL0
 62
     0
 10
-9.0543701974
 20
-4.5133119711
 30
0.0
 11
0.0
 21
0.0
 31
0.0
  0
SOLID
  5
141
  8
LEVEL0
 62
     0
 10
0.0
 20
0.0
 30
0.0
 11
-1.927216596
 21
-0.6168555329
 31
0.0
 12
-1.6526835296
 22
-1.1676093984
 32
0.0
 13
-1.6526835296
 23
-1.1676093984
 33
0.0
  0
ENDBLK
  5
13E
  8
0
  0
BLOCK
  8
0
  2
SW_CENTERMARKSYMBOL_0
 70
     0
 10
0.0
 20
0.0
 30
0.0
  3
SW_CENTERMARKSYMBOL_0
  1

  0
LINE
  5
147
  8
LEVEL0
 62
     0
 10
0.0
 20
0.0
 30
0.0
 11
0.0
 21
2.5
 31
0.0
  0
LINE
  5
148
  8
LEVEL0
 62
     0
 10
0.0
 20
0.0
 30
0.0
 11
-2.5
 21
0.0
 31
0.0
  0
LINE
  5
149
  8
LEVEL0
 62
     0
 10
0.0
 20
0.0
 30
0.0
 11
0.0
 21
-2.5
 31
0.0
  0
LINE
  5
14A
  8
LEVEL0
 62
     0
 10
0.0
 20
0.0
 30
0.0
 11
2.5
 21
0.0
 31
0.0
  0
LINE
  5
14B
  8
LEVEL0
 62
     0
 10
0.0
 20
2.5
 30
0.0
 11
0.0
 21
3.5
 31
0.0
  0
LINE
  5
14C
  8
LEVEL0
 62
     0
 10
-2.5
 20
0.0
 30
0.0
 11
-3.5
 21
0.0
 31
0.0
  0
LINE
  5
14D
  8
LEVEL0
 62
     0
 10
0.0
 20
-2.5
 30
0.0
 11
0.0
 21
-3.5
 31
0.0
  0
LINE
  5
14E
  8
LEVEL0
 62
     0
 10
2.5
 20
0.0
 30
0.0
 11
3.5
 21
0.0
 31
0.0
  0
ENDBLK
  5
146
  8
0
  0
BLOCK
  8
0
  2
SW_CENTERMARKSYMBOL_1
 70
     0
 10
0.0
 20
0.0
 30
0.0
  3
SW_CENTERMARKSYMBOL_1
  1

  0
LINE
  5
153
  8
LEVEL0
 62
     0
 10
0.0
 20
0.0
 30
0.0
 11
0.0
 21
2.5
 31
0.0
  0
LINE
  5
154
  8
LEVEL0
 62
     0
 10
0.0
 20
0.0
 30
0.0
 11
-2.5
 21
0.0
 31
0.0
  0
LINE
  5
155
  8
LEVEL0
 62
     0
 10
0.0
 20
0.0
 30
0.0
 11
0.0
 21
-2.5
 31
0.0
  0
LINE
  5
156
  8
LEVEL0
 62
     0
 10
0.0
 20
0.0
 30
0.0
 11
2.5
 21
0.0
 31
0.0
  0
LINE
  5
157
  8
LEVEL0
 62
     0
 10
0.0
 20
2.5
 30
0.0
 11
0.0
 21
3.5
 31
0.0
  0
LINE
  5
158
  8
LEVEL0
 62
     0
 10
-2.5
 20
0.0
 30
0.0
 11
-3.5
 21
0.0
 31
0.0
  0
LINE
  5
159
  8
LEVEL0
 62
     0
 10
0.0
 20
-2.5
 30
0.0
 11
0.0
 21
-3.5
 31
0.0
  0
LINE
  5
15A
  8
LEVEL0
 62
     0
 10
2.5
 20
0.0
 30
0.0
 11
3.5
 21
0.0
 31
0.0
  0
ENDBLK
  5
152
  8
0
  0
BLOCK
  8
0
  2
SW_CENTERMARKSYMBOL_2
 70
     0
 10
0.0
 20
0.0
 30
0.0
  3
SW_CENTERMARKSYMBOL_2
  1

  0
LINE
  5
15F
  8
LEVEL0
 62
     0
 10
0.0
 20
0.0
 30
0.0
 11
0.0
 21
2.5
 31
0.0
  0
LINE
  5
160
  8
LEVEL0
 62
     0
 10
0.0
 20
0.0
 30
0.0
 11
-2.5
 21
0.0
 31
0.0
  0
LINE
  5
161
  8
LEVEL0
 62
     0
 10
0.0
 20
0.0
 30
0.0
 11
0.0
 21
-2.5
 31
0.0
  0
LINE
  5
162
  8
LEVEL0
 62
     0
 10
0.0
 20
0.0
 30
0.0
 11
2.5
 21
0.0
 31
0.0
  0
LINE
  5
163
  8
LEVEL0
 62
     0
 10
0.0
 20
2.5
 30
0.0
 11
0.0
 21
3.5
 31
0.0
  0
LINE
  5
164
  8
LEVEL0
 62
     0
 10
-2.5
 20
0.0
 30
0.0
 11
-3.5
 21
0.0
 31
0.0
  0
LINE
  5
165
  8
LEVEL0
 62
     0
 10
0.0
 20
-2.5
 30
0.0
 11
0.0
 21
-3.5
 31
0.0
  0
LINE
  5
166
  8
LEVEL0
 62
     0
 10
2.5
 20
0.0
 30
0.0
 11
3.5
 21
0.0
 31
0.0
  0
ENDBLK
  5
15E
  8
0
  0
BLOCK
  8
0
  2
SW_CENTERMARKSYMBOL_3
 70
     0
 10
0.0
 20
0.0
 30
0.0
  3
SW_CENTERMARKSYMBOL_3
  1

  0
LINE
  5
16B
  8
LEVEL0
 62
     0
 10
0.0
 20
0.0
 30
0.0
 11
0.0
 21
2.5
 31
0.0
  0
LINE
  5
16C
  8
LEVEL0
 62
     0
 10
0.0
 20
0.0
 30
0.0
 11
-2.5
 21
0.0
 31
0.0
  0
LINE
  5
16D
  8
LEVEL0
 62
     0
 10
0.0
 20
0.0
 30
0.0
 11
0.0
 21
-2.5
 31
0.0
  0
LINE
  5
16E
  8
LEVEL0
 62
     0
 10
0.0
 20
0.0
 30
0.0
 11
2.5
 21
0.0
 31
0.0
  0
LINE
  5
16F
  8
LEVEL0
 62
     0
 10
0.0
 20
2.5
 30
0.0
 11
0.0
 21
3.5
 31
0.0
  0
LINE
  5
170
  8
LEVEL0
 62
     0
 10
-2.5
 20
0.0
 30
0.0
 11
-3.5
 21
0.0
 31
0.0
  0
LINE
  5
171
  8
LEVEL0
 62
     0
 10
0.0
 20
-2.5
 30
0.0
 11
0.0
 21
-3.5
 31
0.0
  0
LINE
  5
172
  8
LEVEL0
 62
     0
 10
2.5
 20
0.0
 30
0.0
 11
3.5
 21
0.0
 31
0.0
  0
ENDBLK
  5
16A
  8
0
  0
ENDSEC
  0
SECTION
  2
ENTITIES
  0
LINE
  5
A7
  8
0
  6
CONTINUOUS
 62
     7
 10
158.1231348278
 20
109.5045344702
 30
0.0
 11
70.4831348278
 21
109.5045344702
 31
0.0
  0
LINE
  5
A8
  8
0
  6
CONTINUOUS
 62
     7
 10
158.1231348278
 20
197.1445344702
 30
0.0
 11
158.1231348278
 21
109.5045344702
 31
0.0
  0
LINE
  5
A9
  8
0
  6
CONTINUOUS
 62
     7
 10
70.4831348278
 20
197.1445344702
 30
0.0
 11
158.1231348278
 21
197.1445344702
 31
0.0
  0
LINE
  5
AA
  8
0
  6
CONTINUOUS
 62
     7
 10
70.4831348278
 20
109.5045344702
 30
0.0
 11
70.4831348278
 21
197.1445344702
 31
0.0
  0
CIRCLE
  5
AB
  8
0
  6
CONTINUOUS
 62
     7
 10
62.4831348278
 20
205.1445344702
 30
0.0
 40
1.000000000000007
  0
CIRCLE
  5
AC
  8
0
  6
CONTINUOUS
 62
     7
 10
166.1231348278
 20
205.1445344702
 30
0.0
 40
1.0
  0
CIRCLE
  5
AD
  8
0
  6
CONTINUOUS
 62
     7
 10
166.1231348278
 20
101.5045344702
 30
0.0
 40
1.0
  0
CIRCLE
  5
AE
  8
0
  6
CONTINUOUS
 62
     7
 10
62.4831348278
 20
101.5045344702
 30
0.0
 40
1.000000000000007
  0
DIMENSION
  5
AF
  8
LEVEL0
  2
_D
 10
166.1231348278
 20
216.0266641608
 30
0.0
 11
116.6294218251
 21
216.0266641608
 31
0.0
 70
   160
  1
<>
  3
SLDDIMSTYLE0
 13
62.4831348278
 23
208.6445344702
 33
0.0
 14
166.1231348278
 24
208.6445344702
 34
0.0
  0
DIMENSION
  5
CA
  8
LEVEL0
  2
_D_1
 10
55.6271851966
 20
101.5045344702
 30
0.0
 11
55.6271851966
 21
151.5273846477
 31
0.0
 70
   160
  1
<>
  3
SLDDIMSTYLE0
 13
58.9831348278
 23
205.1445344702
 33
0.0
 14
58.9831348278
 24
101.5045344702
 34
0.0
 50
90.0
  0
DIMENSION
  5
DD
  8
LEVEL0
  2
_D_2
 10
67.1478850046
 20
197.1445344702
 30
0.0
 11
67.1478850046
 21
188.6866710537
 31
0.0
 70
   160
  1
<>
  3
SLDDIMSTYLE0
 13
65.9831348278
 23
205.1445344702
 33
0.0
 14
70.4831348278
 24
197.1445344702
 34
0.0
 50
90.0
  0
DIMENSION
  5
F1
  8
LEVEL0
  2
_D_3
 10
70.4831348278
 20
94.9220468063
 30
0.0
 11
78.6999947682
 21
94.9220468063
 31
0.0
 70
   160
  1
<>
  3
SLDDIMSTYLE0
 13
62.4831348278
 23
98.0045344702
 33
0.0
 14
70.4831348278
 24
109.5045344702
 34
0.0
  0
DIMENSION
  5
105
  8
LEVEL0
  2
_D_4
 10
158.1231348278
 20
146.3624305636
 30
0.0
 11
116.6294218251
 21
146.3624305636
 31
0.0
 70
   160
  1
<>
  3
SLDDIMSTYLE1
 13
70.4831348278
 23
109.5045344702
 33
0.0
 14
158.1231348278
 24
109.5045344702
 34
0.0
  0
DIMENSION
  5
121
  8
LEVEL0
  2
_D_5
 10
95.5441817393
 20
109.5045344702
 30
0.0
 11
95.5441817393
 21
168.4209803352
 31
0.0
 70
   160
  1
<>
  3
SLDDIMSTYLE1
 13
70.4831348278
 23
197.1445344702
 33
0.0
 14
70.4831348278
 24
109.5045344702
 34
0.0
 50
90.0
  0
INSERT
  5
142
  8
LEVEL0
  2
SW_NOTE_0
 10
165.4692165427
 20
100.7479692871
 30
0.0
  0
TEXT
  5
143
  8
LEVEL0
 10
36.2632082512
 20
231.8618831808
 30
0.0
 40
3.0
  1
1:1 TEMPLATE FOR (10-01-187) WS SB for International seeTouch® keypad OFP
 41
0.6520547945
 11
36.2632082512
 21
230.802102995
 31
0.0
 73
     1
  0
INSERT
  5
14F
  8
LEVEL0
  2
SW_CENTERMARKSYMBOL_0
 10
62.4831348278
 20
205.1445344702
 30
0.0
  0
INSERT
  5
15B
  8
LEVEL0
  2
SW_CENTERMARKSYMBOL_1
 10
166.1231348278
 20
205.1445344702
 30
0.0
  0
INSERT
  5
167
  8
LEVEL0
  2
SW_CENTERMARKSYMBOL_2
 10
166.1231348278
 20
101.5045344702
 30
0.0
  0
INSERT
  5
173
  8
LEVEL0
  2
SW_CENTERMARKSYMBOL_3
 10
62.4831348278
 20
101.5045344702
 30
0.0
  0
ENDSEC
  0
EOF
