  0
SECTION
  2
HEADER
  9
$ACADVER
  1
AC1009
  9
$DWGCODEPAGE
  3
ansi_1252
  9
$INSBASE
 10
0.0
 20
0.0
 30
0.0
  9
$EXTMIN
 10
0.0
 20
0.0
 30
0.0
  9
$EXTMAX
 10
210.0
 20
297.0
 30
0.0
  9
$LIMMIN
 10
0.0
 20
0.0
  9
$LIMMAX
 10
210.0
 20
297.0
  9
$ORTHOMODE
 70
     0
  9
$REGENMODE
 70
     1
  9
$FILLMODE
 70
     1
  9
$QTEXTMODE
 70
     0
  9
$MIRRTEXT
 70
     1
  9
$DRAGMODE
 70
     2
  9
$LTSCALE
 40
1.0
  9
$OSMODE
 70
    37
  9
$ATTMODE
 70
     1
  9
$TEXTSIZE
 40
2.0
  9
$TRACEWID
 40
1.0
  9
$TEXTSTYLE
  7
STANDARD
  9
$CLAYER
  8
0
  9
$CELTYPE
  6
BYLAYER
  9
$CECOLOR
 62
   256
  9
$DIMSCALE
 40
1.0
  9
$DIMASZ
 40
2.0
  9
$DIMEXO
 40
1.0
  9
$DIMDLI
 40
3.75
  9
$DIMRND
 40
0.0
  9
$DIMDLE
 40
0.0
  9
$DIMEXE
 40
1.0
  9
$DIMTP
 40
0.0
  9
$DIMTM
 40
0.0
  9
$DIMTXT
 40
2.0
  9
$DIMCEN
 40
2.5
  9
$DIMTSZ
 40
0.0
  9
$DIMTOL
 70
     0
  9
$DIMLIM
 70
     0
  9
$DIMTIH
 70
     1
  9
$DIMTOH
 70
     1
  9
$DIMSE1
 70
     0
  9
$DIMSE2
 70
     0
  9
$DIMTAD
 70
     1
  9
$DIMZIN
 70
     0
  9
$DIMBLK
  1

  9
$DIMASO
 70
     1
  9
$DIMSHO
 70
     1
  9
$DIMPOST
  1

  9
$DIMAPOST
  1

  9
$DIMALT
 70
     0
  9
$DIMALTD
 70
     3
  9
$DIMALTF
 40
0.0393700787
  9
$DIMLFAC
 40
1.0
  9
$DIMTOFL
 70
     1
  9
$DIMTVP
 40
0.0
  9
$DIMTIX
 70
     0
  9
$DIMSOXD
 70
     0
  9
$DIMSAH
 70
     0
  9
$DIMBLK1
  1

  9
$DIMBLK2
  1

  9
$DIMSTYLE
  2
ISO-25
  9
$DIMCLRD
 70
     0
  9
$DIMCLRE
 70
     0
  9
$DIMCLRT
 70
     0
  9
$DIMTFAC
 40
1.0
  9
$DIMGAP
 40
1.524
  9
$LUNITS
 70
     2
  9
$LUPREC
 70
     2
  9
$SKETCHINC
 40
1.0
  9
$FILLETRAD
 40
10.0
  9
$AUNITS
 70
     0
  9
$AUPREC
 70
     2
  9
$MENU
  1
.
  9
$ELEVATION
 40
0.0
  9
$PELEVATION
 40
0.0
  9
$THICKNESS
 40
0.0
  9
$LIMCHECK
 70
     0
  9
$CHAMFERA
 40
0.0
  9
$CHAMFERB
 40
0.0
  9
$SKPOLY
 70
     0
  9
$TDCREATE
 40
2459360.493196065
  9
$TDUPDATE
 40
2459360.493199803
  9
$TDINDWG
 40
0.0000000116
  9
$TDUSRTIMER
 40
0.0000000116
  9
$USRTIMER
 70
     1
  9
$ANGBASE
 50
0.0
  9
$ANGDIR
 70
     0
  9
$PDMODE
 70
     0
  9
$PDSIZE
 40
-1.0
  9
$PLINEWID
 40
0.0
  9
$COORDS
 70
     1
  9
$SPLFRAME
 70
     0
  9
$SPLINETYPE
 70
     6
  9
$SPLINESEGS
 70
     8
  9
$ATTDIA
 70
     0
  9
$ATTREQ
 70
     1
  9
$HANDLING
 70
     1
  9
$HANDSEED
  5
196
  9
$SURFTAB1
 70
     6
  9
$SURFTAB2
 70
     6
  9
$SURFTYPE
 70
     6
  9
$SURFU
 70
     6
  9
$SURFV
 70
     6
  9
$UCSNAME
  2

  9
$UCSORG
 10
0.0
 20
0.0
 30
0.0
  9
$UCSXDIR
 10
1.0
 20
0.0
 30
0.0
  9
$UCSYDIR
 10
0.0
 20
1.0
 30
0.0
  9
$PUCSNAME
  2

  9
$PUCSORG
 10
0.0
 20
0.0
 30
0.0
  9
$PUCSXDIR
 10
1.0
 20
0.0
 30
0.0
  9
$PUCSYDIR
 10
0.0
 20
1.0
 30
0.0
  9
$USERI1
 70
     0
  9
$USERI2
 70
     0
  9
$USERI3
 70
     0
  9
$USERI4
 70
     0
  9
$USERI5
 70
     0
  9
$USERR1
 40
0.0
  9
$USERR2
 40
0.0
  9
$USERR3
 40
0.0
  9
$USERR4
 40
0.0
  9
$USERR5
 40
0.0
  9
$WORLDVIEW
 70
     1
  9
$SHADEDGE
 70
     3
  9
$SHADEDIF
 70
    70
  9
$TILEMODE
 70
     1
  9
$MAXACTVP
 70
    64
  9
$PLIMCHECK
 70
     0
  9
$PEXTMIN
 10
1.0000000000E+20
 20
1.0000000000E+20
 30
1.0000000000E+20
  9
$PEXTMAX
 10
-1.0000000000E+20
 20
-1.0000000000E+20
 30
-1.0000000000E+20
  9
$PLIMMIN
 10
0.0
 20
0.0
  9
$PLIMMAX
 10
420.0
 20
297.0
  9
$UNITMODE
 70
     0
  9
$VISRETAIN
 70
     1
  9
$PLINEGEN
 70
     0
  9
$PSLTSCALE
 70
     1
  0
ENDSEC
  0
SECTION
  2
TABLES
  0
TABLE
  2
VPORT
 70
     1
  0
VPORT
  2
*ACTIVE
 70
     0
 10
0.0
 20
0.0
 11
1.0
 21
1.0
 12
105.0
 22
148.5
 13
0.0
 23
0.0
 14
10.0
 24
10.0
 15
10.0
 25
10.0
 16
0.0
 26
0.0
 36
1.0
 17
0.0
 27
0.0
 37
0.0
 40
297.0
 41
0.7070707071
 42
50.0
 43
0.0
 44
0.0
 50
0.0
 51
0.0
 71
     0
 72
  2000
 73
     1
 74
     3
 75
     0
 76
     0
 77
     0
 78
     0
  0
ENDTAB
  0
TABLE
  2
LTYPE
 70
     6
  0
LTYPE
  2
CONTINUOUS
 70
     0
  3
Solid line
 72
    65
 73
     0
 40
0.0
  0
LTYPE
  2
HIDDEN
 70
     0
  3
Hidden __ __ __ __ __ __ __ __ __ __ __ __ __ __
 72
    65
 73
     2
 40
1.905
 49
1.27
 49
-0.635
  0
LTYPE
  2
PHANTOM
 70
     0
  3
Phantom ______  __  __  ______  __  __  ______
 72
    65
 73
     6
 40
12.7
 49
6.35
 49
-1.27
 49
1.27
 49
-1.27
 49
1.27
 49
-1.27
  0
LTYPE
  2
CENTER
 70
     0
  3
Center ____ _ ____ _ ____ _ ____ _ ____ _ ____
 72
    65
 73
     4
 40
10.16
 49
6.35
 49
-1.27
 49
1.27
 49
-1.27
  0
LTYPE
  2
CENTERX2
 70
     0
  3
Center (2x) ________  __  ________  __  _____
 72
    65
 73
     4
 40
20.32
 49
12.7
 49
-2.54
 49
2.54
 49
-2.54
  0
LTYPE
  2
DOT2
 70
     0
  3
Dot (.5x) ........................................
 72
    65
 73
     2
 40
0.635
 49
0.0
 49
-0.635
  0
ENDTAB
  0
TABLE
  2
LAYER
 70
    53
  0
LAYER
  2
0
 70
     0
 62
     7
  6
CONTINUOUS
  0
LAYER
  2
SLD-0
 70
     0
 62
     7
  6
CONTINUOUS
  0
LAYER
  2
LEVEL0
 70
     0
 62
     7
  6
CONTINUOUS
  0
LAYER
  2
1
 70
     0
 62
     7
  6
CONTINUOUS
  0
LAYER
  2
2
 70
     0
 62
     7
  6
CONTINUOUS
  0
LAYER
  2
3
 70
     0
 62
     7
  6
CONTINUOUS
  0
LAYER
  2
4
 70
     0
 62
     7
  6
CONTINUOUS
  0
LAYER
  2
5
 70
     0
 62
     7
  6
CONTINUOUS
  0
LAYER
  2
6
 70
     0
 62
     7
  6
CONTINUOUS
  0
LAYER
  2
7
 70
     0
 62
     7
  6
CONTINUOUS
  0
LAYER
  2
8
 70
     0
 62
     7
  6
CONTINUOUS
  0
LAYER
  2
9
 70
     0
 62
     7
  6
CONTINUOUS
  0
LAYER
  2
10
 70
     0
 62
     7
  6
CONTINUOUS
  0
LAYER
  2
11
 70
     0
 62
     7
  6
CONTINUOUS
  0
LAYER
  2
12
 70
     0
 62
     7
  6
CONTINUOUS
  0
LAYER
  2
13
 70
     0
 62
     7
  6
CONTINUOUS
  0
LAYER
  2
14
 70
     0
 62
     7
  6
CONTINUOUS
  0
LAYER
  2
15
 70
     0
 62
     7
  6
CONTINUOUS
  0
LAYER
  2
16
 70
     0
 62
     7
  6
CONTINUOUS
  0
LAYER
  2
17
 70
     0
 62
     7
  6
CONTINUOUS
  0
LAYER
  2
18
 70
     0
 62
     7
  6
CONTINUOUS
  0
LAYER
  2
19
 70
     0
 62
     7
  6
CONTINUOUS
  0
LAYER
  2
20
 70
     0
 62
     7
  6
CONTINUOUS
  0
LAYER
  2
21
 70
     0
 62
     7
  6
CONTINUOUS
  0
LAYER
  2
22
 70
     0
 62
     7
  6
CONTINUOUS
  0
LAYER
  2
23
 70
     0
 62
     7
  6
CONTINUOUS
  0
LAYER
  2
24
 70
     0
 62
     7
  6
CONTINUOUS
  0
LAYER
  2
25
 70
     0
 62
     7
  6
CONTINUOUS
  0
LAYER
  2
26
 70
     0
 62
     7
  6
CONTINUOUS
  0
LAYER
  2
27
 70
     0
 62
     7
  6
CONTINUOUS
  0
LAYER
  2
28
 70
     0
 62
     7
  6
CONTINUOUS
  0
LAYER
  2
29
 70
     0
 62
     7
  6
CONTINUOUS
  0
LAYER
  2
30
 70
     0
 62
     7
  6
CONTINUOUS
  0
LAYER
  2
31
 70
     0
 62
     7
  6
CONTINUOUS
  0
LAYER
  2
32
 70
     0
 62
     7
  6
CONTINUOUS
  0
LAYER
  2
33
 70
     0
 62
     7
  6
CONTINUOUS
  0
LAYER
  2
34
 70
     0
 62
     7
  6
CONTINUOUS
  0
LAYER
  2
35
 70
     0
 62
     7
  6
CONTINUOUS
  0
LAYER
  2
36
 70
     0
 62
     7
  6
CONTINUOUS
  0
LAYER
  2
37
 70
     0
 62
     7
  6
CONTINUOUS
  0
LAYER
  2
38
 70
     0
 62
     7
  6
CONTINUOUS
  0
LAYER
  2
39
 70
     0
 62
     7
  6
CONTINUOUS
  0
LAYER
  2
40
 70
     0
 62
     7
  6
CONTINUOUS
  0
LAYER
  2
41
 70
     0
 62
     7
  6
CONTINUOUS
  0
LAYER
  2
42
 70
     0
 62
     7
  6
CONTINUOUS
  0
LAYER
  2
43
 70
     0
 62
     7
  6
CONTINUOUS
  0
LAYER
  2
44
 70
     0
 62
     7
  6
CONTINUOUS
  0
LAYER
  2
45
 70
     0
 62
     7
  6
CONTINUOUS
  0
LAYER
  2
46
 70
     0
 62
     7
  6
CONTINUOUS
  0
LAYER
  2
47
 70
     0
 62
     7
  6
CONTINUOUS
  0
LAYER
  2
48
 70
     0
 62
     7
  6
CONTINUOUS
  0
LAYER
  2
49
 70
     0
 62
     7
  6
CONTINUOUS
  0
LAYER
  2
50
 70
     0
 62
     7
  6
CONTINUOUS
  0
ENDTAB
  0
TABLE
  2
STYLE
 70
     1
  0
STYLE
  2
STANDARD
 70
     0
 40
0.0
 41
1.0
 50
0.0
 71
     0
 42
2.0
  3
txt
  4

  0
ENDTAB
  0
TABLE
  2
VIEW
 70
     0
  0
ENDTAB
  0
TABLE
  2
UCS
 70
     0
  0
ENDTAB
  0
TABLE
  2
APPID
 70
     1
  0
APPID
  2
ACAD
 70
     0
  0
ENDTAB
  0
TABLE
  2
DIMSTYLE
 70
     5
  0
DIMSTYLE
  2
ISO-25
 70
     0
  3

  4

  5

  6

  7

 40
1.0
 41
2.5
 42
0.625
 43
3.75
 44
1.25
 45
0.0
 46
0.0
 47
0.0
 48
0.0
140
2.5
141
2.5
142
0.0
143
0.0393700787
144
1.0
145
0.0
146
1.0
147
0.625
 71
     0
 72
     0
 73
     0
 74
     0
 75
     0
 76
     0
 77
     1
 78
     8
170
     0
171
     3
172
     1
173
     0
174
     0
175
     0
176
     0
177
     0
178
     0
  0
DIMSTYLE
  2
SLDDIMSTYLE0
 70
     0
  3

  4

  5

  6
CLOSED
  7
CLOSED
 40
1.0
 41
2.0
 42
0.0625
 43
0.38
 44
0.0
 45
0.000000001
 46
0.0
 47
0.0
 48
0.0
140
2.0
141
0.09
142
0.0
143
0.0393700787
144
1.0
145
0.0
146
1.0
147
0.5
 71
     0
 72
     0
 73
     0
 74
     0
 75
     0
 76
     0
 77
     1
 78
    12
170
     1
171
     2
172
     0
173
     1
174
     0
175
     0
176
     0
177
     0
178
     0
  0
DIMSTYLE
  2
SLDDIMSTYLE1
 70
     0
  3

  4

  5

  6
CLOSED
  7
CLOSED
 40
1.0
 41
2.0
 42
0.0625
 43
0.38
 44
0.0
 45
0.000000001
 46
0.0
 47
0.0
 48
0.0
140
2.0
141
0.0
142
0.0
143
0.0393700787
144
1.0
145
0.0
146
1.0
147
0.5
 71
     0
 72
     0
 73
     0
 74
     0
 75
     0
 76
     0
 77
     1
 78
    12
170
     1
171
     2
172
     0
173
     1
174
     0
175
     0
176
     0
177
     0
178
     0
  0
DIMSTYLE
  2
SLDDIMSTYLE2
 70
     0
  3

  4

  5

  6
CLOSED
  7
CLOSED
 40
1.0
 41
2.0
 42
0.0625
 43
0.38
 44
0.0
 45
0.000000001
 46
0.0
 47
0.3
 48
0.2
140
2.0
141
0.09
142
0.0
143
0.0393700787
144
1.0
145
0.0
146
1.0
147
0.5
 71
     1
 72
     0
 73
     0
 74
     0
 75
     0
 76
     0
 77
     1
 78
     4
170
     1
171
     2
172
     0
173
     1
174
     0
175
     0
176
     0
177
     0
178
     0
  0
DIMSTYLE
  2
SLDDIMSTYLE3
 70
     0
  3

  4

  5

  6
CLOSED
  7
CLOSED
 40
1.0
 41
2.0
 42
0.0625
 43
0.38
 44
0.0
 45
0.000000001
 46
0.0
 47
0.3
 48
0.2
140
2.0
141
0.09
142
0.0
143
0.0393700787
144
1.0
145
0.0
146
1.0
147
0.5
 71
     1
 72
     0
 73
     0
 74
     0
 75
     0
 76
     0
 77
     1
 78
    12
170
     1
171
     2
172
     0
173
     1
174
     0
175
     0
176
     0
177
     0
178
     0
  0
ENDTAB
  0
ENDSEC
  0
SECTION
  2
BLOCKS
  0
BLOCK
  8
0
  2
$MODEL_SPACE
 70
     0
 10
0.0
 20
0.0
 30
0.0
  3
$MODEL_SPACE
  1

  0
ENDBLK
  5
21
  8
0
  0
BLOCK
 67
     1
  8
0
  2
$PAPER_SPACE
 70
     0
 10
0.0
 20
0.0
 30
0.0
  3
$PAPER_SPACE
  1

  0
ENDBLK
  5
1D
 67
     1
  8
0
  0
BLOCK
  8
0
  2
SW_NOTE_0
 70
     0
 10
0.0
 20
0.0
 30
0.0
  3
SW_NOTE_0
  1

  0
TEXT
  5
AB
  8
LEVEL0
 62
     0
 10
0.0
 20
1.308534146
 30
0.0
 40
3.7041666667
  1
METAL FACEPLATE CUTOUT ROUTING TEMPLATE
 41
0.6641025641
 11
0.0
 21
0.0
 31
0.0
 73
     1
  0
TEXT
  5
AC
  8
LEVEL0
 62
     0
 10
0.0
 20
-10.5692438402
 30
0.0
 40
3.7041666667
  1
SCALE 1:1
 41
0.7
 11
0.0
 21
-11.8777779862
 31
0.0
 73
     1
  0
ENDBLK
  5
AA
  8
0
  0
BLOCK
  8
0
  2
_CLOSED
 70
     0
 10
0.0
 20
0.0
 30
0.0
  3
_CLOSED
  1

  0
LINE
  5
BF
  8
0
  6
BYBLOCK
 62
     0
 10
-1.0
 20
0.166667
 30
0.0
 11
0.0
 21
0.0
 31
0.0
  0
LINE
  5
C0
  8
0
  6
BYBLOCK
 62
     0
 10
0.0
 20
0.0
 30
0.0
 11
-1.0
 21
-0.166667
 31
0.0
  0
LINE
  5
C1
  8
0
  6
BYBLOCK
 62
     0
 10
-1.0
 20
0.166667
 30
0.0
 11
-1.0
 21
-0.166667
 31
0.0
  0
LINE
  5
C2
  8
0
  6
BYBLOCK
 62
     0
 10
0.0
 20
0.0
 30
0.0
 11
-1.0
 21
0.0
 31
0.0
  0
ENDBLK
  5
BE
  8
0
  0
BLOCK
  8
0
  2
_D
 70
     0
 10
0.0
 20
0.0
 30
0.0
  3
_D
  1

  0
INSERT
  5
C6
  8
LEVEL0
  2
_CLOSED
 10
37.4196188651
 20
237.2843432904
 30
-8.85
 41
2.0
 42
2.0
 50
90.0
  0
INSERT
  5
C7
  8
LEVEL0
  2
_CLOSED
 10
37.4196188651
 20
54.1643432904
 30
-8.85
 41
2.0
 42
2.0
 50
270.0
  0
LINE
  5
C8
  8
LEVEL0
 10
31.252257818
 20
151.3745331004
 30
0.0
 11
31.252257818
 21
150.7651580878
 31
0.0
  0
LINE
  5
C9
  8
LEVEL0
 10
31.252257818
 20
150.7651580878
 30
0.0
 11
34.4272577796
 21
150.7651580878
 31
0.0
  0
LINE
  5
CA
  8
LEVEL0
 10
34.4272577796
 20
150.7651580878
 30
0.0
 11
34.4272577796
 21
151.3745331004
 31
0.0
  0
LINE
  5
CB
  8
LEVEL0
 10
31.252257818
 20
156.5467550217
 30
0.0
 11
31.252257818
 21
157.1561300343
 31
0.0
  0
LINE
  5
CC
  8
LEVEL0
 10
31.252257818
 20
157.1561300343
 30
0.0
 11
34.4272577796
 21
157.1561300343
 31
0.0
  0
LINE
  5
CD
  8
LEVEL0
 10
34.4272577796
 20
157.1561300343
 30
0.0
 11
34.4272577796
 21
156.5467550217
 31
0.0
  0
LINE
  5
CE
  8
LEVEL0
 10
47.7798904409
 20
237.2843432904
 30
0.0
 11
36.4196188651
 21
237.2843432904
 31
0.0
  0
LINE
  5
CF
  8
LEVEL0
 10
47.7798904409
 20
54.1643432904
 30
0.0
 11
36.4196188651
 21
54.1643432904
 31
0.0
  0
LINE
  5
D0
  8
LEVEL0
 10
37.4196188651
 20
237.2843432904
 30
0.0
 11
37.4196188651
 21
54.1643432904
 31
0.0
  0
TEXT
  5
D1
  8
LEVEL0
 10
36.6825432118
 20
148.6780053501
 30
-8.85
 40
2.0
  1
  
 50
90.0
 41
0.7
 11
37.3890633356
 21
148.6780053501
 31
-8.85
 73
     1
  0
TEXT
  5
D2
  8
LEVEL0
 10
33.7207376558
 20
151.3745331004
 30
-8.85
 40
2.0
  1
7.21
 50
90.0
 41
0.7
 11
34.4272577796
 21
151.3745331004
 31
-8.85
 73
     1
  0
TEXT
  5
D3
  8
LEVEL0
 10
36.7130989741
 20
150.6356442378
 30
-8.85
 40
2.0
  1
183.1
 50
90.0
 41
0.7
 11
37.419619098
 21
150.6356442378
 31
-8.85
 73
     1
  0
TEXT
  5
D4
  8
LEVEL0
 10
36.6825432118
 20
157.7655055126
 30
-8.85
 40
2.0
  1
  
 50
90.0
 41
0.7
 11
37.3890633356
 21
157.7655055126
 31
-8.85
 73
     1
  0
ENDBLK
  5
C5
  8
0
  0
BLOCK
  8
0
  2
_D_1
 70
     0
 10
0.0
 20
0.0
 30
0.0
  3
_D_1
  1

  0
INSERT
  5
D9
  8
LEVEL0
  2
_CLOSED
 10
52.2798904409
 20
43.0157931503
 30
-8.85
 41
2.0
 42
2.0
 50
180.0
  0
INSERT
  5
DA
  8
LEVEL0
  2
_CLOSED
 10
164.3798904409
 20
43.0157931503
 30
-8.85
 41
2.0
 42
2.0
 50
0.0
  0
LINE
  5
DB
  8
LEVEL0
 10
104.6886772153
 20
49.1831541975
 30
0.0
 11
104.0793022028
 21
49.1831541975
 31
0.0
  0
LINE
  5
DC
  8
LEVEL0
 10
104.0793022028
 20
49.1831541975
 30
0.0
 11
104.0793022028
 21
46.0081542358
 31
0.0
  0
LINE
  5
DD
  8
LEVEL0
 10
104.0793022028
 20
46.0081542358
 30
0.0
 11
104.6886772153
 21
46.0081542358
 31
0.0
  0
LINE
  5
DE
  8
LEVEL0
 10
109.8608991367
 20
49.1831541975
 30
0.0
 11
110.4702741493
 21
49.1831541975
 31
0.0
  0
LINE
  5
DF
  8
LEVEL0
 10
110.4702741493
 20
49.1831541975
 30
0.0
 11
110.4702741493
 21
46.0081542358
 31
0.0
  0
LINE
  5
E0
  8
LEVEL0
 10
110.4702741493
 20
46.0081542358
 30
0.0
 11
109.8608991367
 21
46.0081542358
 31
0.0
  0
LINE
  5
E1
  8
LEVEL0
 10
52.2798904409
 20
49.6643432904
 30
0.0
 11
52.2798904409
 21
42.0157931503
 31
0.0
  0
LINE
  5
E2
  8
LEVEL0
 10
164.3798904409
 20
49.6643432904
 30
0.0
 11
164.3798904409
 21
42.0157931503
 31
0.0
  0
LINE
  5
E3
  8
LEVEL0
 10
52.2798904409
 20
43.0157931503
 30
0.0
 11
164.3798904409
 21
43.0157931503
 31
0.0
  0
TEXT
  5
E4
  8
LEVEL0
 10
101.9921494651
 20
43.7528688037
 30
-8.85
 40
2.0
  1
  
 50
0.0
 41
0.7
 11
101.9921494651
 21
43.0463486799
 31
-8.85
 73
     1
  0
TEXT
  5
E5
  8
LEVEL0
 10
104.6886772153
 20
46.7146743597
 30
-8.85
 40
2.0
  1
4.41
 50
0.0
 41
0.7
 11
104.6886772153
 21
46.0081542358
 31
-8.85
 73
     1
  0
TEXT
  5
E6
  8
LEVEL0
 10
103.9497883528
 20
43.7223130413
 30
-8.85
 40
2.0
  1
112.1
 50
0.0
 41
0.7
 11
103.9497883528
 21
43.0157929175
 31
-8.85
 73
     1
  0
TEXT
  5
E7
  8
LEVEL0
 10
111.0796496275
 20
43.7528688037
 30
-8.85
 40
2.0
  1
  
 50
0.0
 41
0.7
 11
111.0796496275
 21
43.0463486799
 31
-8.85
 73
     1
  0
ENDBLK
  5
D8
  8
0
  0
BLOCK
  8
0
  2
_D_2
 70
     0
 10
0.0
 20
0.0
 30
0.0
  3
_D_2
  1

  0
INSERT
  5
EC
  8
LEVEL0
  2
_CLOSED
 10
52.2798904409
 20
77.8428799437
 30
-8.85
 41
2.0
 42
2.0
 50
180.0
  0
INSERT
  5
ED
  8
LEVEL0
  2
_CLOSED
 10
60.0798904409
 20
77.8428799437
 30
-8.85
 41
2.0
 42
2.0
 50
0.0
  0
LINE
  5
EE
  8
LEVEL0
 10
42.4974507986
 20
84.0102409908
 30
0.0
 11
41.888075786
 21
84.0102409908
 31
0.0
  0
LINE
  5
EF
  8
LEVEL0
 10
41.888075786
 20
84.0102409908
 30
0.0
 11
41.888075786
 21
80.8352410292
 31
0.0
  0
LINE
  5
F0
  8
LEVEL0
 10
41.888075786
 20
80.8352410292
 30
0.0
 11
42.4974507986
 21
80.8352410292
 31
0.0
  0
LINE
  5
F1
  8
LEVEL0
 10
47.66967272
 20
84.0102409908
 30
0.0
 11
48.2790477326
 21
84.0102409908
 31
0.0
  0
LINE
  5
F2
  8
LEVEL0
 10
48.2790477326
 20
84.0102409908
 30
0.0
 11
48.2790477326
 21
80.8352410292
 31
0.0
  0
LINE
  5
F3
  8
LEVEL0
 10
48.2790477326
 20
80.8352410292
 30
0.0
 11
47.66967272
 21
80.8352410292
 31
0.0
  0
LINE
  5
F4
  8
LEVEL0
 10
52.2798904409
 20
58.6643432904
 30
0.0
 11
52.2798904409
 21
78.8428799437
 31
0.0
  0
LINE
  5
F5
  8
LEVEL0
 10
52.2798904409
 20
77.8428799437
 30
0.0
 11
39.8009230484
 21
77.8428799437
 31
0.0
  0
LINE
  5
F6
  8
LEVEL0
 10
52.2798904409
 20
77.8428799437
 30
0.0
 11
60.0798904409
 21
77.8428799437
 31
0.0
  0
TEXT
  5
F7
  8
LEVEL0
 10
39.8009230484
 20
78.5799555971
 30
-8.85
 40
2.0
  1
  
 50
360.0
 41
0.7
 11
39.8009230484
 21
77.8734354732
 31
-8.85
 73
     1
  0
TEXT
  5
F8
  8
LEVEL0
 10
42.4974507986
 20
81.541761153
 30
-8.85
 40
2.0
  1
0.31
 50
360.0
 41
0.7
 11
42.4974507986
 21
80.8352410292
 31
-8.85
 73
     1
  0
TEXT
  5
F9
  8
LEVEL0
 10
43.2363397776
 20
78.5493998347
 30
-8.85
 40
2.0
  1
7.8
 50
360.0
 41
0.7
 11
43.2363397776
 21
77.8428797109
 31
-8.85
 73
     1
  0
TEXT
  5
FA
  8
LEVEL0
 10
48.8884232108
 20
78.5799555971
 30
-8.85
 40
2.0
  1
  
 50
360.0
 41
0.7
 11
48.8884232108
 21
77.8734354732
 31
-8.85
 73
     1
  0
ENDBLK
  5
EB
  8
0
  0
BLOCK
  8
0
  2
_D_3
 70
     0
 10
0.0
 20
0.0
 30
0.0
  3
_D_3
  1

  0
INSERT
  5
FF
  8
LEVEL0
  2
_CLOSED
 10
70.3779162833
 20
54.1643432904
 30
-8.85
 41
2.0
 42
2.0
 50
270.0
  0
INSERT
  5
100
  8
LEVEL0
  2
_CLOSED
 10
70.3779162833
 20
61.9643432904
 30
-8.85
 41
2.0
 42
2.0
 50
90.0
  0
LINE
  5
101
  8
LEVEL0
 10
64.2105552362
 20
46.3108139716
 30
0.0
 11
64.2105552362
 21
45.7014389591
 31
0.0
  0
LINE
  5
102
  8
LEVEL0
 10
64.2105552362
 20
45.7014389591
 30
0.0
 11
67.3855551978
 21
45.7014389591
 31
0.0
  0
LINE
  5
103
  8
LEVEL0
 10
67.3855551978
 20
45.7014389591
 30
0.0
 11
67.3855551978
 21
46.3108139716
 31
0.0
  0
LINE
  5
104
  8
LEVEL0
 10
64.2105552362
 20
51.483035893
 30
0.0
 11
64.2105552362
 21
52.0924109056
 31
0.0
  0
LINE
  5
105
  8
LEVEL0
 10
64.2105552362
 20
52.0924109056
 30
0.0
 11
67.3855551978
 21
52.0924109056
 31
0.0
  0
LINE
  5
106
  8
LEVEL0
 10
67.3855551978
 20
52.0924109056
 30
0.0
 11
67.3855551978
 21
51.483035893
 31
0.0
  0
LINE
  5
107
  8
LEVEL0
 10
56.7798904409
 20
54.1643432904
 30
0.0
 11
71.3779162833
 21
54.1643432904
 31
0.0
  0
LINE
  5
108
  8
LEVEL0
 10
70.3779162833
 20
54.1643432904
 30
0.0
 11
70.3779162833
 21
43.6142862214
 31
0.0
  0
LINE
  5
109
  8
LEVEL0
 10
70.3779162833
 20
54.1643432904
 30
0.0
 11
70.3779162833
 21
61.9643432904
 31
0.0
  0
TEXT
  5
10A
  8
LEVEL0
 10
69.64084063
 20
43.6142862214
 30
-8.85
 40
2.0
  1
  
 50
90.0
 41
0.7
 11
70.3473607538
 21
43.6142862214
 31
-8.85
 73
     1
  0
TEXT
  5
10B
  8
LEVEL0
 10
66.679035074
 20
46.3108139716
 30
-8.85
 40
2.0
  1
0.31
 50
90.0
 41
0.7
 11
67.3855551978
 21
46.3108139716
 31
-8.85
 73
     1
  0
TEXT
  5
10C
  8
LEVEL0
 10
69.6713963923
 20
47.0497029506
 30
-8.85
 40
2.0
  1
7.8
 50
90.0
 41
0.7
 11
70.3779165161
 21
47.0497029506
 31
-8.85
 73
     1
  0
TEXT
  5
10D
  8
LEVEL0
 10
69.64084063
 20
52.7017863838
 30
-8.85
 40
2.0
  1
  
 50
90.0
 41
0.7
 11
70.3473607538
 21
52.7017863838
 31
-8.85
 73
     1
  0
ENDBLK
  5
FE
  8
0
  0
BLOCK
  8
0
  2
_D_4
 70
     0
 10
0.0
 20
0.0
 30
0.0
  3
_D_4
  1

  0
INSERT
  5
113
  8
LEVEL0
  2
_CLOSED
 10
60.4925744005
 20
228.8946664019
 30
-8.85
 41
2.0
 42
2.0
 50
319.0027648611
  0
LINE
  5
114
  8
LEVEL0
 10
72.4206139131
 20
226.6403438174
 30
0.0
 11
71.9591678964
 21
227.0383456762
 31
0.0
  0
LINE
  5
115
  8
LEVEL0
 10
71.9591678964
 20
227.0383456762
 30
0.0
 11
69.8854762279
 21
224.6340936886
 31
0.0
  0
LINE
  5
116
  8
LEVEL0
 10
69.8854762279
 20
224.6340936886
 30
0.0
 11
70.3469222446
 21
224.2360918297
 31
0.0
  0
LINE
  5
117
  8
LEVEL0
 10
76.3372517038
 20
223.2622040895
 30
0.0
 11
76.7986977204
 21
222.8642022307
 31
0.0
  0
LINE
  5
118
  8
LEVEL0
 10
76.7986977204
 20
222.8642022307
 30
0.0
 11
74.7250060519
 21
220.459950243
 31
0.0
  0
LINE
  5
119
  8
LEVEL0
 10
74.7250060519
 20
220.459950243
 30
0.0
 11
74.2635600352
 21
220.8579521019
 31
0.0
  0
LINE
  5
11A
  8
LEVEL0
 10
60.4925744005
 20
228.8946664019
 30
0.0
 11
77.0414094861
 21
214.5103855104
 31
0.0
  0
LINE
  5
11B
  8
LEVEL0
 10
60.4925744005
 20
228.8946664019
 30
0.0
 11
57.5897234848
 21
231.4178302827
 31
0.0
  0
TEXT
  5
11C
  8
LEVEL0
 10
70.8083726106
 20
224.7711004699
 30
-8.85
 40
2.0
  1
0.07
 50
319.2218977417
 41
0.7
 11
70.3469222446
 21
224.2360918297
 31
-8.85
 73
     1
  0
TEXT
  5
11D
  8
LEVEL0
 10
68.8003296631
 20
222.5514141941
 30
-8.85
 40
2.0
  1
R1.7
 50
319.2218977417
 41
0.7
 11
68.338879297
 21
222.0164055539
 31
-8.85
 73
     1
  0
TEXT
  5
11E
  8
LEVEL0
 10
73.7134548693
 20
218.3541452247
 30
-8.85
 40
2.0
  1
 TYP
 50
319.2218977417
 41
0.7
 11
73.2520045033
 21
217.8191365845
 31
-8.85
 73
     1
  0
ENDBLK
  5
112
  8
0
  0
BLOCK
  8
0
  2
_D_5
 70
     0
 10
0.0
 20
0.0
 30
0.0
  3
_D_5
  1

  0
ARC
  5
124
  8
LEVEL0
 10
119.1946020712
 20
155.9067513032
 30
0.0
 40
5.782720426090119
 50
153.4349488229
 51
206.5650511771
  0
ARC
  5
125
  8
LEVEL0
 10
117.1168242012
 20
155.9067513032
 30
0.0
 40
5.782720426090119
 50
333.4349488229
 51
26.5650511771
  0
ARC
  5
126
  8
LEVEL0
 10
120.6723806112
 20
149.9220291322
 30
0.0
 40
5.782720426090119
 50
153.4349488229
 51
206.5650511771
  0
ARC
  5
127
  8
LEVEL0
 10
117.1168243177
 20
149.9220291322
 30
0.0
 40
5.782720426090119
 50
333.4349488229
 51
26.5650511771
  0
INSERT
  5
128
  8
LEVEL0
  2
_CLOSED
 10
60.0798904409
 20
147.3359179387
 30
-8.85
 41
2.0
 42
2.0
 50
180.0
  0
INSERT
  5
129
  8
LEVEL0
  2
_CLOSED
 10
156.5798904409
 20
147.3359179387
 30
-8.85
 41
2.0
 42
2.0
 50
0.0
  0
LINE
  5
12A
  8
LEVEL0
 10
107.5007707709
 20
158.8991123887
 30
0.0
 11
106.8913957583
 21
158.8991123887
 31
0.0
  0
LINE
  5
12B
  8
LEVEL0
 10
106.8913957583
 20
158.8991123887
 30
0.0
 11
106.8913957583
 21
153.3206401097
 31
0.0
  0
LINE
  5
12C
  8
LEVEL0
 10
106.8913957583
 20
153.3206401097
 30
0.0
 11
107.5007707709
 21
153.3206401097
 31
0.0
  0
LINE
  5
12D
  8
LEVEL0
 10
122.8995450669
 20
158.8991123887
 30
0.0
 11
123.5089200795
 21
158.8991123887
 31
0.0
  0
LINE
  5
12E
  8
LEVEL0
 10
123.5089200795
 20
158.8991123887
 30
0.0
 11
123.5089200795
 21
153.3206401097
 31
0.0
  0
LINE
  5
12F
  8
LEVEL0
 10
123.5089200795
 20
153.3206401097
 30
0.0
 11
122.8995450669
 21
153.3206401097
 31
0.0
  0
LINE
  5
130
  8
LEVEL0
 10
60.0798904409
 20
147.3359179387
 30
0.0
 11
156.5798904409
 21
147.3359179387
 31
0.0
  0
TEXT
  5
131
  8
LEVEL0
 10
104.8042430206
 20
148.0729935921
 30
-8.85
 40
2.0
  1
  
 50
360.0
 41
0.7
 11
104.8042430206
 21
147.3664734682
 31
-8.85
 73
     1
  0
TEXT
  5
132
  8
LEVEL0
 10
107.5007707709
 20
154.057715763
 30
-8.85
 40
2.0
  1
3.80
 50
360.0
 41
0.7
 11
107.5007707709
 21
153.3511956392
 31
-8.85
 73
     1
  0
TEXT
  5
133
  8
LEVEL0
 10
112.6729926923
 20
154.057715763
 30
-8.85
 40
2.0
  1
 
 50
360.0
 41
0.7
 11
112.6729926923
 21
153.3511956392
 31
-8.85
 73
     1
  0
TEXT
  5
134
  8
LEVEL0
 10
114.0223796842
 20
156.613271427
 30
-8.85
 40
2.0
  1
+
 50
360.0
 41
0.7
 11
114.0223796842
 21
155.9067513032
 31
-8.85
 73
     1
  0
TEXT
  5
135
  8
LEVEL0
 10
114.3876574656
 20
154.0271602335
 30
-8.85
 40
2.0
  1
-
 50
360.0
 41
0.7
 11
114.3876574656
 21
153.3206401097
 31
-8.85
 73
     1
  0
TEXT
  5
136
  8
LEVEL0
 10
115.6390463597
 20
156.613271427
 30
-8.85
 40
2.0
  1
0.012
 50
360.0
 41
0.7
 11
115.6390463597
 21
155.9067513032
 31
-8.85
 73
     1
  0
TEXT
  5
137
  8
LEVEL0
 10
115.6390463597
 20
154.0271602335
 30
-8.85
 40
2.0
  1
0.008
 50
360.0
 41
0.7
 11
115.6390463597
 21
153.3206401097
 31
-8.85
 73
     1
  0
TEXT
  5
138
  8
LEVEL0
 10
107.500771353
 20
148.0424380625
 30
-8.85
 40
2.0
  1
96.50
 50
360.0
 41
0.7
 11
107.500771353
 21
147.3359179387
 31
-8.85
 73
     1
  0
TEXT
  5
139
  8
LEVEL0
 10
114.1507712323
 20
148.0424380625
 30
-8.85
 40
2.0
  1
 
 50
360.0
 41
0.7
 11
114.1507712323
 21
147.3359179387
 31
-8.85
 73
     1
  0
TEXT
  5
13A
  8
LEVEL0
 10
115.5001582242
 20
150.6285492561
 30
-8.85
 40
2.0
  1
+
 50
360.0
 41
0.7
 11
115.5001582242
 21
149.9220291322
 31
-8.85
 73
     1
  0
TEXT
  5
13B
  8
LEVEL0
 10
115.8654360056
 20
148.0424380625
 30
-8.85
 40
2.0
  1
-
 50
360.0
 41
0.7
 11
115.8654360056
 21
147.3359179387
 31
-8.85
 73
     1
  0
TEXT
  5
13C
  8
LEVEL0
 10
117.1168248997
 20
150.6285492561
 30
-8.85
 40
2.0
  1
0.30
 50
360.0
 41
0.7
 11
117.1168248997
 21
149.9220291322
 31
-8.85
 73
     1
  0
TEXT
  5
13D
  8
LEVEL0
 10
117.1168248997
 20
148.0424380625
 30
-8.85
 40
2.0
  1
0.20
 50
360.0
 41
0.7
 11
117.1168248997
 21
147.3359179387
 31
-8.85
 73
     1
  0
TEXT
  5
13E
  8
LEVEL0
 10
124.1182955577
 20
148.0729935921
 30
-8.85
 40
2.0
  1
  
 50
360.0
 41
0.7
 11
124.1182955577
 21
147.3664734682
 31
-8.85
 73
     1
  0
ENDBLK
  5
123
  8
0
  0
BLOCK
  8
0
  2
_D_6
 70
     0
 10
0.0
 20
0.0
 30
0.0
  3
_D_6
  1

  0
ARC
  5
144
  8
LEVEL0
 10
88.5856873522
 20
172.918837429
 30
0.0
 40
5.782720426090139
 50
243.4349488229
 51
296.5650511771
  0
ARC
  5
145
  8
LEVEL0
 10
88.5856873522
 20
170.841059559
 30
0.0
 40
5.782720426090113
 50
63.4349488229
 51
116.5650511771
  0
ARC
  5
146
  8
LEVEL0
 10
94.5704095232
 20
175.1355044822
 30
0.0
 40
5.782720426090113
 50
243.4349488229
 51
296.5650511771
  0
ARC
  5
147
  8
LEVEL0
 10
94.5704095232
 20
170.1021706964
 30
0.0
 40
5.782720426090139
 50
63.4349488229
 51
116.5650511771
  0
INSERT
  5
148
  8
LEVEL0
  2
_CLOSED
 10
97.1565207167
 20
229.4843432904
 30
-8.85
 41
2.0
 42
2.0
 50
90.0
  0
INSERT
  5
149
  8
LEVEL0
  2
_CLOSED
 10
97.1565207167
 20
61.9643432904
 30
-8.85
 41
2.0
 42
2.0
 50
270.0
  0
LINE
  5
14A
  8
LEVEL0
 10
85.5933262667
 20
161.2250061286
 30
0.0
 11
85.5933262667
 21
160.615631116
 31
0.0
  0
LINE
  5
14B
  8
LEVEL0
 10
85.5933262667
 20
160.615631116
 30
0.0
 11
91.1717985457
 21
160.615631116
 31
0.0
  0
LINE
  5
14C
  8
LEVEL0
 10
91.1717985457
 20
160.615631116
 30
0.0
 11
91.1717985457
 21
161.2250061286
 31
0.0
  0
LINE
  5
14D
  8
LEVEL0
 10
85.5933262667
 20
176.6237804246
 30
0.0
 11
85.5933262667
 21
177.2331554372
 31
0.0
  0
LINE
  5
14E
  8
LEVEL0
 10
85.5933262667
 20
177.2331554372
 30
0.0
 11
91.1717985457
 21
177.2331554372
 31
0.0
  0
LINE
  5
14F
  8
LEVEL0
 10
91.1717985457
 20
177.2331554372
 30
0.0
 11
91.1717985457
 21
176.6237804246
 31
0.0
  0
LINE
  5
150
  8
LEVEL0
 10
97.1565207167
 20
229.4843432904
 30
0.0
 11
97.1565207167
 21
61.9643432904
 31
0.0
  0
TEXT
  5
151
  8
LEVEL0
 10
96.4194450634
 20
158.5284783784
 30
-8.85
 40
2.0
  1
  
 50
90.0
 41
0.7
 11
97.1259651872
 21
158.5284783784
 31
-8.85
 73
     1
  0
TEXT
  5
152
  8
LEVEL0
 10
90.4347228924
 20
161.2250061286
 30
-8.85
 40
2.0
  1
6.60
 50
90.0
 41
0.7
 11
91.1412430162
 21
161.2250061286
 31
-8.85
 73
     1
  0
TEXT
  5
153
  8
LEVEL0
 10
90.4347228924
 20
166.39722805
 30
-8.85
 40
2.0
  1
 
 50
90.0
 41
0.7
 11
91.1412430162
 21
166.39722805
 31
-8.85
 73
     1
  0
TEXT
  5
154
  8
LEVEL0
 10
87.8791672284
 20
167.7466150419
 30
-8.85
 40
2.0
  1
+
 50
90.0
 41
0.7
 11
88.5856873522
 21
167.7466150419
 31
-8.85
 73
     1
  0
TEXT
  5
155
  8
LEVEL0
 10
90.4652784219
 20
168.1118928233
 30
-8.85
 40
2.0
  1
-
 50
90.0
 41
0.7
 11
91.1717985457
 21
168.1118928233
 31
-8.85
 73
     1
  0
TEXT
  5
156
  8
LEVEL0
 10
87.8791672284
 20
169.3632817175
 30
-8.85
 40
2.0
  1
0.012
 50
90.0
 41
0.7
 11
88.5856873522
 21
169.3632817175
 31
-8.85
 73
     1
  0
TEXT
  5
157
  8
LEVEL0
 10
90.4652784219
 20
169.3632817175
 30
-8.85
 40
2.0
  1
0.008
 50
90.0
 41
0.7
 11
91.1717985457
 21
169.3632817175
 31
-8.85
 73
     1
  0
TEXT
  5
158
  8
LEVEL0
 10
96.4500005929
 20
161.963895224
 30
-8.85
 40
2.0
  1
167.5
 50
90.0
 41
0.7
 11
97.1565207167
 21
161.963895224
 31
-8.85
 73
     1
  0
TEXT
  5
159
  8
LEVEL0
 10
96.4500005929
 20
168.6138951033
 30
-8.85
 40
2.0
  1
 
 50
90.0
 41
0.7
 11
97.1565207167
 21
168.6138951033
 31
-8.85
 73
     1
  0
TEXT
  5
15A
  8
LEVEL0
 10
93.8638893994
 20
169.9632820952
 30
-8.85
 40
2.0
  1
+
 50
90.0
 41
0.7
 11
94.5704095232
 21
169.9632820952
 31
-8.85
 73
     1
  0
TEXT
  5
15B
  8
LEVEL0
 10
96.4500005929
 20
170.3285598766
 30
-8.85
 40
2.0
  1
-
 50
90.0
 41
0.7
 11
97.1565207167
 21
170.3285598766
 31
-8.85
 73
     1
  0
TEXT
  5
15C
  8
LEVEL0
 10
93.8638893994
 20
171.5799487707
 30
-8.85
 40
2.0
  1
0.3
 50
90.0
 41
0.7
 11
94.5704095232
 21
171.5799487707
 31
-8.85
 73
     1
  0
TEXT
  5
15D
  8
LEVEL0
 10
96.4500005929
 20
171.5799487707
 30
-8.85
 40
2.0
  1
0.2
 50
90.0
 41
0.7
 11
97.1565207167
 21
171.5799487707
 31
-8.85
 73
     1
  0
TEXT
  5
15E
  8
LEVEL0
 10
96.4194450634
 20
177.8425309154
 30
-8.85
 40
2.0
  1
  
 50
90.0
 41
0.7
 11
97.1259651872
 21
177.8425309154
 31
-8.85
 73
     1
  0
ENDBLK
  5
143
  8
0
  0
BLOCK
  8
0
  2
SW_NOTE_0_1
 70
     0
 10
0.0
 20
0.0
 30
0.0
  3
SW_NOTE_0_1
  1

  0
TEXT
  5
162
  8
LEVEL0
 62
     0
 10
-53.8431066472
 20
3.7113088926
 30
0.0
 40
2.0
  1
MARK SCREW LOCATIONS
 41
0.665
 11
-53.8431066472
 21
3.0047887687
 31
0.0
 73
     1
  0
LINE
  5
163
  8
LEVEL0
 62
     0
 10
-20.1901607381
 20
4.7917615182
 30
0.0
 11
0.0
 21
0.0
 31
0.0
  0
SOLID
  5
164
  8
LEVEL0
 62
     0
 10
0.0
 20
0.0
 30
0.0
 11
-1.8748953221
 21
0.7612109348
 31
0.0
 12
-2.0169982472
 22
0.162458078
 32
0.0
 13
-2.0169982472
 23
0.162458078
 33
0.0
  0
ENDBLK
  5
161
  8
0
  0
BLOCK
  8
0
  2
SW_CENTERMARKSYMBOL_0
 70
     0
 10
0.0
 20
0.0
 30
0.0
  3
SW_CENTERMARKSYMBOL_0
  1

  0
LINE
  5
169
  8
LEVEL0
 62
     0
 10
0.0
 20
0.0
 30
0.0
 11
0.0
 21
2.5
 31
0.0
  0
LINE
  5
16A
  8
LEVEL0
 62
     0
 10
0.0
 20
0.0
 30
0.0
 11
-2.5
 21
0.0
 31
0.0
  0
LINE
  5
16B
  8
LEVEL0
 62
     0
 10
0.0
 20
0.0
 30
0.0
 11
0.0
 21
-2.5
 31
0.0
  0
LINE
  5
16C
  8
LEVEL0
 62
     0
 10
0.0
 20
0.0
 30
0.0
 11
2.5
 21
0.0
 31
0.0
  0
LINE
  5
16D
  8
LEVEL0
 62
     0
 10
0.0
 20
2.5
 30
0.0
 11
0.0
 21
3.5
 31
0.0
  0
LINE
  5
16E
  8
LEVEL0
 62
     0
 10
-2.5
 20
0.0
 30
0.0
 11
-3.5
 21
0.0
 31
0.0
  0
LINE
  5
16F
  8
LEVEL0
 62
     0
 10
0.0
 20
-2.5
 30
0.0
 11
0.0
 21
-3.5
 31
0.0
  0
LINE
  5
170
  8
LEVEL0
 62
     0
 10
2.5
 20
0.0
 30
0.0
 11
3.5
 21
0.0
 31
0.0
  0
ENDBLK
  5
168
  8
0
  0
BLOCK
  8
0
  2
SW_CENTERMARKSYMBOL_1
 70
     0
 10
0.0
 20
0.0
 30
0.0
  3
SW_CENTERMARKSYMBOL_1
  1

  0
LINE
  5
175
  8
LEVEL0
 62
     0
 10
0.0
 20
0.0
 30
0.0
 11
0.0
 21
2.5
 31
0.0
  0
LINE
  5
176
  8
LEVEL0
 62
     0
 10
0.0
 20
0.0
 30
0.0
 11
-2.5
 21
0.0
 31
0.0
  0
LINE
  5
177
  8
LEVEL0
 62
     0
 10
0.0
 20
0.0
 30
0.0
 11
0.0
 21
-2.5
 31
0.0
  0
LINE
  5
178
  8
LEVEL0
 62
     0
 10
0.0
 20
0.0
 30
0.0
 11
2.5
 21
0.0
 31
0.0
  0
LINE
  5
179
  8
LEVEL0
 62
     0
 10
0.0
 20
2.5
 30
0.0
 11
0.0
 21
3.5
 31
0.0
  0
LINE
  5
17A
  8
LEVEL0
 62
     0
 10
-2.5
 20
0.0
 30
0.0
 11
-3.5
 21
0.0
 31
0.0
  0
LINE
  5
17B
  8
LEVEL0
 62
     0
 10
0.0
 20
-2.5
 30
0.0
 11
0.0
 21
-3.5
 31
0.0
  0
LINE
  5
17C
  8
LEVEL0
 62
     0
 10
2.5
 20
0.0
 30
0.0
 11
3.5
 21
0.0
 31
0.0
  0
ENDBLK
  5
174
  8
0
  0
BLOCK
  8
0
  2
SW_CENTERMARKSYMBOL_2
 70
     0
 10
0.0
 20
0.0
 30
0.0
  3
SW_CENTERMARKSYMBOL_2
  1

  0
LINE
  5
181
  8
LEVEL0
 62
     0
 10
0.0
 20
0.0
 30
0.0
 11
0.0
 21
2.5
 31
0.0
  0
LINE
  5
182
  8
LEVEL0
 62
     0
 10
0.0
 20
0.0
 30
0.0
 11
-2.5
 21
0.0
 31
0.0
  0
LINE
  5
183
  8
LEVEL0
 62
     0
 10
0.0
 20
0.0
 30
0.0
 11
0.0
 21
-2.5
 31
0.0
  0
LINE
  5
184
  8
LEVEL0
 62
     0
 10
0.0
 20
0.0
 30
0.0
 11
2.5
 21
0.0
 31
0.0
  0
LINE
  5
185
  8
LEVEL0
 62
     0
 10
0.0
 20
2.5
 30
0.0
 11
0.0
 21
3.5
 31
0.0
  0
LINE
  5
186
  8
LEVEL0
 62
     0
 10
-2.5
 20
0.0
 30
0.0
 11
-3.5
 21
0.0
 31
0.0
  0
LINE
  5
187
  8
LEVEL0
 62
     0
 10
0.0
 20
-2.5
 30
0.0
 11
0.0
 21
-3.5
 31
0.0
  0
LINE
  5
188
  8
LEVEL0
 62
     0
 10
2.5
 20
0.0
 30
0.0
 11
3.5
 21
0.0
 31
0.0
  0
ENDBLK
  5
180
  8
0
  0
BLOCK
  8
0
  2
SW_CENTERMARKSYMBOL_3
 70
     0
 10
0.0
 20
0.0
 30
0.0
  3
SW_CENTERMARKSYMBOL_3
  1

  0
LINE
  5
18D
  8
LEVEL0
 62
     0
 10
0.0
 20
0.0
 30
0.0
 11
0.0
 21
2.5
 31
0.0
  0
LINE
  5
18E
  8
LEVEL0
 62
     0
 10
0.0
 20
0.0
 30
0.0
 11
-2.5
 21
0.0
 31
0.0
  0
LINE
  5
18F
  8
LEVEL0
 62
     0
 10
0.0
 20
0.0
 30
0.0
 11
0.0
 21
-2.5
 31
0.0
  0
LINE
  5
190
  8
LEVEL0
 62
     0
 10
0.0
 20
0.0
 30
0.0
 11
2.5
 21
0.0
 31
0.0
  0
LINE
  5
191
  8
LEVEL0
 62
     0
 10
0.0
 20
2.5
 30
0.0
 11
0.0
 21
3.5
 31
0.0
  0
LINE
  5
192
  8
LEVEL0
 62
     0
 10
-2.5
 20
0.0
 30
0.0
 11
-3.5
 21
0.0
 31
0.0
  0
LINE
  5
193
  8
LEVEL0
 62
     0
 10
0.0
 20
-2.5
 30
0.0
 11
0.0
 21
-3.5
 31
0.0
  0
LINE
  5
194
  8
LEVEL0
 62
     0
 10
2.5
 20
0.0
 30
0.0
 11
3.5
 21
0.0
 31
0.0
  0
ENDBLK
  5
18C
  8
0
  0
ENDSEC
  0
SECTION
  2
ENTITIES
  0
TEXT
  5
A7
  8
LEVEL0
 10
71.5839956098
 20
29.1403785829
 30
0.0
 40
3.7041666667
  1
PRINT THIS PAGE 1:1 SCALE
 41
0.644
 11
71.5839956098
 21
27.8318444368
 31
0.0
 73
     1
  0
INSERT
  5
AD
  8
LEVEL0
  2
SW_NOTE_0
 10
35.6371053162
 20
265.3305572125
 30
0.0
  0
ARC
  5
AE
  8
0
  6
CONTINUOUS
 62
     7
 10
61.7798904409
 20
227.7843432904
 30
0.0
 40
1.700000000000017
 50
90.0
 51
180.0
  0
LINE
  5
AF
  8
0
  6
CONTINUOUS
 62
     7
 10
60.0798904409
 20
63.6643432904
 30
0.0
 11
60.0798904409
 21
227.7843432904
 31
0.0
  0
ARC
  5
B0
  8
0
  6
CONTINUOUS
 62
     7
 10
61.7798904409
 20
63.6643432904
 30
0.0
 40
1.70000000000001
 50
180.0
 51
270.0
  0
LINE
  5
B1
  8
0
  6
CONTINUOUS
 62
     7
 10
154.8798904409
 20
61.9643432904
 30
0.0
 11
61.7798904409
 21
61.9643432904
 31
0.0
  0
ARC
  5
B2
  8
0
  6
CONTINUOUS
 62
     7
 10
154.8798904409
 20
63.6643432904
 30
0.0
 40
1.70000000000001
 50
270.0
 51
0.0
  0
LINE
  5
B3
  8
0
  6
CONTINUOUS
 62
     7
 10
156.5798904409
 20
227.7843432904
 30
0.0
 11
156.5798904409
 21
63.6643432904
 31
0.0
  0
ARC
  5
B4
  8
0
  6
CONTINUOUS
 62
     7
 10
154.8798904409
 20
227.7843432904
 30
0.0
 40
1.700000000000017
 50
0.0
 51
90.0
  0
LINE
  5
B5
  8
0
  6
CONTINUOUS
 62
     7
 10
61.7798904409
 20
229.4843432904
 30
0.0
 11
154.8798904409
 21
229.4843432904
 31
0.0
  0
CIRCLE
  5
B6
  8
0
  6
CONTINUOUS
 62
     7
 10
164.3798904409
 20
237.2843432904
 30
0.0
 40
1.0
  0
CIRCLE
  5
B7
  8
0
  6
CONTINUOUS
 62
     7
 10
164.3798904409
 20
54.1643432904
 30
0.0
 40
1.0
  0
CIRCLE
  5
B8
  8
0
  6
CONTINUOUS
 62
     7
 10
52.2798904409
 20
54.1643432904
 30
0.0
 40
1.0
  0
CIRCLE
  5
B9
  8
0
  6
CONTINUOUS
 62
     7
 10
52.2798904409
 20
237.2843432904
 30
0.0
 40
1.0
  0
DIMENSION
  5
BA
  8
LEVEL0
  2
_D
 10
37.4196188651
 20
54.1643432904
 30
0.0
 11
37.4196188651
 21
153.9606444103
 31
0.0
 70
   160
  1
<>
  3
SLDDIMSTYLE0
 13
48.7798904409
 23
237.2843432904
 33
0.0
 14
48.7798904409
 24
54.1643432904
 34
0.0
 50
90.0
  0
DIMENSION
  5
D5
  8
LEVEL0
  2
_D_1
 10
164.3798904409
 20
43.0157931503
 30
0.0
 11
107.2747885253
 21
43.0157931503
 31
0.0
 70
   160
  1
<>
  3
SLDDIMSTYLE0
 13
52.2798904409
 23
50.6643432904
 33
0.0
 14
164.3798904409
 24
50.6643432904
 34
0.0
 50
0.0
  0
DIMENSION
  5
E8
  8
LEVEL0
  2
_D_2
 10
60.0798904409
 20
77.8428799437
 30
0.0
 11
45.0835621086
 21
77.8428799437
 31
0.0
 70
   160
  1
<>
  3
SLDDIMSTYLE0
 13
52.2798904409
 23
57.6643432904
 33
0.0
 14
60.0798904409
 24
63.6643432904
 34
0.0
 50
0.0
  0
DIMENSION
  5
FB
  8
LEVEL0
  2
_D_3
 10
70.3779162833
 20
61.9643432904
 30
0.0
 11
70.3779162833
 21
48.8969252816
 31
0.0
 70
   160
  1
<>
  3
SLDDIMSTYLE0
 13
55.7798904409
 23
54.1643432904
 33
0.0
 14
61.7798904409
 24
61.9643432904
 34
0.0
 50
90.0
  0
DIMENSION
  5
10E
  8
LEVEL0
  2
_D_4
 10
61.7798904409
 20
227.7843432904
 30
0.0
 11
72.5860063707
 21
218.4639775763
 31
0.0
 70
   164
  1
<> TYP
  3
SLDDIMSTYLE1
 15
60.4925744005
 25
228.8946664019
 35
0.0
 40
0.0
  0
DIMENSION
  5
11F
  8
LEVEL0
  2
_D_5
 10
156.5798904409
 20
147.3359179387
 30
0.0
 11
115.2001582681
 21
147.3359179387
 31
0.0
 70
   160
  1
<>
  3
SLDDIMSTYLE2
 13
60.0798904409
 23
227.7843432904
 33
0.0
 14
156.5798904409
 24
227.7843432904
 34
0.0
 50
0.0
  0
DIMENSION
  5
13F
  8
LEVEL0
  2
_D_6
 10
97.1565207167
 20
61.9643432904
 30
0.0
 11
97.1565207167
 21
168.9243936259
 31
0.0
 70
   160
  1
<>
  3
SLDDIMSTYLE3
 13
61.7798904409
 23
229.4843432904
 33
0.0
 14
61.7798904409
 24
61.9643432904
 34
0.0
 50
90.0
  0
INSERT
  5
165
  8
LEVEL0
  2
SW_NOTE_0_1
 10
163.3986393434
 20
237.0916095784
 30
0.0
  0
INSERT
  5
171
  8
LEVEL0
  2
SW_CENTERMARKSYMBOL_0
 10
164.3798904409
 20
237.2843432904
 30
0.0
  0
INSERT
  5
17D
  8
LEVEL0
  2
SW_CENTERMARKSYMBOL_1
 10
164.3798904409
 20
54.1643432904
 30
0.0
  0
INSERT
  5
189
  8
LEVEL0
  2
SW_CENTERMARKSYMBOL_2
 10
52.2798904409
 20
54.1643432904
 30
0.0
  0
INSERT
  5
195
  8
LEVEL0
  2
SW_CENTERMARKSYMBOL_3
 10
52.2798904409
 20
237.2843432904
 30
0.0
  0
ENDSEC
  0
EOF
