  0
SECTION
  2
HEADER
  9
$ACADVER
  1
AC1009
  9
$DWGCODEPAGE
  3
ansi_1252
  9
$INSBASE
 10
0.0
 20
0.0
 30
0.0
  9
$EXTMIN
 10
0.0
 20
0.0
 30
0.0
  9
$EXTMAX
 10
210.0
 20
297.0
 30
0.0
  9
$LIMMIN
 10
0.0
 20
0.0
  9
$LIMMAX
 10
210.0
 20
297.0
  9
$ORTHOMODE
 70
     0
  9
$REGENMODE
 70
     1
  9
$FILLMODE
 70
     1
  9
$QTEXTMODE
 70
     0
  9
$MIRRTEXT
 70
     1
  9
$DRAGMODE
 70
     2
  9
$LTSCALE
 40
1.0
  9
$OSMODE
 70
    37
  9
$ATTMODE
 70
     1
  9
$TEXTSIZE
 40
2.0
  9
$TRACEWID
 40
1.0
  9
$TEXTSTYLE
  7
STANDARD
  9
$CLAYER
  8
0
  9
$CELTYPE
  6
BYLAYER
  9
$CECOLOR
 62
   256
  9
$DIMSCALE
 40
1.0
  9
$DIMASZ
 40
2.0
  9
$DIMEXO
 40
1.0
  9
$DIMDLI
 40
3.75
  9
$DIMRND
 40
0.0
  9
$DIMDLE
 40
0.0
  9
$DIMEXE
 40
1.0
  9
$DIMTP
 40
0.0
  9
$DIMTM
 40
0.0
  9
$DIMTXT
 40
2.0
  9
$DIMCEN
 40
2.5
  9
$DIMTSZ
 40
0.0
  9
$DIMTOL
 70
     0
  9
$DIMLIM
 70
     0
  9
$DIMTIH
 70
     1
  9
$DIMTOH
 70
     1
  9
$DIMSE1
 70
     0
  9
$DIMSE2
 70
     0
  9
$DIMTAD
 70
     1
  9
$DIMZIN
 70
     0
  9
$DIMBLK
  1

  9
$DIMASO
 70
     1
  9
$DIMSHO
 70
     1
  9
$DIMPOST
  1

  9
$DIMAPOST
  1

  9
$DIMALT
 70
     0
  9
$DIMALTD
 70
     3
  9
$DIMALTF
 40
0.0393700787
  9
$DIMLFAC
 40
1.0
  9
$DIMTOFL
 70
     1
  9
$DIMTVP
 40
0.0
  9
$DIMTIX
 70
     0
  9
$DIMSOXD
 70
     0
  9
$DIMSAH
 70
     0
  9
$DIMBLK1
  1

  9
$DIMBLK2
  1

  9
$DIMSTYLE
  2
ISO-25
  9
$DIMCLRD
 70
     0
  9
$DIMCLRE
 70
     0
  9
$DIMCLRT
 70
     0
  9
$DIMTFAC
 40
1.0
  9
$DIMGAP
 40
1.524
  9
$LUNITS
 70
     2
  9
$LUPREC
 70
     2
  9
$SKETCHINC
 40
1.0
  9
$FILLETRAD
 40
10.0
  9
$AUNITS
 70
     0
  9
$AUPREC
 70
     2
  9
$MENU
  1
.
  9
$ELEVATION
 40
0.0
  9
$PELEVATION
 40
0.0
  9
$THICKNESS
 40
0.0
  9
$LIMCHECK
 70
     0
  9
$CHAMFERA
 40
0.0
  9
$CHAMFERB
 40
0.0
  9
$SKPOLY
 70
     0
  9
$TDCREATE
 40
2459360.493885127
  9
$TDUPDATE
 40
2459360.493888507
  9
$TDINDWG
 40
0.0000000116
  9
$TDUSRTIMER
 40
0.0000000116
  9
$USRTIMER
 70
     1
  9
$ANGBASE
 50
0.0
  9
$ANGDIR
 70
     0
  9
$PDMODE
 70
     0
  9
$PDSIZE
 40
-1.0
  9
$PLINEWID
 40
0.0
  9
$COORDS
 70
     1
  9
$SPLFRAME
 70
     0
  9
$SPLINETYPE
 70
     6
  9
$SPLINESEGS
 70
     8
  9
$ATTDIA
 70
     0
  9
$ATTREQ
 70
     1
  9
$HANDLING
 70
     1
  9
$HANDSEED
  5
18D
  9
$SURFTAB1
 70
     6
  9
$SURFTAB2
 70
     6
  9
$SURFTYPE
 70
     6
  9
$SURFU
 70
     6
  9
$SURFV
 70
     6
  9
$UCSNAME
  2

  9
$UCSORG
 10
0.0
 20
0.0
 30
0.0
  9
$UCSXDIR
 10
1.0
 20
0.0
 30
0.0
  9
$UCSYDIR
 10
0.0
 20
1.0
 30
0.0
  9
$PUCSNAME
  2

  9
$PUCSORG
 10
0.0
 20
0.0
 30
0.0
  9
$PUCSXDIR
 10
1.0
 20
0.0
 30
0.0
  9
$PUCSYDIR
 10
0.0
 20
1.0
 30
0.0
  9
$USERI1
 70
     0
  9
$USERI2
 70
     0
  9
$USERI3
 70
     0
  9
$USERI4
 70
     0
  9
$USERI5
 70
     0
  9
$USERR1
 40
0.0
  9
$USERR2
 40
0.0
  9
$USERR3
 40
0.0
  9
$USERR4
 40
0.0
  9
$USERR5
 40
0.0
  9
$WORLDVIEW
 70
     1
  9
$SHADEDGE
 70
     3
  9
$SHADEDIF
 70
    70
  9
$TILEMODE
 70
     1
  9
$MAXACTVP
 70
    64
  9
$PLIMCHECK
 70
     0
  9
$PEXTMIN
 10
1.0000000000E+20
 20
1.0000000000E+20
 30
1.0000000000E+20
  9
$PEXTMAX
 10
-1.0000000000E+20
 20
-1.0000000000E+20
 30
-1.0000000000E+20
  9
$PLIMMIN
 10
0.0
 20
0.0
  9
$PLIMMAX
 10
420.0
 20
297.0
  9
$UNITMODE
 70
     0
  9
$VISRETAIN
 70
     1
  9
$PLINEGEN
 70
     0
  9
$PSLTSCALE
 70
     1
  0
ENDSEC
  0
SECTION
  2
TABLES
  0
TABLE
  2
VPORT
 70
     1
  0
VPORT
  2
*ACTIVE
 70
     0
 10
0.0
 20
0.0
 11
1.0
 21
1.0
 12
105.0
 22
148.5
 13
0.0
 23
0.0
 14
10.0
 24
10.0
 15
10.0
 25
10.0
 16
0.0
 26
0.0
 36
1.0
 17
0.0
 27
0.0
 37
0.0
 40
297.0
 41
0.7070707071
 42
50.0
 43
0.0
 44
0.0
 50
0.0
 51
0.0
 71
     0
 72
  2000
 73
     1
 74
     3
 75
     0
 76
     0
 77
     0
 78
     0
  0
ENDTAB
  0
TABLE
  2
LTYPE
 70
     6
  0
LTYPE
  2
CONTINUOUS
 70
     0
  3
Solid line
 72
    65
 73
     0
 40
0.0
  0
LTYPE
  2
HIDDEN
 70
     0
  3
Hidden __ __ __ __ __ __ __ __ __ __ __ __ __ __
 72
    65
 73
     2
 40
1.905
 49
1.27
 49
-0.635
  0
LTYPE
  2
PHANTOM
 70
     0
  3
Phantom ______  __  __  ______  __  __  ______
 72
    65
 73
     6
 40
12.7
 49
6.35
 49
-1.27
 49
1.27
 49
-1.27
 49
1.27
 49
-1.27
  0
LTYPE
  2
CENTER
 70
     0
  3
Center ____ _ ____ _ ____ _ ____ _ ____ _ ____
 72
    65
 73
     4
 40
10.16
 49
6.35
 49
-1.27
 49
1.27
 49
-1.27
  0
LTYPE
  2
CENTERX2
 70
     0
  3
Center (2x) ________  __  ________  __  _____
 72
    65
 73
     4
 40
20.32
 49
12.7
 49
-2.54
 49
2.54
 49
-2.54
  0
LTYPE
  2
DOT2
 70
     0
  3
Dot (.5x) ........................................
 72
    65
 73
     2
 40
0.635
 49
0.0
 49
-0.635
  0
ENDTAB
  0
TABLE
  2
LAYER
 70
    53
  0
LAYER
  2
0
 70
     0
 62
     7
  6
CONTINUOUS
  0
LAYER
  2
SLD-0
 70
     0
 62
     7
  6
CONTINUOUS
  0
LAYER
  2
LEVEL0
 70
     0
 62
     7
  6
CONTINUOUS
  0
LAYER
  2
1
 70
     0
 62
     7
  6
CONTINUOUS
  0
LAYER
  2
2
 70
     0
 62
     7
  6
CONTINUOUS
  0
LAYER
  2
3
 70
     0
 62
     7
  6
CONTINUOUS
  0
LAYER
  2
4
 70
     0
 62
     7
  6
CONTINUOUS
  0
LAYER
  2
5
 70
     0
 62
     7
  6
CONTINUOUS
  0
LAYER
  2
6
 70
     0
 62
     7
  6
CONTINUOUS
  0
LAYER
  2
7
 70
     0
 62
     7
  6
CONTINUOUS
  0
LAYER
  2
8
 70
     0
 62
     7
  6
CONTINUOUS
  0
LAYER
  2
9
 70
     0
 62
     7
  6
CONTINUOUS
  0
LAYER
  2
10
 70
     0
 62
     7
  6
CONTINUOUS
  0
LAYER
  2
11
 70
     0
 62
     7
  6
CONTINUOUS
  0
LAYER
  2
12
 70
     0
 62
     7
  6
CONTINUOUS
  0
LAYER
  2
13
 70
     0
 62
     7
  6
CONTINUOUS
  0
LAYER
  2
14
 70
     0
 62
     7
  6
CONTINUOUS
  0
LAYER
  2
15
 70
     0
 62
     7
  6
CONTINUOUS
  0
LAYER
  2
16
 70
     0
 62
     7
  6
CONTINUOUS
  0
LAYER
  2
17
 70
     0
 62
     7
  6
CONTINUOUS
  0
LAYER
  2
18
 70
     0
 62
     7
  6
CONTINUOUS
  0
LAYER
  2
19
 70
     0
 62
     7
  6
CONTINUOUS
  0
LAYER
  2
20
 70
     0
 62
     7
  6
CONTINUOUS
  0
LAYER
  2
21
 70
     0
 62
     7
  6
CONTINUOUS
  0
LAYER
  2
22
 70
     0
 62
     7
  6
CONTINUOUS
  0
LAYER
  2
23
 70
     0
 62
     7
  6
CONTINUOUS
  0
LAYER
  2
24
 70
     0
 62
     7
  6
CONTINUOUS
  0
LAYER
  2
25
 70
     0
 62
     7
  6
CONTINUOUS
  0
LAYER
  2
26
 70
     0
 62
     7
  6
CONTINUOUS
  0
LAYER
  2
27
 70
     0
 62
     7
  6
CONTINUOUS
  0
LAYER
  2
28
 70
     0
 62
     7
  6
CONTINUOUS
  0
LAYER
  2
29
 70
     0
 62
     7
  6
CONTINUOUS
  0
LAYER
  2
30
 70
     0
 62
     7
  6
CONTINUOUS
  0
LAYER
  2
31
 70
     0
 62
     7
  6
CONTINUOUS
  0
LAYER
  2
32
 70
     0
 62
     7
  6
CONTINUOUS
  0
LAYER
  2
33
 70
     0
 62
     7
  6
CONTINUOUS
  0
LAYER
  2
34
 70
     0
 62
     7
  6
CONTINUOUS
  0
LAYER
  2
35
 70
     0
 62
     7
  6
CONTINUOUS
  0
LAYER
  2
36
 70
     0
 62
     7
  6
CONTINUOUS
  0
LAYER
  2
37
 70
     0
 62
     7
  6
CONTINUOUS
  0
LAYER
  2
38
 70
     0
 62
     7
  6
CONTINUOUS
  0
LAYER
  2
39
 70
     0
 62
     7
  6
CONTINUOUS
  0
LAYER
  2
40
 70
     0
 62
     7
  6
CONTINUOUS
  0
LAYER
  2
41
 70
     0
 62
     7
  6
CONTINUOUS
  0
LAYER
  2
42
 70
     0
 62
     7
  6
CONTINUOUS
  0
LAYER
  2
43
 70
     0
 62
     7
  6
CONTINUOUS
  0
LAYER
  2
44
 70
     0
 62
     7
  6
CONTINUOUS
  0
LAYER
  2
45
 70
     0
 62
     7
  6
CONTINUOUS
  0
LAYER
  2
46
 70
     0
 62
     7
  6
CONTINUOUS
  0
LAYER
  2
47
 70
     0
 62
     7
  6
CONTINUOUS
  0
LAYER
  2
48
 70
     0
 62
     7
  6
CONTINUOUS
  0
LAYER
  2
49
 70
     0
 62
     7
  6
CONTINUOUS
  0
LAYER
  2
50
 70
     0
 62
     7
  6
CONTINUOUS
  0
ENDTAB
  0
TABLE
  2
STYLE
 70
     1
  0
STYLE
  2
STANDARD
 70
     0
 40
0.0
 41
1.0
 50
0.0
 71
     0
 42
2.0
  3
txt
  4

  0
ENDTAB
  0
TABLE
  2
VIEW
 70
     0
  0
ENDTAB
  0
TABLE
  2
UCS
 70
     0
  0
ENDTAB
  0
TABLE
  2
APPID
 70
     1
  0
APPID
  2
ACAD
 70
     0
  0
ENDTAB
  0
TABLE
  2
DIMSTYLE
 70
     4
  0
DIMSTYLE
  2
ISO-25
 70
     0
  3

  4

  5

  6

  7

 40
1.0
 41
2.5
 42
0.625
 43
3.75
 44
1.25
 45
0.0
 46
0.0
 47
0.0
 48
0.0
140
2.5
141
2.5
142
0.0
143
0.0393700787
144
1.0
145
0.0
146
1.0
147
0.625
 71
     0
 72
     0
 73
     0
 74
     0
 75
     0
 76
     0
 77
     1
 78
     8
170
     0
171
     3
172
     1
173
     0
174
     0
175
     0
176
     0
177
     0
178
     0
  0
DIMSTYLE
  2
SLDDIMSTYLE0
 70
     0
  3

  4

  5

  6
CLOSED
  7
CLOSED
 40
1.0
 41
2.0
 42
0.0625
 43
0.38
 44
0.0
 45
0.000000001
 46
0.0
 47
0.0
 48
0.0
140
2.0
141
0.09
142
0.0
143
0.0393700787
144
1.0
145
0.0
146
1.0
147
0.5
 71
     0
 72
     0
 73
     0
 74
     0
 75
     0
 76
     0
 77
     1
 78
    12
170
     1
171
     2
172
     0
173
     1
174
     0
175
     0
176
     0
177
     0
178
     0
  0
DIMSTYLE
  2
SLDDIMSTYLE1
 70
     0
  3

  4

  5

  6
CLOSED
  7
CLOSED
 40
1.0
 41
2.0
 42
0.0625
 43
0.38
 44
0.0
 45
0.000000001
 46
0.0
 47
0.3
 48
0.2
140
2.0
141
0.09
142
0.0
143
0.0393700787
144
1.0
145
0.0
146
1.0
147
0.5
 71
     1
 72
     0
 73
     0
 74
     0
 75
     0
 76
     0
 77
     1
 78
    12
170
     1
171
     2
172
     0
173
     1
174
     0
175
     0
176
     0
177
     0
178
     0
  0
DIMSTYLE
  2
SLDDIMSTYLE2
 70
     0
  3

  4

  5

  6
CLOSED
  7
CLOSED
 40
1.0
 41
2.0
 42
0.0625
 43
0.38
 44
0.0
 45
0.000000001
 46
0.0
 47
0.0
 48
0.0
140
2.0
141
0.0
142
0.0
143
0.0393700787
144
1.0
145
0.0
146
1.0
147
0.5
 71
     0
 72
     0
 73
     0
 74
     0
 75
     0
 76
     0
 77
     1
 78
    12
170
     1
171
     2
172
     0
173
     1
174
     0
175
     0
176
     0
177
     0
178
     0
  0
ENDTAB
  0
ENDSEC
  0
SECTION
  2
BLOCKS
  0
BLOCK
  8
0
  2
$MODEL_SPACE
 70
     0
 10
0.0
 20
0.0
 30
0.0
  3
$MODEL_SPACE
  1

  0
ENDBLK
  5
21
  8
0
  0
BLOCK
 67
     1
  8
0
  2
$PAPER_SPACE
 70
     0
 10
0.0
 20
0.0
 30
0.0
  3
$PAPER_SPACE
  1

  0
ENDBLK
  5
1D
 67
     1
  8
0
  0
BLOCK
  8
0
  2
SW_NOTE_0
 70
     0
 10
0.0
 20
0.0
 30
0.0
  3
SW_NOTE_0
  1

  0
TEXT
  5
AB
  8
LEVEL0
 62
     0
 10
0.0
 20
1.308534146
 30
0.0
 40
3.7041666667
  1
MATTE FACEPLATE CUTOUT ROUTING TEMPLATE
 41
0.6641025641
 11
0.0
 21
0.0
 31
0.0
 73
     1
  0
TEXT
  5
AC
  8
LEVEL0
 62
     0
 10
0.0
 20
-10.5692438402
 30
0.0
 40
3.7041666667
  1
SCALE 1:1
 41
0.7
 11
0.0
 21
-11.8777779862
 31
0.0
 73
     1
  0
ENDBLK
  5
AA
  8
0
  0
BLOCK
  8
0
  2
_CLOSED
 70
     0
 10
0.0
 20
0.0
 30
0.0
  3
_CLOSED
  1

  0
LINE
  5
BF
  8
0
  6
BYBLOCK
 62
     0
 10
-1.0
 20
0.166667
 30
0.0
 11
0.0
 21
0.0
 31
0.0
  0
LINE
  5
C0
  8
0
  6
BYBLOCK
 62
     0
 10
0.0
 20
0.0
 30
0.0
 11
-1.0
 21
-0.166667
 31
0.0
  0
LINE
  5
C1
  8
0
  6
BYBLOCK
 62
     0
 10
-1.0
 20
0.166667
 30
0.0
 11
-1.0
 21
-0.166667
 31
0.0
  0
LINE
  5
C2
  8
0
  6
BYBLOCK
 62
     0
 10
0.0
 20
0.0
 30
0.0
 11
-1.0
 21
0.0
 31
0.0
  0
ENDBLK
  5
BE
  8
0
  0
BLOCK
  8
0
  2
_D
 70
     0
 10
0.0
 20
0.0
 30
0.0
  3
_D
  1

  0
INSERT
  5
C6
  8
LEVEL0
  2
_CLOSED
 10
29.3963395594
 20
237.8215299686
 30
-9.1
 41
2.0
 42
2.0
 50
90.0
  0
INSERT
  5
C7
  8
LEVEL0
  2
_CLOSED
 10
29.3963395594
 20
54.7015299686
 30
-9.1
 41
2.0
 42
2.0
 50
270.0
  0
LINE
  5
C8
  8
LEVEL0
 10
23.2289785123
 20
147.5620544647
 30
0.0
 11
23.2289785123
 21
146.9526794521
 31
0.0
  0
LINE
  5
C9
  8
LEVEL0
 10
23.2289785123
 20
146.9526794521
 30
0.0
 11
26.4039784739
 21
146.9526794521
 31
0.0
  0
LINE
  5
CA
  8
LEVEL0
 10
26.4039784739
 20
146.9526794521
 30
0.0
 11
26.4039784739
 21
147.5620544647
 31
0.0
  0
LINE
  5
CB
  8
LEVEL0
 10
23.2289785123
 20
152.7342763861
 30
0.0
 11
23.2289785123
 21
153.3436513986
 31
0.0
  0
LINE
  5
CC
  8
LEVEL0
 10
23.2289785123
 20
153.3436513986
 30
0.0
 11
26.4039784739
 21
153.3436513986
 31
0.0
  0
LINE
  5
CD
  8
LEVEL0
 10
26.4039784739
 20
153.3436513986
 30
0.0
 11
26.4039784739
 21
152.7342763861
 31
0.0
  0
LINE
  5
CE
  8
LEVEL0
 10
48.5158671392
 20
237.8215299686
 30
0.0
 11
28.3963395594
 21
237.8215299686
 31
0.0
  0
LINE
  5
CF
  8
LEVEL0
 10
48.5158671392
 20
54.7015299686
 30
0.0
 11
28.3963395594
 21
54.7015299686
 31
0.0
  0
LINE
  5
D0
  8
LEVEL0
 10
29.3963395594
 20
237.8215299686
 30
0.0
 11
29.3963395594
 21
54.7015299686
 31
0.0
  0
TEXT
  5
D1
  8
LEVEL0
 10
28.659263906
 20
144.8655267145
 30
-9.1
 40
2.0
  1
  
 50
90.0
 41
0.7
 11
29.3657840299
 21
144.8655267145
 31
-9.1
 73
     1
  0
TEXT
  5
D2
  8
LEVEL0
 10
25.6974583501
 20
147.5620544647
 30
-9.1
 40
2.0
  1
7.21
 50
90.0
 41
0.7
 11
26.4039784739
 21
147.5620544647
 31
-9.1
 73
     1
  0
TEXT
  5
D3
  8
LEVEL0
 10
28.6898196684
 20
146.8231656021
 30
-9.1
 40
2.0
  1
183.1
 50
90.0
 41
0.7
 11
29.3963397922
 21
146.8231656021
 31
-9.1
 73
     1
  0
TEXT
  5
D4
  8
LEVEL0
 10
28.659263906
 20
153.9530268769
 30
-9.1
 40
2.0
  1
  
 50
90.0
 41
0.7
 11
29.3657840299
 21
153.9530268769
 31
-9.1
 73
     1
  0
ENDBLK
  5
C5
  8
0
  0
BLOCK
  8
0
  2
_D_1
 70
     0
 10
0.0
 20
0.0
 30
0.0
  3
_D_1
  1

  0
INSERT
  5
D9
  8
LEVEL0
  2
_CLOSED
 10
53.0158671392
 20
42.0758929866
 30
-9.1
 41
2.0
 42
2.0
 50
180.0
  0
INSERT
  5
DA
  8
LEVEL0
  2
_CLOSED
 10
165.1158671392
 20
42.0758929866
 30
-9.1
 41
2.0
 42
2.0
 50
0.0
  0
LINE
  5
DB
  8
LEVEL0
 10
104.4954316716
 20
48.2432540337
 30
0.0
 11
103.8860566591
 21
48.2432540337
 31
0.0
  0
LINE
  5
DC
  8
LEVEL0
 10
103.8860566591
 20
48.2432540337
 30
0.0
 11
103.8860566591
 21
45.0682540721
 31
0.0
  0
LINE
  5
DD
  8
LEVEL0
 10
103.8860566591
 20
45.0682540721
 30
0.0
 11
104.4954316716
 21
45.0682540721
 31
0.0
  0
LINE
  5
DE
  8
LEVEL0
 10
109.667653593
 20
48.2432540337
 30
0.0
 11
110.2770286056
 21
48.2432540337
 31
0.0
  0
LINE
  5
DF
  8
LEVEL0
 10
110.2770286056
 20
48.2432540337
 30
0.0
 11
110.2770286056
 21
45.0682540721
 31
0.0
  0
LINE
  5
E0
  8
LEVEL0
 10
110.2770286056
 20
45.0682540721
 30
0.0
 11
109.667653593
 21
45.0682540721
 31
0.0
  0
LINE
  5
E1
  8
LEVEL0
 10
53.0158671392
 20
50.2015299686
 30
0.0
 11
53.0158671392
 21
41.0758929866
 31
0.0
  0
LINE
  5
E2
  8
LEVEL0
 10
165.1158671392
 20
50.2015299686
 30
0.0
 11
165.1158671392
 21
41.0758929866
 31
0.0
  0
LINE
  5
E3
  8
LEVEL0
 10
53.0158671392
 20
42.0758929866
 30
0.0
 11
165.1158671392
 21
42.0758929866
 31
0.0
  0
TEXT
  5
E4
  8
LEVEL0
 10
101.7989039214
 20
42.81296864
 30
-9.1
 40
2.0
  1
  
 50
0.0
 41
0.7
 11
101.7989039214
 21
42.1064485161
 31
-9.1
 73
     1
  0
TEXT
  5
E5
  8
LEVEL0
 10
104.4954316716
 20
45.774774196
 30
-9.1
 40
2.0
  1
4.41
 50
0.0
 41
0.7
 11
104.4954316716
 21
45.0682540721
 31
-9.1
 73
     1
  0
TEXT
  5
E6
  8
LEVEL0
 10
103.7565428091
 20
42.7824128776
 30
-9.1
 40
2.0
  1
112.1
 50
0.0
 41
0.7
 11
103.7565428091
 21
42.0758927538
 31
-9.1
 73
     1
  0
TEXT
  5
E7
  8
LEVEL0
 10
110.8864040838
 20
42.81296864
 30
-9.1
 40
2.0
  1
  
 50
0.0
 41
0.7
 11
110.8864040838
 21
42.1064485161
 31
-9.1
 73
     1
  0
ENDBLK
  5
D8
  8
0
  0
BLOCK
  8
0
  2
_D_2
 70
     0
 10
0.0
 20
0.0
 30
0.0
  3
_D_2
  1

  0
INSERT
  5
EC
  8
LEVEL0
  2
_CLOSED
 10
68.7674120421
 20
54.7015299686
 30
-9.1
 41
2.0
 42
2.0
 50
270.0
  0
INSERT
  5
ED
  8
LEVEL0
  2
_CLOSED
 10
68.7674120421
 20
63.0115299686
 30
-9.1
 41
2.0
 42
2.0
 50
90.0
  0
LINE
  5
EE
  8
LEVEL0
 10
62.6000509949
 20
46.3599017072
 30
0.0
 11
62.6000509949
 21
45.7505266947
 31
0.0
  0
LINE
  5
EF
  8
LEVEL0
 10
62.6000509949
 20
45.7505266947
 30
0.0
 11
65.7750509566
 21
45.7505266947
 31
0.0
  0
LINE
  5
F0
  8
LEVEL0
 10
65.7750509566
 20
45.7505266947
 30
0.0
 11
65.7750509566
 21
46.3599017072
 31
0.0
  0
LINE
  5
F1
  8
LEVEL0
 10
62.6000509949
 20
51.5321236286
 30
0.0
 11
62.6000509949
 21
52.1414986412
 31
0.0
  0
LINE
  5
F2
  8
LEVEL0
 10
62.6000509949
 20
52.1414986412
 30
0.0
 11
65.7750509566
 21
52.1414986412
 31
0.0
  0
LINE
  5
F3
  8
LEVEL0
 10
65.7750509566
 20
52.1414986412
 30
0.0
 11
65.7750509566
 21
51.5321236286
 31
0.0
  0
LINE
  5
F4
  8
LEVEL0
 10
57.5158671392
 20
54.7015299686
 30
0.0
 11
69.7674120421
 21
54.7015299686
 31
0.0
  0
LINE
  5
F5
  8
LEVEL0
 10
68.7674120421
 20
54.7015299686
 30
0.0
 11
68.7674120421
 21
43.663373957
 31
0.0
  0
LINE
  5
F6
  8
LEVEL0
 10
68.7674120421
 20
54.7015299686
 30
0.0
 11
68.7674120421
 21
63.0115299686
 31
0.0
  0
TEXT
  5
F7
  8
LEVEL0
 10
68.0303363887
 20
43.663373957
 30
-9.1
 40
2.0
  1
  
 50
90.0
 41
0.7
 11
68.7368565125
 21
43.663373957
 31
-9.1
 73
     1
  0
TEXT
  5
F8
  8
LEVEL0
 10
65.0685308327
 20
46.3599017072
 30
-9.1
 40
2.0
  1
0.33
 50
90.0
 41
0.7
 11
65.7750509566
 21
46.3599017072
 31
-9.1
 73
     1
  0
TEXT
  5
F9
  8
LEVEL0
 10
68.060892151
 20
47.0987906862
 30
-9.1
 40
2.0
  1
8.3
 50
90.0
 41
0.7
 11
68.7674122749
 21
47.0987906862
 31
-9.1
 73
     1
  0
TEXT
  5
FA
  8
LEVEL0
 10
68.0303363887
 20
52.7508741194
 30
-9.1
 40
2.0
  1
  
 50
90.0
 41
0.7
 11
68.7368565125
 21
52.7508741194
 31
-9.1
 73
     1
  0
ENDBLK
  5
EB
  8
0
  0
BLOCK
  8
0
  2
_D_3
 70
     0
 10
0.0
 20
0.0
 30
0.0
  3
_D_3
  1

  0
INSERT
  5
FF
  8
LEVEL0
  2
_CLOSED
 10
53.0158671392
 20
79.5973177688
 30
-9.1
 41
2.0
 42
2.0
 50
180.0
  0
INSERT
  5
100
  8
LEVEL0
  2
_CLOSED
 10
61.2158671392
 20
79.5973177688
 30
-9.1
 41
2.0
 42
2.0
 50
0.0
  0
LINE
  5
101
  8
LEVEL0
 10
44.2497637116
 20
85.7646788159
 30
0.0
 11
43.640388699
 21
85.7646788159
 31
0.0
  0
LINE
  5
102
  8
LEVEL0
 10
43.640388699
 20
85.7646788159
 30
0.0
 11
43.640388699
 21
82.5896788543
 31
0.0
  0
LINE
  5
103
  8
LEVEL0
 10
43.640388699
 20
82.5896788543
 30
0.0
 11
44.2497637116
 21
82.5896788543
 31
0.0
  0
LINE
  5
104
  8
LEVEL0
 10
49.421985633
 20
85.7646788159
 30
0.0
 11
50.0313606455
 21
85.7646788159
 31
0.0
  0
LINE
  5
105
  8
LEVEL0
 10
50.0313606455
 20
85.7646788159
 30
0.0
 11
50.0313606455
 21
82.5896788543
 31
0.0
  0
LINE
  5
106
  8
LEVEL0
 10
50.0313606455
 20
82.5896788543
 30
0.0
 11
49.421985633
 21
82.5896788543
 31
0.0
  0
LINE
  5
107
  8
LEVEL0
 10
53.0158671392
 20
59.2015299686
 30
0.0
 11
53.0158671392
 21
80.5973177688
 31
0.0
  0
LINE
  5
108
  8
LEVEL0
 10
53.0158671392
 20
79.5973177688
 30
0.0
 11
41.5532359613
 21
79.5973177688
 31
0.0
  0
LINE
  5
109
  8
LEVEL0
 10
53.0158671392
 20
79.5973177688
 30
0.0
 11
61.2158671392
 21
79.5973177688
 31
0.0
  0
TEXT
  5
10A
  8
LEVEL0
 10
41.5532359613
 20
80.3343934221
 30
-9.1
 40
2.0
  1
  
 50
360.0
 41
0.7
 11
41.5532359613
 21
79.6278732983
 31
-9.1
 73
     1
  0
TEXT
  5
10B
  8
LEVEL0
 10
44.2497637116
 20
83.2961989781
 30
-9.1
 40
2.0
  1
0.32
 50
360.0
 41
0.7
 11
44.2497637116
 21
82.5896788543
 31
-9.1
 73
     1
  0
TEXT
  5
10C
  8
LEVEL0
 10
44.9886526905
 20
80.3038376598
 30
-9.1
 40
2.0
  1
8.2
 50
360.0
 41
0.7
 11
44.9886526905
 21
79.5973175359
 31
-9.1
 73
     1
  0
TEXT
  5
10D
  8
LEVEL0
 10
50.6407361238
 20
80.3343934221
 30
-9.1
 40
2.0
  1
  
 50
360.0
 41
0.7
 11
50.6407361238
 21
79.6278732983
 31
-9.1
 73
     1
  0
ENDBLK
  5
FE
  8
0
  0
BLOCK
  8
0
  2
_D_4
 70
     0
 10
0.0
 20
0.0
 30
0.0
  3
_D_4
  1

  0
INSERT
  5
113
  8
LEVEL0
  2
_CLOSED
 10
61.2158671392
 20
133.8851697978
 30
-9.1
 41
2.0
 42
2.0
 50
180.0
  0
INSERT
  5
114
  8
LEVEL0
  2
_CLOSED
 10
156.9158671392
 20
133.8851697978
 30
-9.1
 41
2.0
 42
2.0
 50
0.0
  0
LINE
  5
115
  8
LEVEL0
 10
104.1653963582
 20
144.6358644638
 30
0.0
 11
103.5560213456
 21
144.6358644638
 31
0.0
  0
LINE
  5
116
  8
LEVEL0
 10
103.5560213456
 20
144.6358644638
 30
0.0
 11
103.5560213456
 21
139.4636420768
 31
0.0
  0
LINE
  5
117
  8
LEVEL0
 10
103.5560213456
 20
139.4636420768
 30
0.0
 11
104.1653963582
 21
139.4636420768
 31
0.0
  0
LINE
  5
118
  8
LEVEL0
 10
118.3431732313
 20
144.6358644638
 30
0.0
 11
118.9525482438
 21
144.6358644638
 31
0.0
  0
LINE
  5
119
  8
LEVEL0
 10
118.9525482438
 20
144.6358644638
 30
0.0
 11
118.9525482438
 21
139.4636420768
 31
0.0
  0
LINE
  5
11A
  8
LEVEL0
 10
118.9525482438
 20
139.4636420768
 30
0.0
 11
118.3431732313
 21
139.4636420768
 31
0.0
  0
LINE
  5
11B
  8
LEVEL0
 10
61.2158671392
 20
133.8851697978
 30
0.0
 11
156.9158671392
 21
133.8851697978
 31
0.0
  0
TEXT
  5
11C
  8
LEVEL0
 10
101.4688686079
 20
134.6222454511
 30
-9.1
 40
2.0
  1
  
 50
360.0
 41
0.7
 11
101.4688686079
 21
133.9157253273
 31
-9.1
 73
     1
  0
TEXT
  5
11D
  8
LEVEL0
 10
104.1653963582
 20
140.2007177302
 30
-9.1
 40
2.0
  1
3.77
 50
360.0
 41
0.7
 11
104.1653963582
 21
139.4941976063
 31
-9.1
 73
     1
  0
TEXT
  5
11E
  8
LEVEL0
 10
109.3376182795
 20
140.2007177302
 30
-9.1
 40
2.0
  1
 
 50
360.0
 41
0.7
 11
109.3376182795
 21
139.4941976063
 31
-9.1
 73
     1
  0
TEXT
  5
11F
  8
LEVEL0
 10
110.0765072585
 20
142.7562733942
 30
-9.1
 40
2.0
  1
+
 50
360.0
 41
0.7
 11
110.0765072585
 21
142.0497532703
 31
-9.1
 73
     1
  0
TEXT
  5
120
  8
LEVEL0
 10
110.4417850399
 20
140.1701622006
 30
-9.1
 40
2.0
  1
-
 50
360.0
 41
0.7
 11
110.4417850399
 21
139.4636420768
 31
-9.1
 73
     1
  0
TEXT
  5
121
  8
LEVEL0
 10
111.6931738176
 20
142.7562733942
 30
-9.1
 40
2.0
  1
0.012
 50
360.0
 41
0.7
 11
111.6931738176
 21
142.0497532703
 31
-9.1
 73
     1
  0
TEXT
  5
122
  8
LEVEL0
 10
111.6931738176
 20
140.1701622006
 30
-9.1
 40
2.0
  1
0.008
 50
360.0
 41
0.7
 11
111.6931738176
 21
139.4636420768
 31
-9.1
 73
     1
  0
TEXT
  5
123
  8
LEVEL0
 10
105.6431739668
 20
134.591689456
 30
-9.1
 40
2.0
  1
95.7
 50
360.0
 41
0.7
 11
105.6431739668
 21
133.8851693321
 31
-9.1
 73
     1
  0
TEXT
  5
124
  8
LEVEL0
 10
110.8153958882
 20
134.591689456
 30
-9.1
 40
2.0
  1
 
 50
360.0
 41
0.7
 11
110.8153958882
 21
133.8851693321
 31
-9.1
 73
     1
  0
TEXT
  5
125
  8
LEVEL0
 10
111.5542848672
 20
137.1778006495
 30
-9.1
 40
2.0
  1
+
 50
360.0
 41
0.7
 11
111.5542848672
 21
136.4712805256
 31
-9.1
 73
     1
  0
TEXT
  5
126
  8
LEVEL0
 10
111.9195626486
 20
134.591689456
 30
-9.1
 40
2.0
  1
-
 50
360.0
 41
0.7
 11
111.9195626486
 21
133.8851693321
 31
-9.1
 73
     1
  0
TEXT
  5
127
  8
LEVEL0
 10
113.1709514263
 20
137.1778006495
 30
-9.1
 40
2.0
  1
0.3
 50
360.0
 41
0.7
 11
113.1709514263
 21
136.4712805256
 31
-9.1
 73
     1
  0
TEXT
  5
128
  8
LEVEL0
 10
113.1709514263
 20
134.591689456
 30
-9.1
 40
2.0
  1
0.2
 50
360.0
 41
0.7
 11
113.1709514263
 21
133.8851693321
 31
-9.1
 73
     1
  0
TEXT
  5
129
  8
LEVEL0
 10
119.5619237221
 20
134.6222454511
 30
-9.1
 40
2.0
  1
  
 50
360.0
 41
0.7
 11
119.5619237221
 21
133.9157253273
 31
-9.1
 73
     1
  0
ENDBLK
  5
112
  8
0
  0
BLOCK
  8
0
  2
_D_5
 70
     0
 10
0.0
 20
0.0
 30
0.0
  3
_D_5
  1

  0
INSERT
  5
12E
  8
LEVEL0
  2
_CLOSED
 10
96.0527672373
 20
63.0115299686
 30
-9.1
 41
2.0
 42
2.0
 50
270.0
  0
INSERT
  5
12F
  8
LEVEL0
  2
_CLOSED
 10
96.0527672373
 20
229.5115299686
 30
-9.1
 41
2.0
 42
2.0
 50
90.0
  0
LINE
  5
130
  8
LEVEL0
 10
85.3020725713
 20
150.1227481446
 30
0.0
 11
85.3020725713
 21
149.513373132
 31
0.0
  0
LINE
  5
131
  8
LEVEL0
 10
85.3020725713
 20
149.513373132
 30
0.0
 11
90.4742949583
 21
149.513373132
 31
0.0
  0
LINE
  5
132
  8
LEVEL0
 10
90.4742949583
 20
149.513373132
 30
0.0
 11
90.4742949583
 21
150.1227481446
 31
0.0
  0
LINE
  5
133
  8
LEVEL0
 10
85.3020725713
 20
164.3005250177
 30
0.0
 11
85.3020725713
 21
164.9099000302
 31
0.0
  0
LINE
  5
134
  8
LEVEL0
 10
85.3020725713
 20
164.9099000302
 30
0.0
 11
90.4742949583
 21
164.9099000302
 31
0.0
  0
LINE
  5
135
  8
LEVEL0
 10
90.4742949583
 20
164.9099000302
 30
0.0
 11
90.4742949583
 21
164.3005250177
 31
0.0
  0
LINE
  5
136
  8
LEVEL0
 10
96.0527672373
 20
63.0115299686
 30
0.0
 11
96.0527672373
 21
229.5115299686
 31
0.0
  0
TEXT
  5
137
  8
LEVEL0
 10
95.315691584
 20
147.4262203943
 30
-9.1
 40
2.0
  1
  
 50
90.0
 41
0.7
 11
96.0222117078
 21
147.4262203943
 31
-9.1
 73
     1
  0
TEXT
  5
138
  8
LEVEL0
 10
89.737219305
 20
150.1227481446
 30
-9.1
 40
2.0
  1
6.56
 50
90.0
 41
0.7
 11
90.4437394288
 21
150.1227481446
 31
-9.1
 73
     1
  0
TEXT
  5
139
  8
LEVEL0
 10
89.737219305
 20
155.2949700659
 30
-9.1
 40
2.0
  1
 
 50
90.0
 41
0.7
 11
90.4437394288
 21
155.2949700659
 31
-9.1
 73
     1
  0
TEXT
  5
13A
  8
LEVEL0
 10
87.181663641
 20
156.0338590449
 30
-9.1
 40
2.0
  1
+
 50
90.0
 41
0.7
 11
87.8881837648
 21
156.0338590449
 31
-9.1
 73
     1
  0
TEXT
  5
13B
  8
LEVEL0
 10
89.7677748345
 20
156.3991368263
 30
-9.1
 40
2.0
  1
-
 50
90.0
 41
0.7
 11
90.4742949583
 21
156.3991368263
 31
-9.1
 73
     1
  0
TEXT
  5
13C
  8
LEVEL0
 10
87.181663641
 20
157.650525604
 30
-9.1
 40
2.0
  1
0.012
 50
90.0
 41
0.7
 11
87.8881837648
 21
157.650525604
 31
-9.1
 73
     1
  0
TEXT
  5
13D
  8
LEVEL0
 10
89.7677748345
 20
157.650525604
 30
-9.1
 40
2.0
  1
0.008
 50
90.0
 41
0.7
 11
90.4742949583
 21
157.650525604
 31
-9.1
 73
     1
  0
TEXT
  5
13E
  8
LEVEL0
 10
95.3462475792
 20
150.8616367743
 30
-9.1
 40
2.0
  1
166.5
 50
90.0
 41
0.7
 11
96.052767703
 21
150.8616367743
 31
-9.1
 73
     1
  0
TEXT
  5
13F
  8
LEVEL0
 10
95.3462475792
 20
157.5116366536
 30
-9.1
 40
2.0
  1
 
 50
90.0
 41
0.7
 11
96.052767703
 21
157.5116366536
 31
-9.1
 73
     1
  0
TEXT
  5
140
  8
LEVEL0
 10
92.7601363856
 20
158.2505256325
 30
-9.1
 40
2.0
  1
+
 50
90.0
 41
0.7
 11
93.4666565095
 21
158.2505256325
 31
-9.1
 73
     1
  0
TEXT
  5
141
  8
LEVEL0
 10
95.3462475792
 20
158.6158034139
 30
-9.1
 40
2.0
  1
-
 50
90.0
 41
0.7
 11
96.052767703
 21
158.6158034139
 31
-9.1
 73
     1
  0
TEXT
  5
142
  8
LEVEL0
 10
92.7601363856
 20
159.867191726
 30
-9.1
 40
2.0
  1
0.3
 50
90.0
 41
0.7
 11
93.4666565095
 21
159.867191726
 31
-9.1
 73
     1
  0
TEXT
  5
143
  8
LEVEL0
 10
95.3462475792
 20
159.867191726
 30
-9.1
 40
2.0
  1
0.2
 50
90.0
 41
0.7
 11
96.052767703
 21
159.867191726
 31
-9.1
 73
     1
  0
TEXT
  5
144
  8
LEVEL0
 10
95.315691584
 20
165.5192755085
 30
-9.1
 40
2.0
  1
  
 50
90.0
 41
0.7
 11
96.0222117078
 21
165.5192755085
 31
-9.1
 73
     1
  0
ENDBLK
  5
12D
  8
0
  0
BLOCK
  8
0
  2
_D_6
 70
     0
 10
0.0
 20
0.0
 30
0.0
  3
_D_6
  1

  0
INSERT
  5
14A
  8
LEVEL0
  2
_CLOSED
 10
61.6552069674
 20
229.0721901404
 30
-9.1
 41
2.0
 42
2.0
 50
314.8950428034
  0
LINE
  5
14B
  8
LEVEL0
 10
76.6193887322
 20
222.7614125322
 30
0.0
 11
76.1884955285
 21
223.1923057359
 31
0.0
  0
LINE
  5
14C
  8
LEVEL0
 10
76.1884955285
 20
223.1923057359
 30
0.0
 11
73.9434315254
 21
220.9472417327
 31
0.0
  0
LINE
  5
14D
  8
LEVEL0
 10
73.9434315254
 20
220.9472417327
 30
0.0
 11
74.3743247291
 21
220.516348529
 31
0.0
  0
LINE
  5
14E
  8
LEVEL0
 10
80.2767019266
 20
219.1040993378
 30
0.0
 11
80.7075951303
 21
218.6732061341
 31
0.0
  0
LINE
  5
14F
  8
LEVEL0
 10
80.7075951303
 20
218.6732061341
 30
0.0
 11
78.4625311272
 21
216.428142131
 31
0.0
  0
LINE
  5
150
  8
LEVEL0
 10
78.4625311272
 20
216.428142131
 30
0.0
 11
78.0316379235
 21
216.8590353346
 31
0.0
  0
LINE
  5
151
  8
LEVEL0
 10
61.6552069674
 20
229.0721901404
 30
0.0
 11
80.3346456938
 21
210.3241899337
 31
0.0
  0
LINE
  5
152
  8
LEVEL0
 10
61.6552069674
 20
229.0721901404
 30
0.0
 11
58.9405520332
 21
231.7968090122
 31
0.0
  0
TEXT
  5
153
  8
LEVEL0
 10
74.8739098997
 20
221.0159336997
 30
-9.1
 40
2.0
  1
0.06
 50
315.0
 41
0.7
 11
74.3743247291
 21
220.516348529
 31
-9.1
 73
     1
  0
TEXT
  5
154
  8
LEVEL0
 10
72.7079040824
 20
218.950101557
 30
-9.1
 40
2.0
  1
R1.5
 50
315.0
 41
0.7
 11
72.2083189118
 21
218.4505163864
 31
-9.1
 73
     1
  0
TEXT
  5
155
  8
LEVEL0
 10
77.2986968729
 20
214.4025211401
 30
-9.1
 40
2.0
  1
 TYP
 50
315.0
 41
0.7
 11
76.7991117023
 21
213.9029359695
 31
-9.1
 73
     1
  0
ENDBLK
  5
149
  8
0
  0
BLOCK
  8
0
  2
SW_NOTE_0_1
 70
     0
 10
0.0
 20
0.0
 30
0.0
  3
SW_NOTE_0_1
  1

  0
TEXT
  5
159
  8
LEVEL0
 62
     0
 10
-64.0347235285
 20
8.2659347402
 30
0.0
 40
2.0
  1
MARK SCREW LOCATIONS
 41
0.665
 11
-64.0347235285
 21
7.5594146164
 31
0.0
 73
     1
  0
LINE
  5
15A
  8
LEVEL0
 62
     0
 10
-30.3684527764
 20
9.2475481767
 30
0.0
 11
0.0
 21
0.0
 31
0.0
  0
SOLID
  5
15B
  8
LEVEL0
 62
     0
 10
0.0
 20
0.0
 30
0.0
 11
-1.823628097
 21
0.8769578782
 31
0.0
 12
-2.0028927495
 22
0.2882623633
 32
0.0
 13
-2.0028927495
 23
0.2882623633
 33
0.0
  0
ENDBLK
  5
158
  8
0
  0
BLOCK
  8
0
  2
SW_CENTERMARKSYMBOL_0
 70
     0
 10
0.0
 20
0.0
 30
0.0
  3
SW_CENTERMARKSYMBOL_0
  1

  0
LINE
  5
160
  8
LEVEL0
 62
     0
 10
0.0
 20
0.0
 30
0.0
 11
0.0
 21
2.5
 31
0.0
  0
LINE
  5
161
  8
LEVEL0
 62
     0
 10
0.0
 20
0.0
 30
0.0
 11
-2.5
 21
0.0
 31
0.0
  0
LINE
  5
162
  8
LEVEL0
 62
     0
 10
0.0
 20
0.0
 30
0.0
 11
0.0
 21
-2.5
 31
0.0
  0
LINE
  5
163
  8
LEVEL0
 62
     0
 10
0.0
 20
0.0
 30
0.0
 11
2.5
 21
0.0
 31
0.0
  0
LINE
  5
164
  8
LEVEL0
 62
     0
 10
0.0
 20
2.5
 30
0.0
 11
0.0
 21
3.5
 31
0.0
  0
LINE
  5
165
  8
LEVEL0
 62
     0
 10
-2.5
 20
0.0
 30
0.0
 11
-3.5
 21
0.0
 31
0.0
  0
LINE
  5
166
  8
LEVEL0
 62
     0
 10
0.0
 20
-2.5
 30
0.0
 11
0.0
 21
-3.5
 31
0.0
  0
LINE
  5
167
  8
LEVEL0
 62
     0
 10
2.5
 20
0.0
 30
0.0
 11
3.5
 21
0.0
 31
0.0
  0
ENDBLK
  5
15F
  8
0
  0
BLOCK
  8
0
  2
SW_CENTERMARKSYMBOL_1
 70
     0
 10
0.0
 20
0.0
 30
0.0
  3
SW_CENTERMARKSYMBOL_1
  1

  0
LINE
  5
16C
  8
LEVEL0
 62
     0
 10
0.0
 20
0.0
 30
0.0
 11
0.0
 21
2.5
 31
0.0
  0
LINE
  5
16D
  8
LEVEL0
 62
     0
 10
0.0
 20
0.0
 30
0.0
 11
-2.5
 21
0.0
 31
0.0
  0
LINE
  5
16E
  8
LEVEL0
 62
     0
 10
0.0
 20
0.0
 30
0.0
 11
0.0
 21
-2.5
 31
0.0
  0
LINE
  5
16F
  8
LEVEL0
 62
     0
 10
0.0
 20
0.0
 30
0.0
 11
2.5
 21
0.0
 31
0.0
  0
LINE
  5
170
  8
LEVEL0
 62
     0
 10
0.0
 20
2.5
 30
0.0
 11
0.0
 21
3.5
 31
0.0
  0
LINE
  5
171
  8
LEVEL0
 62
     0
 10
-2.5
 20
0.0
 30
0.0
 11
-3.5
 21
0.0
 31
0.0
  0
LINE
  5
172
  8
LEVEL0
 62
     0
 10
0.0
 20
-2.5
 30
0.0
 11
0.0
 21
-3.5
 31
0.0
  0
LINE
  5
173
  8
LEVEL0
 62
     0
 10
2.5
 20
0.0
 30
0.0
 11
3.5
 21
0.0
 31
0.0
  0
ENDBLK
  5
16B
  8
0
  0
BLOCK
  8
0
  2
SW_CENTERMARKSYMBOL_2
 70
     0
 10
0.0
 20
0.0
 30
0.0
  3
SW_CENTERMARKSYMBOL_2
  1

  0
LINE
  5
178
  8
LEVEL0
 62
     0
 10
0.0
 20
0.0
 30
0.0
 11
0.0
 21
2.5
 31
0.0
  0
LINE
  5
179
  8
LEVEL0
 62
     0
 10
0.0
 20
0.0
 30
0.0
 11
-2.5
 21
0.0
 31
0.0
  0
LINE
  5
17A
  8
LEVEL0
 62
     0
 10
0.0
 20
0.0
 30
0.0
 11
0.0
 21
-2.5
 31
0.0
  0
LINE
  5
17B
  8
LEVEL0
 62
     0
 10
0.0
 20
0.0
 30
0.0
 11
2.5
 21
0.0
 31
0.0
  0
LINE
  5
17C
  8
LEVEL0
 62
     0
 10
0.0
 20
2.5
 30
0.0
 11
0.0
 21
3.5
 31
0.0
  0
LINE
  5
17D
  8
LEVEL0
 62
     0
 10
-2.5
 20
0.0
 30
0.0
 11
-3.5
 21
0.0
 31
0.0
  0
LINE
  5
17E
  8
LEVEL0
 62
     0
 10
0.0
 20
-2.5
 30
0.0
 11
0.0
 21
-3.5
 31
0.0
  0
LINE
  5
17F
  8
LEVEL0
 62
     0
 10
2.5
 20
0.0
 30
0.0
 11
3.5
 21
0.0
 31
0.0
  0
ENDBLK
  5
177
  8
0
  0
BLOCK
  8
0
  2
SW_CENTERMARKSYMBOL_3
 70
     0
 10
0.0
 20
0.0
 30
0.0
  3
SW_CENTERMARKSYMBOL_3
  1

  0
LINE
  5
184
  8
LEVEL0
 62
     0
 10
0.0
 20
0.0
 30
0.0
 11
0.0
 21
2.5
 31
0.0
  0
LINE
  5
185
  8
LEVEL0
 62
     0
 10
0.0
 20
0.0
 30
0.0
 11
-2.5
 21
0.0
 31
0.0
  0
LINE
  5
186
  8
LEVEL0
 62
     0
 10
0.0
 20
0.0
 30
0.0
 11
0.0
 21
-2.5
 31
0.0
  0
LINE
  5
187
  8
LEVEL0
 62
     0
 10
0.0
 20
0.0
 30
0.0
 11
2.5
 21
0.0
 31
0.0
  0
LINE
  5
188
  8
LEVEL0
 62
     0
 10
0.0
 20
2.5
 30
0.0
 11
0.0
 21
3.5
 31
0.0
  0
LINE
  5
189
  8
LEVEL0
 62
     0
 10
-2.5
 20
0.0
 30
0.0
 11
-3.5
 21
0.0
 31
0.0
  0
LINE
  5
18A
  8
LEVEL0
 62
     0
 10
0.0
 20
-2.5
 30
0.0
 11
0.0
 21
-3.5
 31
0.0
  0
LINE
  5
18B
  8
LEVEL0
 62
     0
 10
2.5
 20
0.0
 30
0.0
 11
3.5
 21
0.0
 31
0.0
  0
ENDBLK
  5
183
  8
0
  0
ENDSEC
  0
SECTION
  2
ENTITIES
  0
TEXT
  5
A7
  8
LEVEL0
 10
72.9993625055
 20
32.2958840603
 30
0.0
 40
3.7041666667
  1
PRINT THIS PAGE 1:1 SCALE
 41
0.644
 11
72.9993625055
 21
30.9873499143
 31
0.0
 73
     1
  0
INSERT
  5
AD
  8
LEVEL0
  2
SW_NOTE_0
 10
29.15270973
 20
261.8047289978
 30
0.0
  0
ARC
  5
AE
  8
0
  6
CONTINUOUS
 62
     7
 10
62.7158671392
 20
228.0115299686
 30
0.0
 40
1.5
 50
90.0
 51
180.0
  0
LINE
  5
AF
  8
0
  6
CONTINUOUS
 62
     7
 10
61.2158671392
 20
64.5115299686
 30
0.0
 11
61.2158671392
 21
228.0115299686
 31
0.0
  0
ARC
  5
B0
  8
0
  6
CONTINUOUS
 62
     7
 10
62.7158671392
 20
64.5115299686
 30
0.0
 40
1.500000000000007
 50
180.0
 51
270.0
  0
LINE
  5
B1
  8
0
  6
CONTINUOUS
 62
     7
 10
155.4158671392
 20
63.0115299686
 30
0.0
 11
62.7158671392
 21
63.0115299686
 31
0.0
  0
ARC
  5
B2
  8
0
  6
CONTINUOUS
 62
     7
 10
155.4158671392
 20
64.5115299686
 30
0.0
 40
1.500000000000007
 50
270.0
 51
0.0
  0
LINE
  5
B3
  8
0
  6
CONTINUOUS
 62
     7
 10
156.9158671392
 20
228.0115299686
 30
0.0
 11
156.9158671392
 21
64.5115299686
 31
0.0
  0
ARC
  5
B4
  8
0
  6
CONTINUOUS
 62
     7
 10
155.4158671392
 20
228.0115299686
 30
0.0
 40
1.5
 50
0.0
 51
90.0
  0
LINE
  5
B5
  8
0
  6
CONTINUOUS
 62
     7
 10
62.7158671392
 20
229.5115299686
 30
0.0
 11
155.4158671392
 21
229.5115299686
 31
0.0
  0
CIRCLE
  5
B6
  8
0
  6
CONTINUOUS
 62
     7
 10
165.1158671392
 20
237.8215299686
 30
0.0
 40
1.0
  0
CIRCLE
  5
B7
  8
0
  6
CONTINUOUS
 62
     7
 10
165.1158671392
 20
54.7015299686
 30
0.0
 40
1.0
  0
CIRCLE
  5
B8
  8
0
  6
CONTINUOUS
 62
     7
 10
53.0158671392
 20
54.7015299686
 30
0.0
 40
1.0
  0
CIRCLE
  5
B9
  8
0
  6
CONTINUOUS
 62
     7
 10
53.0158671392
 20
237.8215299686
 30
0.0
 40
1.0
  0
DIMENSION
  5
BA
  8
LEVEL0
  2
_D
 10
29.3963395594
 20
54.7015299686
 30
0.0
 11
29.3963395594
 21
150.1481657746
 31
0.0
 70
   160
  1
<>
  3
SLDDIMSTYLE0
 13
49.5158671392
 23
237.8215299686
 33
0.0
 14
49.5158671392
 24
54.7015299686
 34
0.0
 50
90.0
  0
DIMENSION
  5
D5
  8
LEVEL0
  2
_D_1
 10
165.1158671392
 20
42.0758929866
 30
0.0
 11
107.0815429816
 21
42.0758929866
 31
0.0
 70
   160
  1
<>
  3
SLDDIMSTYLE0
 13
53.0158671392
 23
51.2015299686
 33
0.0
 14
165.1158671392
 24
51.2015299686
 34
0.0
 50
0.0
  0
DIMENSION
  5
E8
  8
LEVEL0
  2
_D_2
 10
68.7674120421
 20
63.0115299686
 30
0.0
 11
68.7674120421
 21
48.9460130172
 31
0.0
 70
   160
  1
<>
  3
SLDDIMSTYLE0
 13
56.5158671392
 23
54.7015299686
 33
0.0
 14
62.7158671392
 24
63.0115299686
 34
0.0
 50
90.0
  0
DIMENSION
  5
FB
  8
LEVEL0
  2
_D_3
 10
61.2158671392
 20
79.5973177688
 30
0.0
 11
46.8358750215
 21
79.5973177688
 31
0.0
 70
   160
  1
<>
  3
SLDDIMSTYLE0
 13
53.0158671392
 23
58.2015299686
 33
0.0
 14
61.2158671392
 24
64.5115299686
 34
0.0
 50
0.0
  0
DIMENSION
  5
10E
  8
LEVEL0
  2
_D_4
 10
156.9158671392
 20
133.8851697978
 30
0.0
 11
111.254285144
 21
133.8851697978
 31
0.0
 70
   160
  1
<>
  3
SLDDIMSTYLE1
 13
61.2158671392
 23
64.5115299686
 33
0.0
 14
156.9158671392
 24
64.5115299686
 34
0.0
 50
0.0
  0
DIMENSION
  5
12A
  8
LEVEL0
  2
_D_5
 10
96.0527672373
 20
229.5115299686
 30
0.0
 11
96.0527672373
 21
157.2116369304
 31
0.0
 70
   160
  1
<>
  3
SLDDIMSTYLE1
 13
62.7158671392
 23
63.0115299686
 33
0.0
 14
62.7158671392
 24
229.5115299686
 34
0.0
 50
90.0
  0
DIMENSION
  5
145
  8
LEVEL0
  2
_D_6
 10
62.7158671392
 20
228.0115299686
 30
0.0
 11
76.097298933
 21
214.6301181748
 31
0.0
 70
   164
  1
<> TYP
  3
SLDDIMSTYLE2
 15
61.6552069674
 25
229.0721901404
 35
0.0
 40
0.0
  0
INSERT
  5
15C
  8
LEVEL0
  2
SW_NOTE_0_1
 10
164.3277474862
 20
237.2060079036
 30
0.0
  0
INSERT
  5
168
  8
LEVEL0
  2
SW_CENTERMARKSYMBOL_0
 10
165.1158671392
 20
237.8215299686
 30
0.0
  0
INSERT
  5
174
  8
LEVEL0
  2
SW_CENTERMARKSYMBOL_1
 10
165.1158671392
 20
54.7015299686
 30
0.0
  0
INSERT
  5
180
  8
LEVEL0
  2
SW_CENTERMARKSYMBOL_2
 10
53.0158671392
 20
54.7015299686
 30
0.0
  0
INSERT
  5
18C
  8
LEVEL0
  2
SW_CENTERMARKSYMBOL_3
 10
53.0158671392
 20
237.8215299686
 30
0.0
  0
ENDSEC
  0
EOF
