  0
SECTION
  2
HEADER
  9
$ACADVER
  1
AC1009
  9
$DWGCODEPAGE
  3
ansi_1252
  9
$INSBASE
 10
0.0
 20
0.0
 30
0.0
  9
$EXTMIN
 10
0.0
 20
0.0
 30
0.0
  9
$EXTMAX
 10
210.0
 20
297.0
 30
0.0
  9
$LIMMIN
 10
0.0
 20
0.0
  9
$LIMMAX
 10
210.0
 20
297.0
  9
$ORTHOMODE
 70
     0
  9
$REGENMODE
 70
     1
  9
$FILLMODE
 70
     1
  9
$QTEXTMODE
 70
     0
  9
$MIRRTEXT
 70
     1
  9
$DRAGMODE
 70
     2
  9
$LTSCALE
 40
1.0
  9
$OSMODE
 70
    37
  9
$ATTMODE
 70
     1
  9
$TEXTSIZE
 40
2.0
  9
$TRACEWID
 40
1.0
  9
$TEXTSTYLE
  7
STANDARD
  9
$CLAYER
  8
0
  9
$CELTYPE
  6
BYLAYER
  9
$CECOLOR
 62
   256
  9
$DIMSCALE
 40
1.0
  9
$DIMASZ
 40
2.0
  9
$DIMEXO
 40
1.0
  9
$DIMDLI
 40
3.75
  9
$DIMRND
 40
0.0
  9
$DIMDLE
 40
0.0
  9
$DIMEXE
 40
1.0
  9
$DIMTP
 40
0.0
  9
$DIMTM
 40
0.0
  9
$DIMTXT
 40
2.0
  9
$DIMCEN
 40
2.5
  9
$DIMTSZ
 40
0.0
  9
$DIMTOL
 70
     0
  9
$DIMLIM
 70
     0
  9
$DIMTIH
 70
     1
  9
$DIMTOH
 70
     1
  9
$DIMSE1
 70
     0
  9
$DIMSE2
 70
     0
  9
$DIMTAD
 70
     1
  9
$DIMZIN
 70
     0
  9
$DIMBLK
  1

  9
$DIMASO
 70
     1
  9
$DIMSHO
 70
     1
  9
$DIMPOST
  1

  9
$DIMAPOST
  1

  9
$DIMALT
 70
     0
  9
$DIMALTD
 70
     3
  9
$DIMALTF
 40
0.0393700787
  9
$DIMLFAC
 40
1.0
  9
$DIMTOFL
 70
     1
  9
$DIMTVP
 40
0.0
  9
$DIMTIX
 70
     0
  9
$DIMSOXD
 70
     0
  9
$DIMSAH
 70
     0
  9
$DIMBLK1
  1

  9
$DIMBLK2
  1

  9
$DIMSTYLE
  2
ISO-25
  9
$DIMCLRD
 70
     0
  9
$DIMCLRE
 70
     0
  9
$DIMCLRT
 70
     0
  9
$DIMTFAC
 40
1.0
  9
$DIMGAP
 40
1.524
  9
$LUNITS
 70
     2
  9
$LUPREC
 70
     2
  9
$SKETCHINC
 40
1.0
  9
$FILLETRAD
 40
10.0
  9
$AUNITS
 70
     0
  9
$AUPREC
 70
     2
  9
$MENU
  1
.
  9
$ELEVATION
 40
0.0
  9
$PELEVATION
 40
0.0
  9
$THICKNESS
 40
0.0
  9
$LIMCHECK
 70
     0
  9
$CHAMFERA
 40
0.0
  9
$CHAMFERB
 40
0.0
  9
$SKPOLY
 70
     0
  9
$TDCREATE
 40
2459360.47928309
  9
$TDUPDATE
 40
2459360.479286528
  9
$TDINDWG
 40
0.0000000116
  9
$TDUSRTIMER
 40
0.0000000116
  9
$USRTIMER
 70
     1
  9
$ANGBASE
 50
0.0
  9
$ANGDIR
 70
     0
  9
$PDMODE
 70
     0
  9
$PDSIZE
 40
-1.0
  9
$PLINEWID
 40
0.0
  9
$COORDS
 70
     1
  9
$SPLFRAME
 70
     0
  9
$SPLINETYPE
 70
     6
  9
$SPLINESEGS
 70
     8
  9
$ATTDIA
 70
     0
  9
$ATTREQ
 70
     1
  9
$HANDLING
 70
     1
  9
$HANDSEED
  5
192
  9
$SURFTAB1
 70
     6
  9
$SURFTAB2
 70
     6
  9
$SURFTYPE
 70
     6
  9
$SURFU
 70
     6
  9
$SURFV
 70
     6
  9
$UCSNAME
  2

  9
$UCSORG
 10
0.0
 20
0.0
 30
0.0
  9
$UCSXDIR
 10
1.0
 20
0.0
 30
0.0
  9
$UCSYDIR
 10
0.0
 20
1.0
 30
0.0
  9
$PUCSNAME
  2

  9
$PUCSORG
 10
0.0
 20
0.0
 30
0.0
  9
$PUCSXDIR
 10
1.0
 20
0.0
 30
0.0
  9
$PUCSYDIR
 10
0.0
 20
1.0
 30
0.0
  9
$USERI1
 70
     0
  9
$USERI2
 70
     0
  9
$USERI3
 70
     0
  9
$USERI4
 70
     0
  9
$USERI5
 70
     0
  9
$USERR1
 40
0.0
  9
$USERR2
 40
0.0
  9
$USERR3
 40
0.0
  9
$USERR4
 40
0.0
  9
$USERR5
 40
0.0
  9
$WORLDVIEW
 70
     1
  9
$SHADEDGE
 70
     3
  9
$SHADEDIF
 70
    70
  9
$TILEMODE
 70
     1
  9
$MAXACTVP
 70
    64
  9
$PLIMCHECK
 70
     0
  9
$PEXTMIN
 10
1.0000000000E+20
 20
1.0000000000E+20
 30
1.0000000000E+20
  9
$PEXTMAX
 10
-1.0000000000E+20
 20
-1.0000000000E+20
 30
-1.0000000000E+20
  9
$PLIMMIN
 10
0.0
 20
0.0
  9
$PLIMMAX
 10
420.0
 20
297.0
  9
$UNITMODE
 70
     0
  9
$VISRETAIN
 70
     1
  9
$PLINEGEN
 70
     0
  9
$PSLTSCALE
 70
     1
  0
ENDSEC
  0
SECTION
  2
TABLES
  0
TABLE
  2
VPORT
 70
     1
  0
VPORT
  2
*ACTIVE
 70
     0
 10
0.0
 20
0.0
 11
1.0
 21
1.0
 12
105.0
 22
148.5
 13
0.0
 23
0.0
 14
10.0
 24
10.0
 15
10.0
 25
10.0
 16
0.0
 26
0.0
 36
1.0
 17
0.0
 27
0.0
 37
0.0
 40
297.0
 41
0.7070707071
 42
50.0
 43
0.0
 44
0.0
 50
0.0
 51
0.0
 71
     0
 72
  2000
 73
     1
 74
     3
 75
     0
 76
     0
 77
     0
 78
     0
  0
ENDTAB
  0
TABLE
  2
LTYPE
 70
     6
  0
LTYPE
  2
CONTINUOUS
 70
     0
  3
Solid line
 72
    65
 73
     0
 40
0.0
  0
LTYPE
  2
HIDDEN
 70
     0
  3
Hidden __ __ __ __ __ __ __ __ __ __ __ __ __ __
 72
    65
 73
     2
 40
1.905
 49
1.27
 49
-0.635
  0
LTYPE
  2
PHANTOM
 70
     0
  3
Phantom ______  __  __  ______  __  __  ______
 72
    65
 73
     6
 40
12.7
 49
6.35
 49
-1.27
 49
1.27
 49
-1.27
 49
1.27
 49
-1.27
  0
LTYPE
  2
CENTER
 70
     0
  3
Center ____ _ ____ _ ____ _ ____ _ ____ _ ____
 72
    65
 73
     4
 40
10.16
 49
6.35
 49
-1.27
 49
1.27
 49
-1.27
  0
LTYPE
  2
CENTERX2
 70
     0
  3
Center (2x) ________  __  ________  __  _____
 72
    65
 73
     4
 40
20.32
 49
12.7
 49
-2.54
 49
2.54
 49
-2.54
  0
LTYPE
  2
DOT2
 70
     0
  3
Dot (.5x) ........................................
 72
    65
 73
     2
 40
0.635
 49
0.0
 49
-0.635
  0
ENDTAB
  0
TABLE
  2
LAYER
 70
    53
  0
LAYER
  2
0
 70
     0
 62
     7
  6
CONTINUOUS
  0
LAYER
  2
SLD-0
 70
     0
 62
     7
  6
CONTINUOUS
  0
LAYER
  2
LEVEL0
 70
     0
 62
     7
  6
CONTINUOUS
  0
LAYER
  2
1
 70
     0
 62
     7
  6
CONTINUOUS
  0
LAYER
  2
2
 70
     0
 62
     7
  6
CONTINUOUS
  0
LAYER
  2
3
 70
     0
 62
     7
  6
CONTINUOUS
  0
LAYER
  2
4
 70
     0
 62
     7
  6
CONTINUOUS
  0
LAYER
  2
5
 70
     0
 62
     7
  6
CONTINUOUS
  0
LAYER
  2
6
 70
     0
 62
     7
  6
CONTINUOUS
  0
LAYER
  2
7
 70
     0
 62
     7
  6
CONTINUOUS
  0
LAYER
  2
8
 70
     0
 62
     7
  6
CONTINUOUS
  0
LAYER
  2
9
 70
     0
 62
     7
  6
CONTINUOUS
  0
LAYER
  2
10
 70
     0
 62
     7
  6
CONTINUOUS
  0
LAYER
  2
11
 70
     0
 62
     7
  6
CONTINUOUS
  0
LAYER
  2
12
 70
     0
 62
     7
  6
CONTINUOUS
  0
LAYER
  2
13
 70
     0
 62
     7
  6
CONTINUOUS
  0
LAYER
  2
14
 70
     0
 62
     7
  6
CONTINUOUS
  0
LAYER
  2
15
 70
     0
 62
     7
  6
CONTINUOUS
  0
LAYER
  2
16
 70
     0
 62
     7
  6
CONTINUOUS
  0
LAYER
  2
17
 70
     0
 62
     7
  6
CONTINUOUS
  0
LAYER
  2
18
 70
     0
 62
     7
  6
CONTINUOUS
  0
LAYER
  2
19
 70
     0
 62
     7
  6
CONTINUOUS
  0
LAYER
  2
20
 70
     0
 62
     7
  6
CONTINUOUS
  0
LAYER
  2
21
 70
     0
 62
     7
  6
CONTINUOUS
  0
LAYER
  2
22
 70
     0
 62
     7
  6
CONTINUOUS
  0
LAYER
  2
23
 70
     0
 62
     7
  6
CONTINUOUS
  0
LAYER
  2
24
 70
     0
 62
     7
  6
CONTINUOUS
  0
LAYER
  2
25
 70
     0
 62
     7
  6
CONTINUOUS
  0
LAYER
  2
26
 70
     0
 62
     7
  6
CONTINUOUS
  0
LAYER
  2
27
 70
     0
 62
     7
  6
CONTINUOUS
  0
LAYER
  2
28
 70
     0
 62
     7
  6
CONTINUOUS
  0
LAYER
  2
29
 70
     0
 62
     7
  6
CONTINUOUS
  0
LAYER
  2
30
 70
     0
 62
     7
  6
CONTINUOUS
  0
LAYER
  2
31
 70
     0
 62
     7
  6
CONTINUOUS
  0
LAYER
  2
32
 70
     0
 62
     7
  6
CONTINUOUS
  0
LAYER
  2
33
 70
     0
 62
     7
  6
CONTINUOUS
  0
LAYER
  2
34
 70
     0
 62
     7
  6
CONTINUOUS
  0
LAYER
  2
35
 70
     0
 62
     7
  6
CONTINUOUS
  0
LAYER
  2
36
 70
     0
 62
     7
  6
CONTINUOUS
  0
LAYER
  2
37
 70
     0
 62
     7
  6
CONTINUOUS
  0
LAYER
  2
38
 70
     0
 62
     7
  6
CONTINUOUS
  0
LAYER
  2
39
 70
     0
 62
     7
  6
CONTINUOUS
  0
LAYER
  2
40
 70
     0
 62
     7
  6
CONTINUOUS
  0
LAYER
  2
41
 70
     0
 62
     7
  6
CONTINUOUS
  0
LAYER
  2
42
 70
     0
 62
     7
  6
CONTINUOUS
  0
LAYER
  2
43
 70
     0
 62
     7
  6
CONTINUOUS
  0
LAYER
  2
44
 70
     0
 62
     7
  6
CONTINUOUS
  0
LAYER
  2
45
 70
     0
 62
     7
  6
CONTINUOUS
  0
LAYER
  2
46
 70
     0
 62
     7
  6
CONTINUOUS
  0
LAYER
  2
47
 70
     0
 62
     7
  6
CONTINUOUS
  0
LAYER
  2
48
 70
     0
 62
     7
  6
CONTINUOUS
  0
LAYER
  2
49
 70
     0
 62
     7
  6
CONTINUOUS
  0
LAYER
  2
50
 70
     0
 62
     7
  6
CONTINUOUS
  0
ENDTAB
  0
TABLE
  2
STYLE
 70
     1
  0
STYLE
  2
STANDARD
 70
     0
 40
0.0
 41
1.0
 50
0.0
 71
     0
 42
2.0
  3
txt
  4

  0
ENDTAB
  0
TABLE
  2
VIEW
 70
     0
  0
ENDTAB
  0
TABLE
  2
UCS
 70
     0
  0
ENDTAB
  0
TABLE
  2
APPID
 70
     1
  0
APPID
  2
ACAD
 70
     0
  0
ENDTAB
  0
TABLE
  2
DIMSTYLE
 70
     5
  0
DIMSTYLE
  2
ISO-25
 70
     0
  3

  4

  5

  6

  7

 40
1.0
 41
2.5
 42
0.625
 43
3.75
 44
1.25
 45
0.0
 46
0.0
 47
0.0
 48
0.0
140
2.5
141
2.5
142
0.0
143
0.0393700787
144
1.0
145
0.0
146
1.0
147
0.625
 71
     0
 72
     0
 73
     0
 74
     0
 75
     0
 76
     0
 77
     1
 78
     8
170
     0
171
     3
172
     1
173
     0
174
     0
175
     0
176
     0
177
     0
178
     0
  0
DIMSTYLE
  2
SLDDIMSTYLE0
 70
     0
  3

  4

  5

  6
CLOSED
  7
CLOSED
 40
1.0
 41
2.0
 42
0.0625
 43
0.38
 44
0.0
 45
0.000000001
 46
0.0
 47
0.0
 48
0.0
140
2.0
141
0.09
142
0.0
143
0.0393700787
144
1.0
145
0.0
146
1.0
147
0.5
 71
     0
 72
     0
 73
     0
 74
     0
 75
     0
 76
     0
 77
     1
 78
    12
170
     1
171
     2
172
     0
173
     1
174
     0
175
     0
176
     0
177
     0
178
     0
  0
DIMSTYLE
  2
SLDDIMSTYLE1
 70
     0
  3

  4

  5

  6
CLOSED
  7
CLOSED
 40
1.0
 41
2.0
 42
0.0625
 43
0.38
 44
0.0
 45
0.000000001
 46
0.0
 47
0.3
 48
0.2
140
2.0
141
0.09
142
0.0
143
0.0393700787
144
1.0
145
0.0
146
1.0
147
0.5
 71
     1
 72
     0
 73
     0
 74
     0
 75
     0
 76
     0
 77
     1
 78
    12
170
     1
171
     2
172
     0
173
     1
174
     0
175
     0
176
     0
177
     0
178
     0
  0
DIMSTYLE
  2
SLDDIMSTYLE2
 70
     0
  3

  4

  5

  6
CLOSED
  7
CLOSED
 40
1.0
 41
2.0
 42
0.0625
 43
0.38
 44
0.0
 45
0.000000001
 46
0.0
 47
0.3
 48
0.2
140
2.0
141
0.09
142
0.0
143
0.0393700787
144
1.0
145
0.0
146
1.0
147
0.5
 71
     1
 72
     0
 73
     0
 74
     0
 75
     0
 76
     0
 77
     1
 78
    12
170
     1
171
     2
172
     0
173
     1
174
     0
175
     0
176
     0
177
     0
178
     0
  0
DIMSTYLE
  2
SLDDIMSTYLE3
 70
     0
  3

  4

  5

  6
CLOSED
  7
CLOSED
 40
1.0
 41
2.0
 42
0.0625
 43
0.38
 44
0.0
 45
0.000000001
 46
0.0
 47
0.0
 48
0.0
140
2.0
141
0.0
142
0.0
143
0.0393700787
144
1.0
145
0.0
146
1.0
147
0.5
 71
     0
 72
     0
 73
     0
 74
     0
 75
     0
 76
     0
 77
     1
 78
    12
170
     1
171
     2
172
     0
173
     1
174
     0
175
     0
176
     0
177
     0
178
     0
  0
ENDTAB
  0
ENDSEC
  0
SECTION
  2
BLOCKS
  0
BLOCK
  8
0
  2
$MODEL_SPACE
 70
     0
 10
0.0
 20
0.0
 30
0.0
  3
$MODEL_SPACE
  1

  0
ENDBLK
  5
21
  8
0
  0
BLOCK
 67
     1
  8
0
  2
$PAPER_SPACE
 70
     0
 10
0.0
 20
0.0
 30
0.0
  3
$PAPER_SPACE
  1

  0
ENDBLK
  5
1D
 67
     1
  8
0
  0
BLOCK
  8
0
  2
SW_NOTE_0
 70
     0
 10
0.0
 20
0.0
 30
0.0
  3
SW_NOTE_0
  1

  0
TEXT
  5
AB
  8
LEVEL0
 62
     0
 10
0.0
 20
1.308534146
 30
0.0
 40
3.7041666667
  1
GLASS FACEPLATE CUTOUT ROUTING TEMPLATE
 41
0.6641025641
 11
0.0
 21
0.0
 31
0.0
 73
     1
  0
TEXT
  5
AC
  8
LEVEL0
 62
     0
 10
0.0
 20
-10.5692438402
 30
0.0
 40
3.7041666667
  1
SCALE 1:1
 41
0.7
 11
0.0
 21
-11.8777779862
 31
0.0
 73
     1
  0
ENDBLK
  5
AA
  8
0
  0
BLOCK
  8
0
  2
_CLOSED
 70
     0
 10
0.0
 20
0.0
 30
0.0
  3
_CLOSED
  1

  0
LINE
  5
BF
  8
0
  6
BYBLOCK
 62
     0
 10
-1.0
 20
0.166667
 30
0.0
 11
0.0
 21
0.0
 31
0.0
  0
LINE
  5
C0
  8
0
  6
BYBLOCK
 62
     0
 10
0.0
 20
0.0
 30
0.0
 11
-1.0
 21
-0.166667
 31
0.0
  0
LINE
  5
C1
  8
0
  6
BYBLOCK
 62
     0
 10
-1.0
 20
0.166667
 30
0.0
 11
-1.0
 21
-0.166667
 31
0.0
  0
LINE
  5
C2
  8
0
  6
BYBLOCK
 62
     0
 10
0.0
 20
0.0
 30
0.0
 11
-1.0
 21
0.0
 31
0.0
  0
ENDBLK
  5
BE
  8
0
  0
BLOCK
  8
0
  2
_D
 70
     0
 10
0.0
 20
0.0
 30
0.0
  3
_D
  1

  0
INSERT
  5
C6
  8
LEVEL0
  2
_CLOSED
 10
35.9902556812
 20
236.1361439331
 30
-9.1
 41
2.0
 42
2.0
 50
90.0
  0
INSERT
  5
C7
  8
LEVEL0
  2
_CLOSED
 10
35.9902556812
 20
53.0161439331
 30
-9.1
 41
2.0
 42
2.0
 50
270.0
  0
LINE
  5
C8
  8
LEVEL0
 10
29.8228946341
 20
149.5492318111
 30
0.0
 11
29.8228946341
 21
148.9398567985
 31
0.0
  0
LINE
  5
C9
  8
LEVEL0
 10
29.8228946341
 20
148.9398567985
 30
0.0
 11
32.9978945958
 21
148.9398567985
 31
0.0
  0
LINE
  5
CA
  8
LEVEL0
 10
32.9978945958
 20
148.9398567985
 30
0.0
 11
32.9978945958
 21
149.5492318111
 31
0.0
  0
LINE
  5
CB
  8
LEVEL0
 10
29.8228946341
 20
154.7214537324
 30
0.0
 11
29.8228946341
 21
155.330828745
 31
0.0
  0
LINE
  5
CC
  8
LEVEL0
 10
29.8228946341
 20
155.330828745
 30
0.0
 11
32.9978945958
 21
155.330828745
 31
0.0
  0
LINE
  5
CD
  8
LEVEL0
 10
32.9978945958
 20
155.330828745
 30
0.0
 11
32.9978945958
 21
154.7214537324
 31
0.0
  0
LINE
  5
CE
  8
LEVEL0
 10
49.8474958538
 20
236.1361439331
 30
0.0
 11
34.9902556812
 21
236.1361439331
 31
0.0
  0
LINE
  5
CF
  8
LEVEL0
 10
49.8474958538
 20
53.0161439331
 30
0.0
 11
34.9902556812
 21
53.0161439331
 31
0.0
  0
LINE
  5
D0
  8
LEVEL0
 10
35.9902556812
 20
236.1361439331
 30
0.0
 11
35.9902556812
 21
53.0161439331
 31
0.0
  0
TEXT
  5
D1
  8
LEVEL0
 10
35.2531800279
 20
146.8527040608
 30
-9.1
 40
2.0
  1
  
 50
90.0
 41
0.7
 11
35.9597001517
 21
146.8527040608
 31
-9.1
 73
     1
  0
TEXT
  5
D2
  8
LEVEL0
 10
32.2913744719
 20
149.5492318111
 30
-9.1
 40
2.0
  1
7.21
 50
90.0
 41
0.7
 11
32.9978945958
 21
149.5492318111
 31
-9.1
 73
     1
  0
TEXT
  5
D3
  8
LEVEL0
 10
35.2837357902
 20
148.8103429485
 30
-9.1
 40
2.0
  1
183.1
 50
90.0
 41
0.7
 11
35.9902559141
 21
148.8103429485
 31
-9.1
 73
     1
  0
TEXT
  5
D4
  8
LEVEL0
 10
35.2531800279
 20
155.9402042233
 30
-9.1
 40
2.0
  1
  
 50
90.0
 41
0.7
 11
35.9597001517
 21
155.9402042233
 31
-9.1
 73
     1
  0
ENDBLK
  5
C5
  8
0
  0
BLOCK
  8
0
  2
_D_1
 70
     0
 10
0.0
 20
0.0
 30
0.0
  3
_D_1
  1

  0
INSERT
  5
D9
  8
LEVEL0
  2
_CLOSED
 10
54.3474958538
 20
39.5460210057
 30
-9.1
 41
2.0
 42
2.0
 50
180.0
  0
INSERT
  5
DA
  8
LEVEL0
  2
_CLOSED
 10
166.4474958538
 20
39.5460210057
 30
-9.1
 41
2.0
 42
2.0
 50
0.0
  0
LINE
  5
DB
  8
LEVEL0
 10
105.0142646873
 20
45.7133820528
 30
0.0
 11
104.4048896747
 21
45.7133820528
 31
0.0
  0
LINE
  5
DC
  8
LEVEL0
 10
104.4048896747
 20
45.7133820528
 30
0.0
 11
104.4048896747
 21
42.5383820912
 31
0.0
  0
LINE
  5
DD
  8
LEVEL0
 10
104.4048896747
 20
42.5383820912
 30
0.0
 11
105.0142646873
 21
42.5383820912
 31
0.0
  0
LINE
  5
DE
  8
LEVEL0
 10
110.1864866087
 20
45.7133820528
 30
0.0
 11
110.7958616212
 21
45.7133820528
 31
0.0
  0
LINE
  5
DF
  8
LEVEL0
 10
110.7958616212
 20
45.7133820528
 30
0.0
 11
110.7958616212
 21
42.5383820912
 31
0.0
  0
LINE
  5
E0
  8
LEVEL0
 10
110.7958616212
 20
42.5383820912
 30
0.0
 11
110.1864866087
 21
42.5383820912
 31
0.0
  0
LINE
  5
E1
  8
LEVEL0
 10
54.3474958538
 20
48.5161439331
 30
0.0
 11
54.3474958538
 21
38.5460210057
 31
0.0
  0
LINE
  5
E2
  8
LEVEL0
 10
166.4474958538
 20
48.5161439331
 30
0.0
 11
166.4474958538
 21
38.5460210057
 31
0.0
  0
LINE
  5
E3
  8
LEVEL0
 10
54.3474958538
 20
39.5460210057
 30
0.0
 11
166.4474958538
 21
39.5460210057
 31
0.0
  0
TEXT
  5
E4
  8
LEVEL0
 10
102.3177369371
 20
40.2830966591
 30
-9.1
 40
2.0
  1
  
 50
360.0
 41
0.7
 11
102.3177369371
 21
39.5765765352
 31
-9.1
 73
     1
  0
TEXT
  5
E5
  8
LEVEL0
 10
105.0142646873
 20
43.244902215
 30
-9.1
 40
2.0
  1
4.41
 50
360.0
 41
0.7
 11
105.0142646873
 21
42.5383820912
 31
-9.1
 73
     1
  0
TEXT
  5
E6
  8
LEVEL0
 10
104.2753758247
 20
40.2525408967
 30
-9.1
 40
2.0
  1
112.1
 50
360.0
 41
0.7
 11
104.2753758247
 21
39.5460207729
 31
-9.1
 73
     1
  0
TEXT
  5
E7
  8
LEVEL0
 10
111.4052370995
 20
40.2830966591
 30
-9.1
 40
2.0
  1
  
 50
360.0
 41
0.7
 11
111.4052370995
 21
39.5765765352
 31
-9.1
 73
     1
  0
ENDBLK
  5
D8
  8
0
  0
BLOCK
  8
0
  2
_D_2
 70
     0
 10
0.0
 20
0.0
 30
0.0
  3
_D_2
  1

  0
INSERT
  5
EC
  8
LEVEL0
  2
_CLOSED
 10
73.3900692328
 20
60.8161439331
 30
-9.1
 41
2.0
 42
2.0
 50
90.0
  0
INSERT
  5
ED
  8
LEVEL0
  2
_CLOSED
 10
73.3900692328
 20
53.0161439331
 30
-9.1
 41
2.0
 42
2.0
 50
270.0
  0
LINE
  5
EE
  8
LEVEL0
 10
67.2227081857
 20
43.5468431074
 30
0.0
 11
67.2227081857
 21
42.9374680949
 31
0.0
  0
LINE
  5
EF
  8
LEVEL0
 10
67.2227081857
 20
42.9374680949
 30
0.0
 11
70.3977081473
 21
42.9374680949
 31
0.0
  0
LINE
  5
F0
  8
LEVEL0
 10
70.3977081473
 20
42.9374680949
 30
0.0
 11
70.3977081473
 21
43.5468431074
 31
0.0
  0
LINE
  5
F1
  8
LEVEL0
 10
67.2227081857
 20
48.7190650288
 30
0.0
 11
67.2227081857
 21
49.3284400414
 31
0.0
  0
LINE
  5
F2
  8
LEVEL0
 10
67.2227081857
 20
49.3284400414
 30
0.0
 11
70.3977081473
 21
49.3284400414
 31
0.0
  0
LINE
  5
F3
  8
LEVEL0
 10
70.3977081473
 20
49.3284400414
 30
0.0
 11
70.3977081473
 21
48.7190650288
 31
0.0
  0
LINE
  5
F4
  8
LEVEL0
 10
58.8474958538
 20
53.0161439331
 30
0.0
 11
74.3900692328
 21
53.0161439331
 31
0.0
  0
LINE
  5
F5
  8
LEVEL0
 10
73.3900692328
 20
60.8161439331
 30
0.0
 11
73.3900692328
 21
53.0161439331
 31
0.0
  0
LINE
  5
F6
  8
LEVEL0
 10
73.3900692328
 20
53.0161439331
 30
0.0
 11
73.3900692328
 21
40.8503153572
 31
0.0
  0
TEXT
  5
F7
  8
LEVEL0
 10
72.6529935794
 20
40.8503153572
 30
-9.1
 40
2.0
  1
  
 50
90.0
 41
0.7
 11
73.3595137033
 21
40.8503153572
 31
-9.1
 73
     1
  0
TEXT
  5
F8
  8
LEVEL0
 10
69.6911880235
 20
43.5468431074
 30
-9.1
 40
2.0
  1
0.31
 50
90.0
 41
0.7
 11
70.3977081473
 21
43.5468431074
 31
-9.1
 73
     1
  0
TEXT
  5
F9
  8
LEVEL0
 10
72.6835493418
 20
44.2857320864
 30
-9.1
 40
2.0
  1
7.8
 50
90.0
 41
0.7
 11
73.3900694656
 21
44.2857320864
 31
-9.1
 73
     1
  0
TEXT
  5
FA
  8
LEVEL0
 10
72.6529935794
 20
49.9378155196
 30
-9.1
 40
2.0
  1
  
 50
90.0
 41
0.7
 11
73.3595137033
 21
49.9378155196
 31
-9.1
 73
     1
  0
ENDBLK
  5
EB
  8
0
  0
BLOCK
  8
0
  2
_D_3
 70
     0
 10
0.0
 20
0.0
 30
0.0
  3
_D_3
  1

  0
INSERT
  5
FF
  8
LEVEL0
  2
_CLOSED
 10
54.3474958538
 20
70.4961258167
 30
-9.1
 41
2.0
 42
2.0
 50
180.0
  0
INSERT
  5
100
  8
LEVEL0
  2
_CLOSED
 10
62.1474958538
 20
70.4961258167
 30
-9.1
 41
2.0
 42
2.0
 50
0.0
  0
LINE
  5
101
  8
LEVEL0
 10
44.1744449981
 20
76.6634868638
 30
0.0
 11
43.5650699855
 21
76.6634868638
 31
0.0
  0
LINE
  5
102
  8
LEVEL0
 10
43.5650699855
 20
76.6634868638
 30
0.0
 11
43.5650699855
 21
73.4884869021
 31
0.0
  0
LINE
  5
103
  8
LEVEL0
 10
43.5650699855
 20
73.4884869021
 30
0.0
 11
44.1744449981
 21
73.4884869021
 31
0.0
  0
LINE
  5
104
  8
LEVEL0
 10
49.3466669194
 20
76.6634868638
 30
0.0
 11
49.956041932
 21
76.6634868638
 31
0.0
  0
LINE
  5
105
  8
LEVEL0
 10
49.956041932
 20
76.6634868638
 30
0.0
 11
49.956041932
 21
73.4884869022
 31
0.0
  0
LINE
  5
106
  8
LEVEL0
 10
49.956041932
 20
73.4884869022
 30
0.0
 11
49.3466669194
 21
73.4884869022
 31
0.0
  0
LINE
  5
107
  8
LEVEL0
 10
54.3474958538
 20
57.5161439331
 30
0.0
 11
54.3474958538
 21
71.4961258167
 31
0.0
  0
LINE
  5
108
  8
LEVEL0
 10
54.3474958538
 20
70.4961258167
 30
0.0
 11
41.4779172478
 21
70.4961258167
 31
0.0
  0
LINE
  5
109
  8
LEVEL0
 10
54.3474958538
 20
70.4961258167
 30
0.0
 11
62.1474958538
 21
70.4961258167
 31
0.0
  0
TEXT
  5
10A
  8
LEVEL0
 10
41.4779172478
 20
71.23320147
 30
-9.1
 40
2.0
  1
  
 50
360.0
 41
0.7
 11
41.4779172478
 21
70.5266813462
 31
-9.1
 73
     1
  0
TEXT
  5
10B
  8
LEVEL0
 10
44.1744449981
 20
74.195007026
 30
-9.1
 40
2.0
  1
0.31
 50
360.0
 41
0.7
 11
44.1744449981
 21
73.4884869021
 31
-9.1
 73
     1
  0
TEXT
  5
10C
  8
LEVEL0
 10
44.913333977
 20
71.2026457077
 30
-9.1
 40
2.0
  1
7.8
 50
360.0
 41
0.7
 11
44.913333977
 21
70.4961255838
 31
-9.1
 73
     1
  0
TEXT
  5
10D
  8
LEVEL0
 10
50.5654174102
 20
71.23320147
 30
-9.1
 40
2.0
  1
  
 50
360.0
 41
0.7
 11
50.5654174102
 21
70.5266813462
 31
-9.1
 73
     1
  0
ENDBLK
  5
FE
  8
0
  0
BLOCK
  8
0
  2
_D_4
 70
     0
 10
0.0
 20
0.0
 30
0.0
  3
_D_4
  1

  0
ARC
  5
113
  8
LEVEL0
 10
125.407404036
 20
145.8361027091
 30
0.0
 40
5.782720426090119
 50
153.4349488229
 51
206.5650511771
  0
ARC
  5
114
  8
LEVEL0
 10
123.329626166
 20
145.8361027091
 30
0.0
 40
5.782720426090132
 50
333.4349488229
 51
26.5650511771
  0
ARC
  5
115
  8
LEVEL0
 10
126.1462935971
 20
139.8513805381
 30
0.0
 40
5.782720426090119
 50
153.4349488229
 51
206.5650511771
  0
ARC
  5
116
  8
LEVEL0
 10
122.5907373035
 20
139.8513805381
 30
0.0
 40
5.782720426090119
 50
333.4349488229
 51
26.5650511771
  0
INSERT
  5
117
  8
LEVEL0
  2
_CLOSED
 10
62.1474958538
 20
137.2652693446
 30
-9.1
 41
2.0
 42
2.0
 50
180.0
  0
INSERT
  5
118
  8
LEVEL0
  2
_CLOSED
 10
158.6474958538
 20
137.2652693446
 30
-9.1
 41
2.0
 42
2.0
 50
0.0
  0
LINE
  5
119
  8
LEVEL0
 10
113.7135727357
 20
148.8284637946
 30
0.0
 11
113.1041977231
 21
148.8284637946
 31
0.0
  0
LINE
  5
11A
  8
LEVEL0
 10
113.1041977231
 20
148.8284637946
 30
0.0
 11
113.1041977231
 21
143.2499915156
 31
0.0
  0
LINE
  5
11B
  8
LEVEL0
 10
113.1041977231
 20
143.2499915156
 30
0.0
 11
113.7135727357
 21
143.2499915156
 31
0.0
  0
LINE
  5
11C
  8
LEVEL0
 10
129.1123470317
 20
148.8284637946
 30
0.0
 11
129.7217220443
 21
148.8284637946
 31
0.0
  0
LINE
  5
11D
  8
LEVEL0
 10
129.7217220443
 20
148.8284637946
 30
0.0
 11
129.7217220443
 21
143.2499915156
 31
0.0
  0
LINE
  5
11E
  8
LEVEL0
 10
129.7217220443
 20
143.2499915156
 30
0.0
 11
129.1123470317
 21
143.2499915156
 31
0.0
  0
LINE
  5
11F
  8
LEVEL0
 10
62.1474958538
 20
137.2652693446
 30
0.0
 11
158.6474958538
 21
137.2652693446
 31
0.0
  0
TEXT
  5
120
  8
LEVEL0
 10
111.0170449854
 20
138.0023449979
 30
-9.1
 40
2.0
  1
  
 50
360.0
 41
0.7
 11
111.0170449854
 21
137.2958248741
 31
-9.1
 73
     1
  0
TEXT
  5
121
  8
LEVEL0
 10
113.7135727357
 20
143.9870671689
 30
-9.1
 40
2.0
  1
3.80
 50
360.0
 41
0.7
 11
113.7135727357
 21
143.2805470451
 31
-9.1
 73
     1
  0
TEXT
  5
122
  8
LEVEL0
 10
118.8857946571
 20
143.9870671689
 30
-9.1
 40
2.0
  1
 
 50
360.0
 41
0.7
 11
118.8857946571
 21
143.2805470451
 31
-9.1
 73
     1
  0
TEXT
  5
123
  8
LEVEL0
 10
120.235181649
 20
146.5426228329
 30
-9.1
 40
2.0
  1
+
 50
360.0
 41
0.7
 11
120.235181649
 21
145.8361027091
 31
-9.1
 73
     1
  0
TEXT
  5
124
  8
LEVEL0
 10
120.6004594304
 20
143.9565116394
 30
-9.1
 40
2.0
  1
-
 50
360.0
 41
0.7
 11
120.6004594304
 21
143.2499915156
 31
-9.1
 73
     1
  0
TEXT
  5
125
  8
LEVEL0
 10
121.8518483245
 20
146.5426228329
 30
-9.1
 40
2.0
  1
0.012
 50
360.0
 41
0.7
 11
121.8518483245
 21
145.8361027091
 31
-9.1
 73
     1
  0
TEXT
  5
126
  8
LEVEL0
 10
121.8518483245
 20
143.9565116394
 30
-9.1
 40
2.0
  1
0.008
 50
360.0
 41
0.7
 11
121.8518483245
 21
143.2499915156
 31
-9.1
 73
     1
  0
TEXT
  5
127
  8
LEVEL0
 10
114.4524622967
 20
137.9717894684
 30
-9.1
 40
2.0
  1
96.5
 50
360.0
 41
0.7
 11
114.4524622967
 21
137.2652693446
 31
-9.1
 73
     1
  0
TEXT
  5
128
  8
LEVEL0
 10
119.6246842181
 20
137.9717894684
 30
-9.1
 40
2.0
  1
 
 50
360.0
 41
0.7
 11
119.6246842181
 21
137.2652693446
 31
-9.1
 73
     1
  0
TEXT
  5
129
  8
LEVEL0
 10
120.97407121
 20
140.5579006619
 30
-9.1
 40
2.0
  1
+
 50
360.0
 41
0.7
 11
120.97407121
 21
139.8513805381
 31
-9.1
 73
     1
  0
TEXT
  5
12A
  8
LEVEL0
 10
121.3393489914
 20
137.9717894684
 30
-9.1
 40
2.0
  1
-
 50
360.0
 41
0.7
 11
121.3393489914
 21
137.2652693446
 31
-9.1
 73
     1
  0
TEXT
  5
12B
  8
LEVEL0
 10
122.5907378856
 20
140.5579006619
 30
-9.1
 40
2.0
  1
0.30
 50
360.0
 41
0.7
 11
122.5907378856
 21
139.8513805381
 31
-9.1
 73
     1
  0
TEXT
  5
12C
  8
LEVEL0
 10
122.5907378856
 20
137.9717894684
 30
-9.1
 40
2.0
  1
0.20
 50
360.0
 41
0.7
 11
122.5907378856
 21
137.2652693446
 31
-9.1
 73
     1
  0
TEXT
  5
12D
  8
LEVEL0
 10
130.3310975225
 20
138.0023449979
 30
-9.1
 40
2.0
  1
  
 50
360.0
 41
0.7
 11
130.3310975225
 21
137.2958248741
 31
-9.1
 73
     1
  0
ENDBLK
  5
112
  8
0
  0
BLOCK
  8
0
  2
_D_5
 70
     0
 10
0.0
 20
0.0
 30
0.0
  3
_D_5
  1

  0
INSERT
  5
133
  8
LEVEL0
  2
_CLOSED
 10
98.6464197892
 20
228.3361439331
 30
-9.1
 41
2.0
 42
2.0
 50
90.0
  0
INSERT
  5
134
  8
LEVEL0
  2
_CLOSED
 10
98.6464197892
 20
60.8161439331
 30
-9.1
 41
2.0
 42
2.0
 50
270.0
  0
LINE
  5
135
  8
LEVEL0
 10
87.8957251231
 20
152.9045220553
 30
0.0
 11
87.8957251231
 21
152.2951470427
 31
0.0
  0
LINE
  5
136
  8
LEVEL0
 10
87.8957251231
 20
152.2951470427
 30
0.0
 11
93.0679475102
 21
152.2951470427
 31
0.0
  0
LINE
  5
137
  8
LEVEL0
 10
93.0679475102
 20
152.2951470427
 30
0.0
 11
93.0679475102
 21
152.9045220553
 31
0.0
  0
LINE
  5
138
  8
LEVEL0
 10
87.8957251231
 20
167.0822989284
 30
0.0
 11
87.8957251231
 21
167.691673941
 31
0.0
  0
LINE
  5
139
  8
LEVEL0
 10
87.8957251231
 20
167.691673941
 30
0.0
 11
93.0679475102
 21
167.691673941
 31
0.0
  0
LINE
  5
13A
  8
LEVEL0
 10
93.0679475102
 20
167.691673941
 30
0.0
 11
93.0679475102
 21
167.0822989284
 31
0.0
  0
LINE
  5
13B
  8
LEVEL0
 10
98.6464197892
 20
228.3361439331
 30
0.0
 11
98.6464197892
 21
60.8161439331
 31
0.0
  0
TEXT
  5
13C
  8
LEVEL0
 10
97.9093441358
 20
150.2079943051
 30
-9.1
 40
2.0
  1
  
 50
90.0
 41
0.7
 11
98.6158642597
 21
150.2079943051
 31
-9.1
 73
     1
  0
TEXT
  5
13D
  8
LEVEL0
 10
92.3308718568
 20
152.9045220553
 30
-9.1
 40
2.0
  1
6.60
 50
90.0
 41
0.7
 11
93.0373919807
 21
152.9045220553
 31
-9.1
 73
     1
  0
TEXT
  5
13E
  8
LEVEL0
 10
92.3308718568
 20
158.0767439767
 30
-9.1
 40
2.0
  1
 
 50
90.0
 41
0.7
 11
93.0373919807
 21
158.0767439767
 31
-9.1
 73
     1
  0
TEXT
  5
13F
  8
LEVEL0
 10
89.7753161928
 20
158.8156329557
 30
-9.1
 40
2.0
  1
+
 50
90.0
 41
0.7
 11
90.4818363167
 21
158.8156329557
 31
-9.1
 73
     1
  0
TEXT
  5
140
  8
LEVEL0
 10
92.3614273864
 20
159.180910737
 30
-9.1
 40
2.0
  1
-
 50
90.0
 41
0.7
 11
93.0679475102
 21
159.180910737
 31
-9.1
 73
     1
  0
TEXT
  5
141
  8
LEVEL0
 10
89.7753161928
 20
160.4322995148
 30
-9.1
 40
2.0
  1
0.012
 50
90.0
 41
0.7
 11
90.4818363167
 21
160.4322995148
 31
-9.1
 73
     1
  0
TEXT
  5
142
  8
LEVEL0
 10
92.3614273864
 20
160.4322995148
 30
-9.1
 40
2.0
  1
0.008
 50
90.0
 41
0.7
 11
93.0679475102
 21
160.4322995148
 31
-9.1
 73
     1
  0
TEXT
  5
143
  8
LEVEL0
 10
97.939900131
 20
153.643410685
 30
-9.1
 40
2.0
  1
167.5
 50
90.0
 41
0.7
 11
98.6464202549
 21
153.643410685
 31
-9.1
 73
     1
  0
TEXT
  5
144
  8
LEVEL0
 10
97.939900131
 20
160.2934105643
 30
-9.1
 40
2.0
  1
 
 50
90.0
 41
0.7
 11
98.6464202549
 21
160.2934105643
 31
-9.1
 73
     1
  0
TEXT
  5
145
  8
LEVEL0
 10
95.3537889375
 20
161.0322995433
 30
-9.1
 40
2.0
  1
+
 50
90.0
 41
0.7
 11
96.0603090613
 21
161.0322995433
 31
-9.1
 73
     1
  0
TEXT
  5
146
  8
LEVEL0
 10
97.939900131
 20
161.3975773247
 30
-9.1
 40
2.0
  1
-
 50
90.0
 41
0.7
 11
98.6464202549
 21
161.3975773247
 31
-9.1
 73
     1
  0
TEXT
  5
147
  8
LEVEL0
 10
95.3537889375
 20
162.6489656367
 30
-9.1
 40
2.0
  1
0.3
 50
90.0
 41
0.7
 11
96.0603090613
 21
162.6489656367
 31
-9.1
 73
     1
  0
TEXT
  5
148
  8
LEVEL0
 10
97.939900131
 20
162.6489656367
 30
-9.1
 40
2.0
  1
0.2
 50
90.0
 41
0.7
 11
98.6464202549
 21
162.6489656367
 31
-9.1
 73
     1
  0
TEXT
  5
149
  8
LEVEL0
 10
97.9093441358
 20
168.3010494192
 30
-9.1
 40
2.0
  1
  
 50
90.0
 41
0.7
 11
98.6158642597
 21
168.3010494192
 31
-9.1
 73
     1
  0
ENDBLK
  5
132
  8
0
  0
BLOCK
  8
0
  2
_D_6
 70
     0
 10
0.0
 20
0.0
 30
0.0
  3
_D_6
  1

  0
INSERT
  5
14F
  8
LEVEL0
  2
_CLOSED
 10
62.6454143258
 20
227.8382254611
 30
-9.1
 41
2.0
 42
2.0
 50
314.832904333
  0
LINE
  5
150
  8
LEVEL0
 10
75.5153479321
 20
223.59323718
 30
0.0
 11
75.0844547284
 21
224.0241303836
 31
0.0
  0
LINE
  5
151
  8
LEVEL0
 10
75.0844547284
 20
224.0241303836
 30
0.0
 11
72.8393907252
 21
221.7790663805
 31
0.0
  0
LINE
  5
152
  8
LEVEL0
 10
72.8393907252
 20
221.7790663805
 30
0.0
 11
73.2702839289
 21
221.3481731768
 31
0.0
  0
LINE
  5
153
  8
LEVEL0
 10
79.1726611265
 20
219.9359239856
 30
0.0
 11
79.6035543301
 21
219.5050307819
 31
0.0
  0
LINE
  5
154
  8
LEVEL0
 10
79.6035543301
 20
219.5050307819
 30
0.0
 11
77.358490327
 21
217.2599667787
 31
0.0
  0
LINE
  5
155
  8
LEVEL0
 10
77.358490327
 20
217.2599667787
 30
0.0
 11
76.9275971233
 21
217.6908599824
 31
0.0
  0
LINE
  5
156
  8
LEVEL0
 10
62.6454143258
 20
227.8382254611
 30
0.0
 11
79.2306048937
 21
211.1560145815
 31
0.0
  0
LINE
  5
157
  8
LEVEL0
 10
62.6454143258
 20
227.8382254611
 30
0.0
 11
59.9337158936
 21
230.56578683
 31
0.0
  0
TEXT
  5
158
  8
LEVEL0
 10
73.7698690995
 20
221.8477583474
 30
-9.1
 40
2.0
  1
0.07
 50
315.0
 41
0.7
 11
73.2702839289
 21
221.3481731768
 31
-9.1
 73
     1
  0
TEXT
  5
159
  8
LEVEL0
 10
71.6038632823
 20
219.7819262048
 30
-9.1
 40
2.0
  1
R1.7
 50
315.0
 41
0.7
 11
71.1042781116
 21
219.2823410342
 31
-9.1
 73
     1
  0
TEXT
  5
15A
  8
LEVEL0
 10
76.1946560727
 20
215.2343457879
 30
-9.1
 40
2.0
  1
 TYP
 50
315.0
 41
0.7
 11
75.6950709021
 21
214.7347606172
 31
-9.1
 73
     1
  0
ENDBLK
  5
14E
  8
0
  0
BLOCK
  8
0
  2
SW_NOTE_0_1
 70
     0
 10
0.0
 20
0.0
 30
0.0
  3
SW_NOTE_0_1
  1

  0
TEXT
  5
15E
  8
LEVEL0
 62
     0
 10
17.1343008696
 20
5.6191896042
 30
0.0
 40
2.0
  1
MARK SCREW LOCATIONS
 41
0.665
 11
17.1343008696
 21
4.9126694803
 31
0.0
 73
     1
  0
LINE
  5
15F
  8
LEVEL0
 62
     0
 10
16.6073636066
 20
6.6674206812
 30
0.0
 11
0.0
 21
0.0
 31
0.0
  0
SOLID
  5
160
  8
LEVEL0
 62
     0
 10
0.0
 20
0.0
 30
0.0
 11
1.97064541
 21
0.4595989819
 31
0.0
 12
1.7413719399
 22
1.0306785742
 32
0.0
 13
1.7413719399
 23
1.0306785742
 33
0.0
  0
ENDBLK
  5
15D
  8
0
  0
BLOCK
  8
0
  2
SW_CENTERMARKSYMBOL_0
 70
     0
 10
0.0
 20
0.0
 30
0.0
  3
SW_CENTERMARKSYMBOL_0
  1

  0
LINE
  5
165
  8
LEVEL0
 62
     0
 10
0.0
 20
0.0
 30
0.0
 11
0.0
 21
2.5
 31
0.0
  0
LINE
  5
166
  8
LEVEL0
 62
     0
 10
0.0
 20
0.0
 30
0.0
 11
-2.5
 21
0.0
 31
0.0
  0
LINE
  5
167
  8
LEVEL0
 62
     0
 10
0.0
 20
0.0
 30
0.0
 11
0.0
 21
-2.5
 31
0.0
  0
LINE
  5
168
  8
LEVEL0
 62
     0
 10
0.0
 20
0.0
 30
0.0
 11
2.5
 21
0.0
 31
0.0
  0
LINE
  5
169
  8
LEVEL0
 62
     0
 10
0.0
 20
2.5
 30
0.0
 11
0.0
 21
3.5
 31
0.0
  0
LINE
  5
16A
  8
LEVEL0
 62
     0
 10
-2.5
 20
0.0
 30
0.0
 11
-3.5
 21
0.0
 31
0.0
  0
LINE
  5
16B
  8
LEVEL0
 62
     0
 10
0.0
 20
-2.5
 30
0.0
 11
0.0
 21
-3.5
 31
0.0
  0
LINE
  5
16C
  8
LEVEL0
 62
     0
 10
2.5
 20
0.0
 30
0.0
 11
3.5
 21
0.0
 31
0.0
  0
ENDBLK
  5
164
  8
0
  0
BLOCK
  8
0
  2
SW_CENTERMARKSYMBOL_1
 70
     0
 10
0.0
 20
0.0
 30
0.0
  3
SW_CENTERMARKSYMBOL_1
  1

  0
LINE
  5
171
  8
LEVEL0
 62
     0
 10
0.0
 20
0.0
 30
0.0
 11
0.0
 21
2.5
 31
0.0
  0
LINE
  5
172
  8
LEVEL0
 62
     0
 10
0.0
 20
0.0
 30
0.0
 11
-2.5
 21
0.0
 31
0.0
  0
LINE
  5
173
  8
LEVEL0
 62
     0
 10
0.0
 20
0.0
 30
0.0
 11
0.0
 21
-2.5
 31
0.0
  0
LINE
  5
174
  8
LEVEL0
 62
     0
 10
0.0
 20
0.0
 30
0.0
 11
2.5
 21
0.0
 31
0.0
  0
LINE
  5
175
  8
LEVEL0
 62
     0
 10
0.0
 20
2.5
 30
0.0
 11
0.0
 21
3.5
 31
0.0
  0
LINE
  5
176
  8
LEVEL0
 62
     0
 10
-2.5
 20
0.0
 30
0.0
 11
-3.5
 21
0.0
 31
0.0
  0
LINE
  5
177
  8
LEVEL0
 62
     0
 10
0.0
 20
-2.5
 30
0.0
 11
0.0
 21
-3.5
 31
0.0
  0
LINE
  5
178
  8
LEVEL0
 62
     0
 10
2.5
 20
0.0
 30
0.0
 11
3.5
 21
0.0
 31
0.0
  0
ENDBLK
  5
170
  8
0
  0
BLOCK
  8
0
  2
SW_CENTERMARKSYMBOL_2
 70
     0
 10
0.0
 20
0.0
 30
0.0
  3
SW_CENTERMARKSYMBOL_2
  1

  0
LINE
  5
17D
  8
LEVEL0
 62
     0
 10
0.0
 20
0.0
 30
0.0
 11
0.0
 21
2.5
 31
0.0
  0
LINE
  5
17E
  8
LEVEL0
 62
     0
 10
0.0
 20
0.0
 30
0.0
 11
-2.5
 21
0.0
 31
0.0
  0
LINE
  5
17F
  8
LEVEL0
 62
     0
 10
0.0
 20
0.0
 30
0.0
 11
0.0
 21
-2.5
 31
0.0
  0
LINE
  5
180
  8
LEVEL0
 62
     0
 10
0.0
 20
0.0
 30
0.0
 11
2.5
 21
0.0
 31
0.0
  0
LINE
  5
181
  8
LEVEL0
 62
     0
 10
0.0
 20
2.5
 30
0.0
 11
0.0
 21
3.5
 31
0.0
  0
LINE
  5
182
  8
LEVEL0
 62
     0
 10
-2.5
 20
0.0
 30
0.0
 11
-3.5
 21
0.0
 31
0.0
  0
LINE
  5
183
  8
LEVEL0
 62
     0
 10
0.0
 20
-2.5
 30
0.0
 11
0.0
 21
-3.5
 31
0.0
  0
LINE
  5
184
  8
LEVEL0
 62
     0
 10
2.5
 20
0.0
 30
0.0
 11
3.5
 21
0.0
 31
0.0
  0
ENDBLK
  5
17C
  8
0
  0
BLOCK
  8
0
  2
SW_CENTERMARKSYMBOL_3
 70
     0
 10
0.0
 20
0.0
 30
0.0
  3
SW_CENTERMARKSYMBOL_3
  1

  0
LINE
  5
189
  8
LEVEL0
 62
     0
 10
0.0
 20
0.0
 30
0.0
 11
0.0
 21
2.5
 31
0.0
  0
LINE
  5
18A
  8
LEVEL0
 62
     0
 10
0.0
 20
0.0
 30
0.0
 11
-2.5
 21
0.0
 31
0.0
  0
LINE
  5
18B
  8
LEVEL0
 62
     0
 10
0.0
 20
0.0
 30
0.0
 11
0.0
 21
-2.5
 31
0.0
  0
LINE
  5
18C
  8
LEVEL0
 62
     0
 10
0.0
 20
0.0
 30
0.0
 11
2.5
 21
0.0
 31
0.0
  0
LINE
  5
18D
  8
LEVEL0
 62
     0
 10
0.0
 20
2.5
 30
0.0
 11
0.0
 21
3.5
 31
0.0
  0
LINE
  5
18E
  8
LEVEL0
 62
     0
 10
-2.5
 20
0.0
 30
0.0
 11
-3.5
 21
0.0
 31
0.0
  0
LINE
  5
18F
  8
LEVEL0
 62
     0
 10
0.0
 20
-2.5
 30
0.0
 11
0.0
 21
-3.5
 31
0.0
  0
LINE
  5
190
  8
LEVEL0
 62
     0
 10
2.5
 20
0.0
 30
0.0
 11
3.5
 21
0.0
 31
0.0
  0
ENDBLK
  5
188
  8
0
  0
ENDSEC
  0
SECTION
  2
ENTITIES
  0
TEXT
  5
A7
  8
LEVEL0
 10
75.0437151518
 20
23.5230152236
 30
0.0
 40
3.7041666667
  1
PRINT THIS PAGE 1:1 SCALE
 41
0.644
 11
75.0437151518
 21
22.2144810776
 31
0.0
 73
     1
  0
INSERT
  5
AD
  8
LEVEL0
  2
SW_NOTE_0
 10
36.8709452412
 20
259.5444538916
 30
0.0
  0
ARC
  5
AE
  8
0
  6
CONTINUOUS
 62
     7
 10
63.8474958538
 20
226.6361439331
 30
0.0
 40
1.700000000000003
 50
90.0
 51
180.0
  0
LINE
  5
AF
  8
0
  6
CONTINUOUS
 62
     7
 10
62.1474958538
 20
62.5161439331
 30
0.0
 11
62.1474958538
 21
226.6361439331
 31
0.0
  0
ARC
  5
B0
  8
0
  6
CONTINUOUS
 62
     7
 10
63.8474958538
 20
62.5161439331
 30
0.0
 40
1.70000000000001
 50
180.0
 51
270.0
  0
LINE
  5
B1
  8
0
  6
CONTINUOUS
 62
     7
 10
156.9474958538
 20
60.8161439331
 30
0.0
 11
63.8474958538
 21
60.8161439331
 31
0.0
  0
ARC
  5
B2
  8
0
  6
CONTINUOUS
 62
     7
 10
156.9474958538
 20
62.5161439331
 30
0.0
 40
1.700000000000017
 50
270.0
 51
0.0
  0
LINE
  5
B3
  8
0
  6
CONTINUOUS
 62
     7
 10
158.6474958538
 20
226.6361439331
 30
0.0
 11
158.6474958538
 21
62.5161439331
 31
0.0
  0
ARC
  5
B4
  8
0
  6
CONTINUOUS
 62
     7
 10
156.9474958538
 20
226.6361439331
 30
0.0
 40
1.700000000000017
 50
0.0
 51
90.0
  0
LINE
  5
B5
  8
0
  6
CONTINUOUS
 62
     7
 10
63.8474958538
 20
228.3361439331
 30
0.0
 11
156.9474958538
 21
228.3361439331
 31
0.0
  0
CIRCLE
  5
B6
  8
0
  6
CONTINUOUS
 62
     7
 10
166.4474958538
 20
236.1361439331
 30
0.0
 40
1.0
  0
CIRCLE
  5
B7
  8
0
  6
CONTINUOUS
 62
     7
 10
166.4474958538
 20
53.0161439331
 30
0.0
 40
1.000000000000007
  0
CIRCLE
  5
B8
  8
0
  6
CONTINUOUS
 62
     7
 10
54.3474958538
 20
53.0161439331
 30
0.0
 40
1.000000000000007
  0
CIRCLE
  5
B9
  8
0
  6
CONTINUOUS
 62
     7
 10
54.3474958538
 20
236.1361439331
 30
0.0
 40
1.0
  0
DIMENSION
  5
BA
  8
LEVEL0
  2
_D
 10
35.9902556812
 20
53.0161439331
 30
0.0
 11
35.9902556812
 21
152.135343121
 31
0.0
 70
   160
  1
<>
  3
SLDDIMSTYLE0
 13
50.8474958538
 23
236.1361439331
 33
0.0
 14
50.8474958538
 24
53.0161439331
 34
0.0
 50
90.0
  0
DIMENSION
  5
D5
  8
LEVEL0
  2
_D_1
 10
166.4474958538
 20
39.5460210057
 30
0.0
 11
107.6003759972
 21
39.5460210057
 31
0.0
 70
   160
  1
<>
  3
SLDDIMSTYLE0
 13
54.3474958538
 23
49.5161439331
 33
0.0
 14
166.4474958538
 24
49.5161439331
 34
0.0
 50
0.0
  0
DIMENSION
  5
E8
  8
LEVEL0
  2
_D_2
 10
73.3900692328
 20
53.0161439331
 30
0.0
 11
73.3900692328
 21
46.1329544174
 31
0.0
 70
   160
  1
<>
  3
SLDDIMSTYLE0
 13
63.8474958538
 23
60.8161439331
 33
0.0
 14
57.8474958538
 24
53.0161439331
 34
0.0
 50
90.0
  0
DIMENSION
  5
FB
  8
LEVEL0
  2
_D_3
 10
62.1474958538
 20
70.4961258167
 30
0.0
 11
46.760556308
 21
70.4961258167
 31
0.0
 70
   160
  1
<>
  3
SLDDIMSTYLE0
 13
54.3474958538
 23
56.5161439331
 33
0.0
 14
62.1474958538
 24
62.5161439331
 34
0.0
 50
0.0
  0
DIMENSION
  5
10E
  8
LEVEL0
  2
_D_4
 10
158.6474958538
 20
137.2652693446
 30
0.0
 11
121.4129602329
 21
137.2652693446
 31
0.0
 70
   160
  1
<>
  3
SLDDIMSTYLE1
 13
62.1474958538
 23
62.5161439331
 33
0.0
 14
158.6474958538
 24
62.5161439331
 34
0.0
 50
0.0
  0
DIMENSION
  5
12E
  8
LEVEL0
  2
_D_5
 10
98.6464197892
 20
60.8161439331
 30
0.0
 11
98.6464197892
 21
159.9934108411
 31
0.0
 70
   160
  1
<>
  3
SLDDIMSTYLE2
 13
63.8474958538
 23
228.3361439331
 33
0.0
 14
63.8474958538
 24
60.8161439331
 34
0.0
 50
90.0
  0
DIMENSION
  5
14A
  8
LEVEL0
  2
_D_6
 10
63.8474958538
 20
226.6361439331
 30
0.0
 11
75.0438063052
 21
215.4398534817
 31
0.0
 70
   164
  1
<> TYP
  3
SLDDIMSTYLE3
 15
62.6454143258
 25
227.8382254611
 35
0.0
 40
0.0
  0
INSERT
  5
161
  8
LEVEL0
  2
SW_NOTE_0_1
 10
55.1450847068
 20
236.73934541
 30
0.0
  0
INSERT
  5
16D
  8
LEVEL0
  2
SW_CENTERMARKSYMBOL_0
 10
166.4474958538
 20
236.1361439331
 30
0.0
  0
INSERT
  5
179
  8
LEVEL0
  2
SW_CENTERMARKSYMBOL_1
 10
166.4474958538
 20
53.0161439331
 30
0.0
  0
INSERT
  5
185
  8
LEVEL0
  2
SW_CENTERMARKSYMBOL_2
 10
54.3474958538
 20
53.0161439331
 30
0.0
  0
INSERT
  5
191
  8
LEVEL0
  2
SW_CENTERMARKSYMBOL_3
 10
54.3474958538
 20
236.1361439331
 30
0.0
  0
ENDSEC
  0
EOF
