  0
SECTION
  2
HEADER
  9
$ACADVER
  1
AC1009
  9
$DWGCODEPAGE
  3
ansi_1252
  9
$INSBASE
 10
0.0
 20
0.0
 30
0.0
  9
$EXTMIN
 10
0.0
 20
0.0
 30
0.0
  9
$EXTMAX
 10
210.0
 20
297.0
 30
0.0
  9
$LIMMIN
 10
0.0
 20
0.0
  9
$LIMMAX
 10
210.0
 20
297.0
  9
$ORTHOMODE
 70
     0
  9
$REGENMODE
 70
     1
  9
$FILLMODE
 70
     1
  9
$QTEXTMODE
 70
     0
  9
$MIRRTEXT
 70
     1
  9
$DRAGMODE
 70
     2
  9
$LTSCALE
 40
1.0
  9
$OSMODE
 70
    37
  9
$ATTMODE
 70
     1
  9
$TEXTSIZE
 40
2.0
  9
$TRACEWID
 40
1.0
  9
$TEXTSTYLE
  7
STANDARD
  9
$CLAYER
  8
0
  9
$CELTYPE
  6
BYLAYER
  9
$CECOLOR
 62
   256
  9
$DIMSCALE
 40
1.0
  9
$DIMASZ
 40
2.0
  9
$DIMEXO
 40
1.0
  9
$DIMDLI
 40
3.75
  9
$DIMRND
 40
0.0
  9
$DIMDLE
 40
0.0
  9
$DIMEXE
 40
1.0
  9
$DIMTP
 40
0.0
  9
$DIMTM
 40
0.0
  9
$DIMTXT
 40
2.0
  9
$DIMCEN
 40
2.5
  9
$DIMTSZ
 40
0.0
  9
$DIMTOL
 70
     0
  9
$DIMLIM
 70
     0
  9
$DIMTIH
 70
     1
  9
$DIMTOH
 70
     1
  9
$DIMSE1
 70
     0
  9
$DIMSE2
 70
     0
  9
$DIMTAD
 70
     1
  9
$DIMZIN
 70
     0
  9
$DIMBLK
  1

  9
$DIMASO
 70
     1
  9
$DIMSHO
 70
     1
  9
$DIMPOST
  1

  9
$DIMAPOST
  1

  9
$DIMALT
 70
     0
  9
$DIMALTD
 70
     3
  9
$DIMALTF
 40
0.0393700787
  9
$DIMLFAC
 40
1.0
  9
$DIMTOFL
 70
     1
  9
$DIMTVP
 40
0.0
  9
$DIMTIX
 70
     0
  9
$DIMSOXD
 70
     0
  9
$DIMSAH
 70
     0
  9
$DIMBLK1
  1

  9
$DIMBLK2
  1

  9
$DIMSTYLE
  2
ISO-25
  9
$DIMCLRD
 70
     0
  9
$DIMCLRE
 70
     0
  9
$DIMCLRT
 70
     0
  9
$DIMTFAC
 40
1.0
  9
$DIMGAP
 40
1.524
  9
$LUNITS
 70
     2
  9
$LUPREC
 70
     2
  9
$SKETCHINC
 40
1.0
  9
$FILLETRAD
 40
10.0
  9
$AUNITS
 70
     0
  9
$AUPREC
 70
     2
  9
$MENU
  1
.
  9
$ELEVATION
 40
0.0
  9
$PELEVATION
 40
0.0
  9
$THICKNESS
 40
0.0
  9
$LIMCHECK
 70
     0
  9
$CHAMFERA
 40
0.0
  9
$CHAMFERB
 40
0.0
  9
$SKPOLY
 70
     0
  9
$TDCREATE
 40
2459331.736375393
  9
$TDUPDATE
 40
2459331.736376956
  9
$TDINDWG
 40
0.0000000116
  9
$TDUSRTIMER
 40
0.0000000116
  9
$USRTIMER
 70
     1
  9
$ANGBASE
 50
0.0
  9
$ANGDIR
 70
     0
  9
$PDMODE
 70
     0
  9
$PDSIZE
 40
-1.0
  9
$PLINEWID
 40
0.0
  9
$COORDS
 70
     1
  9
$SPLFRAME
 70
     0
  9
$SPLINETYPE
 70
     6
  9
$SPLINESEGS
 70
     8
  9
$ATTDIA
 70
     0
  9
$ATTREQ
 70
     1
  9
$HANDLING
 70
     1
  9
$HANDSEED
  5
190
  9
$SURFTAB1
 70
     6
  9
$SURFTAB2
 70
     6
  9
$SURFTYPE
 70
     6
  9
$SURFU
 70
     6
  9
$SURFV
 70
     6
  9
$UCSNAME
  2

  9
$UCSORG
 10
0.0
 20
0.0
 30
0.0
  9
$UCSXDIR
 10
1.0
 20
0.0
 30
0.0
  9
$UCSYDIR
 10
0.0
 20
1.0
 30
0.0
  9
$PUCSNAME
  2

  9
$PUCSORG
 10
0.0
 20
0.0
 30
0.0
  9
$PUCSXDIR
 10
1.0
 20
0.0
 30
0.0
  9
$PUCSYDIR
 10
0.0
 20
1.0
 30
0.0
  9
$USERI1
 70
     0
  9
$USERI2
 70
     0
  9
$USERI3
 70
     0
  9
$USERI4
 70
     0
  9
$USERI5
 70
     0
  9
$USERR1
 40
0.0
  9
$USERR2
 40
0.0
  9
$USERR3
 40
0.0
  9
$USERR4
 40
0.0
  9
$USERR5
 40
0.0
  9
$WORLDVIEW
 70
     1
  9
$SHADEDGE
 70
     3
  9
$SHADEDIF
 70
    70
  9
$TILEMODE
 70
     1
  9
$MAXACTVP
 70
    64
  9
$PLIMCHECK
 70
     0
  9
$PEXTMIN
 10
1.0000000000E+20
 20
1.0000000000E+20
 30
1.0000000000E+20
  9
$PEXTMAX
 10
-1.0000000000E+20
 20
-1.0000000000E+20
 30
-1.0000000000E+20
  9
$PLIMMIN
 10
0.0
 20
0.0
  9
$PLIMMAX
 10
420.0
 20
297.0
  9
$UNITMODE
 70
     0
  9
$VISRETAIN
 70
     1
  9
$PLINEGEN
 70
     0
  9
$PSLTSCALE
 70
     1
  0
ENDSEC
  0
SECTION
  2
TABLES
  0
TABLE
  2
VPORT
 70
     1
  0
VPORT
  2
*ACTIVE
 70
     0
 10
0.0
 20
0.0
 11
1.0
 21
1.0
 12
105.0
 22
148.5
 13
0.0
 23
0.0
 14
10.0
 24
10.0
 15
10.0
 25
10.0
 16
0.0
 26
0.0
 36
1.0
 17
0.0
 27
0.0
 37
0.0
 40
297.0
 41
0.7070707071
 42
50.0
 43
0.0
 44
0.0
 50
0.0
 51
0.0
 71
     0
 72
  2000
 73
     1
 74
     3
 75
     0
 76
     0
 77
     0
 78
     0
  0
ENDTAB
  0
TABLE
  2
LTYPE
 70
     6
  0
LTYPE
  2
CONTINUOUS
 70
     0
  3
Solid line
 72
    65
 73
     0
 40
0.0
  0
LTYPE
  2
HIDDEN
 70
     0
  3
Hidden __ __ __ __ __ __ __ __ __ __ __ __ __ __
 72
    65
 73
     2
 40
1.905
 49
1.27
 49
-0.635
  0
LTYPE
  2
PHANTOM
 70
     0
  3
Phantom ______  __  __  ______  __  __  ______
 72
    65
 73
     6
 40
12.7
 49
6.35
 49
-1.27
 49
1.27
 49
-1.27
 49
1.27
 49
-1.27
  0
LTYPE
  2
CENTER
 70
     0
  3
Center ____ _ ____ _ ____ _ ____ _ ____ _ ____
 72
    65
 73
     4
 40
10.16
 49
6.35
 49
-1.27
 49
1.27
 49
-1.27
  0
LTYPE
  2
CENTERX2
 70
     0
  3
Center (2x) ________  __  ________  __  _____
 72
    65
 73
     4
 40
20.32
 49
12.7
 49
-2.54
 49
2.54
 49
-2.54
  0
LTYPE
  2
DOT2
 70
     0
  3
Dot (.5x) ........................................
 72
    65
 73
     2
 40
0.635
 49
0.0
 49
-0.635
  0
ENDTAB
  0
TABLE
  2
LAYER
 70
    53
  0
LAYER
  2
0
 70
     0
 62
     7
  6
CONTINUOUS
  0
LAYER
  2
SLD-0
 70
     0
 62
     7
  6
CONTINUOUS
  0
LAYER
  2
LEVEL0
 70
     0
 62
     7
  6
CONTINUOUS
  0
LAYER
  2
1
 70
     0
 62
     7
  6
CONTINUOUS
  0
LAYER
  2
2
 70
     0
 62
     7
  6
CONTINUOUS
  0
LAYER
  2
3
 70
     0
 62
     7
  6
CONTINUOUS
  0
LAYER
  2
4
 70
     0
 62
     7
  6
CONTINUOUS
  0
LAYER
  2
5
 70
     0
 62
     7
  6
CONTINUOUS
  0
LAYER
  2
6
 70
     0
 62
     7
  6
CONTINUOUS
  0
LAYER
  2
7
 70
     0
 62
     7
  6
CONTINUOUS
  0
LAYER
  2
8
 70
     0
 62
     7
  6
CONTINUOUS
  0
LAYER
  2
9
 70
     0
 62
     7
  6
CONTINUOUS
  0
LAYER
  2
10
 70
     0
 62
     7
  6
CONTINUOUS
  0
LAYER
  2
11
 70
     0
 62
     7
  6
CONTINUOUS
  0
LAYER
  2
12
 70
     0
 62
     7
  6
CONTINUOUS
  0
LAYER
  2
13
 70
     0
 62
     7
  6
CONTINUOUS
  0
LAYER
  2
14
 70
     0
 62
     7
  6
CONTINUOUS
  0
LAYER
  2
15
 70
     0
 62
     7
  6
CONTINUOUS
  0
LAYER
  2
16
 70
     0
 62
     7
  6
CONTINUOUS
  0
LAYER
  2
17
 70
     0
 62
     7
  6
CONTINUOUS
  0
LAYER
  2
18
 70
     0
 62
     7
  6
CONTINUOUS
  0
LAYER
  2
19
 70
     0
 62
     7
  6
CONTINUOUS
  0
LAYER
  2
20
 70
     0
 62
     7
  6
CONTINUOUS
  0
LAYER
  2
21
 70
     0
 62
     7
  6
CONTINUOUS
  0
LAYER
  2
22
 70
     0
 62
     7
  6
CONTINUOUS
  0
LAYER
  2
23
 70
     0
 62
     7
  6
CONTINUOUS
  0
LAYER
  2
24
 70
     0
 62
     7
  6
CONTINUOUS
  0
LAYER
  2
25
 70
     0
 62
     7
  6
CONTINUOUS
  0
LAYER
  2
26
 70
     0
 62
     7
  6
CONTINUOUS
  0
LAYER
  2
27
 70
     0
 62
     7
  6
CONTINUOUS
  0
LAYER
  2
28
 70
     0
 62
     7
  6
CONTINUOUS
  0
LAYER
  2
29
 70
     0
 62
     7
  6
CONTINUOUS
  0
LAYER
  2
30
 70
     0
 62
     7
  6
CONTINUOUS
  0
LAYER
  2
31
 70
     0
 62
     7
  6
CONTINUOUS
  0
LAYER
  2
32
 70
     0
 62
     7
  6
CONTINUOUS
  0
LAYER
  2
33
 70
     0
 62
     7
  6
CONTINUOUS
  0
LAYER
  2
34
 70
     0
 62
     7
  6
CONTINUOUS
  0
LAYER
  2
35
 70
     0
 62
     7
  6
CONTINUOUS
  0
LAYER
  2
36
 70
     0
 62
     7
  6
CONTINUOUS
  0
LAYER
  2
37
 70
     0
 62
     7
  6
CONTINUOUS
  0
LAYER
  2
38
 70
     0
 62
     7
  6
CONTINUOUS
  0
LAYER
  2
39
 70
     0
 62
     7
  6
CONTINUOUS
  0
LAYER
  2
40
 70
     0
 62
     7
  6
CONTINUOUS
  0
LAYER
  2
41
 70
     0
 62
     7
  6
CONTINUOUS
  0
LAYER
  2
42
 70
     0
 62
     7
  6
CONTINUOUS
  0
LAYER
  2
43
 70
     0
 62
     7
  6
CONTINUOUS
  0
LAYER
  2
44
 70
     0
 62
     7
  6
CONTINUOUS
  0
LAYER
  2
45
 70
     0
 62
     7
  6
CONTINUOUS
  0
LAYER
  2
46
 70
     0
 62
     7
  6
CONTINUOUS
  0
LAYER
  2
47
 70
     0
 62
     7
  6
CONTINUOUS
  0
LAYER
  2
48
 70
     0
 62
     7
  6
CONTINUOUS
  0
LAYER
  2
49
 70
     0
 62
     7
  6
CONTINUOUS
  0
LAYER
  2
50
 70
     0
 62
     7
  6
CONTINUOUS
  0
ENDTAB
  0
TABLE
  2
STYLE
 70
     1
  0
STYLE
  2
STANDARD
 70
     0
 40
0.0
 41
1.0
 50
0.0
 71
     0
 42
2.0
  3
txt
  4

  0
ENDTAB
  0
TABLE
  2
VIEW
 70
     0
  0
ENDTAB
  0
TABLE
  2
UCS
 70
     0
  0
ENDTAB
  0
TABLE
  2
APPID
 70
     1
  0
APPID
  2
ACAD
 70
     0
  0
ENDTAB
  0
TABLE
  2
DIMSTYLE
 70
     5
  0
DIMSTYLE
  2
ISO-25
 70
     0
  3

  4

  5

  6

  7

 40
1.0
 41
2.5
 42
0.625
 43
3.75
 44
1.25
 45
0.0
 46
0.0
 47
0.0
 48
0.0
140
2.5
141
2.5
142
0.0
143
0.0393700787
144
1.0
145
0.0
146
1.0
147
0.625
 71
     0
 72
     0
 73
     0
 74
     0
 75
     0
 76
     0
 77
     1
 78
     8
170
     0
171
     3
172
     1
173
     0
174
     0
175
     0
176
     0
177
     0
178
     0
  0
DIMSTYLE
  2
SLDDIMSTYLE0
 70
     0
  3

  4

  5

  6
CLOSED
  7
CLOSED
 40
1.0
 41
2.0
 42
0.0625
 43
0.38
 44
0.0
 45
0.000000001
 46
0.0
 47
0.0
 48
0.0
140
2.0
141
0.09
142
0.0
143
0.0393700787
144
1.0
145
0.0
146
1.0
147
0.5
 71
     0
 72
     0
 73
     0
 74
     0
 75
     0
 76
     0
 77
     1
 78
    12
170
     1
171
     2
172
     0
173
     1
174
     0
175
     0
176
     0
177
     0
178
     0
  0
DIMSTYLE
  2
SLDDIMSTYLE1
 70
     0
  3

  4

  5

  6
CLOSED
  7
CLOSED
 40
1.0
 41
2.0
 42
0.0625
 43
0.38
 44
0.0
 45
0.000000001
 46
0.0
 47
0.0
 48
0.0
140
2.0
141
0.0
142
0.0
143
0.0393700787
144
1.0
145
0.0
146
1.0
147
0.5
 71
     0
 72
     0
 73
     0
 74
     0
 75
     0
 76
     0
 77
     1
 78
    12
170
     1
171
     2
172
     0
173
     1
174
     0
175
     0
176
     0
177
     0
178
     0
  0
DIMSTYLE
  2
SLDDIMSTYLE2
 70
     0
  3

  4

  5

  6
CLOSED
  7
CLOSED
 40
1.0
 41
2.0
 42
0.0625
 43
0.38
 44
0.0
 45
0.000000001
 46
0.0
 47
0.03
 48
0.02
140
2.0
141
0.09
142
0.0
143
0.0393700787
144
1.0
145
0.0
146
1.0
147
0.5
 71
     1
 72
     0
 73
     0
 74
     0
 75
     0
 76
     0
 77
     1
 78
    12
170
     1
171
     3
172
     0
173
     1
174
     0
175
     0
176
     0
177
     0
178
     0
  0
DIMSTYLE
  2
SLDDIMSTYLE3
 70
     0
  3

  4

  5

  6
CLOSED
  7
CLOSED
 40
1.0
 41
2.0
 42
0.0625
 43
0.38
 44
0.0
 45
0.000000001
 46
0.0
 47
0.3
 48
0.2
140
2.0
141
0.09
142
0.0
143
0.0393700787
144
1.0
145
0.0
146
1.0
147
0.5
 71
     1
 72
     0
 73
     0
 74
     0
 75
     0
 76
     0
 77
     1
 78
    12
170
     1
171
     3
172
     0
173
     1
174
     0
175
     0
176
     0
177
     0
178
     0
  0
ENDTAB
  0
ENDSEC
  0
SECTION
  2
BLOCKS
  0
BLOCK
  8
0
  2
$MODEL_SPACE
 70
     0
 10
0.0
 20
0.0
 30
0.0
  3
$MODEL_SPACE
  1

  0
ENDBLK
  5
21
  8
0
  0
BLOCK
 67
     1
  8
0
  2
$PAPER_SPACE
 70
     0
 10
0.0
 20
0.0
 30
0.0
  3
$PAPER_SPACE
  1

  0
ENDBLK
  5
1D
 67
     1
  8
0
  0
BLOCK
  8
0
  2
_CLOSED
 70
     0
 10
0.0
 20
0.0
 30
0.0
  3
_CLOSED
  1

  0
LINE
  5
B8
  8
0
  6
BYBLOCK
 62
     0
 10
-1.0
 20
0.166667
 30
0.0
 11
0.0
 21
0.0
 31
0.0
  0
LINE
  5
B9
  8
0
  6
BYBLOCK
 62
     0
 10
0.0
 20
0.0
 30
0.0
 11
-1.0
 21
-0.166667
 31
0.0
  0
LINE
  5
BA
  8
0
  6
BYBLOCK
 62
     0
 10
-1.0
 20
0.166667
 30
0.0
 11
-1.0
 21
-0.166667
 31
0.0
  0
LINE
  5
BB
  8
0
  6
BYBLOCK
 62
     0
 10
0.0
 20
0.0
 30
0.0
 11
-1.0
 21
0.0
 31
0.0
  0
ENDBLK
  5
B7
  8
0
  0
BLOCK
  8
0
  2
_D
 70
     0
 10
0.0
 20
0.0
 30
0.0
  3
_D
  1

  0
INSERT
  5
BF
  8
LEVEL0
  2
_CLOSED
 10
30.3501349537
 20
138.7459358587
 30
9.75
 41
2.0
 42
2.0
 50
180.0
  0
INSERT
  5
C0
  8
LEVEL0
  2
_CLOSED
 10
38.3501349537
 20
138.7459358587
 30
9.75
 41
2.0
 42
2.0
 50
0.0
  0
LINE
  5
C1
  8
LEVEL0
 10
22.8836135209
 20
144.9132969058
 30
0.0
 11
22.2742385084
 21
144.9132969058
 31
0.0
  0
LINE
  5
C2
  8
LEVEL0
 10
22.2742385084
 20
144.9132969058
 30
0.0
 11
22.2742385084
 21
141.7382969441
 31
0.0
  0
LINE
  5
C3
  8
LEVEL0
 10
22.2742385084
 20
141.7382969441
 30
0.0
 11
22.8836135209
 21
141.7382969441
 31
0.0
  0
LINE
  5
C4
  8
LEVEL0
 10
28.0558354423
 20
144.9132969058
 30
0.0
 11
28.6652104549
 21
144.9132969058
 31
0.0
  0
LINE
  5
C5
  8
LEVEL0
 10
28.6652104549
 20
144.9132969058
 30
0.0
 11
28.6652104549
 21
141.7382969441
 31
0.0
  0
LINE
  5
C6
  8
LEVEL0
 10
28.6652104549
 20
141.7382969441
 30
0.0
 11
28.0558354423
 21
141.7382969441
 31
0.0
  0
LINE
  5
C7
  8
LEVEL0
 10
30.3501349537
 20
122.2176831295
 30
0.0
 11
30.3501349537
 21
139.7459358587
 31
0.0
  0
LINE
  5
C8
  8
LEVEL0
 10
30.3501349537
 20
138.7459358587
 30
0.0
 11
20.1870857707
 21
138.7459358587
 31
0.0
  0
LINE
  5
C9
  8
LEVEL0
 10
30.3501349537
 20
138.7459358587
 30
0.0
 11
38.3501349537
 21
138.7459358587
 31
0.0
  0
TEXT
  5
CA
  8
LEVEL0
 10
20.1870857707
 20
139.8110269761
 30
9.75
 40
2.0
  1
  
 50
360.0
 41
0.7
 11
20.1870857707
 21
138.7764913882
 31
9.75
 73
     1
  0
TEXT
  5
CB
  8
LEVEL0
 10
22.8836135209
 20
142.772832532
 30
9.75
 40
2.0
  1
0.31
 50
360.0
 41
0.7
 11
22.8836135209
 21
141.7382969441
 31
9.75
 73
     1
  0
TEXT
  5
CC
  8
LEVEL0
 10
24.7308357355
 20
139.7804712137
 30
9.75
 40
2.0
  1
8
 50
360.0
 41
0.7
 11
24.7308357355
 21
138.7459356258
 31
9.75
 73
     1
  0
TEXT
  5
CD
  8
LEVEL0
 10
29.2745859331
 20
139.8110269761
 30
9.75
 40
2.0
  1
  
 50
360.0
 41
0.7
 11
29.2745859331
 21
138.7764913882
 31
9.75
 73
     1
  0
ENDBLK
  5
BE
  8
0
  0
BLOCK
  8
0
  2
_D_1
 70
     0
 10
0.0
 20
0.0
 30
0.0
  3
_D_1
  1

  0
INSERT
  5
D2
  8
LEVEL0
  2
_CLOSED
 10
60.9067290164
 20
117.7176831295
 30
9.75
 41
2.0
 42
2.0
 50
270.0
  0
INSERT
  5
D3
  8
LEVEL0
  2
_CLOSED
 10
60.9067290164
 20
125.7176831295
 30
9.75
 41
2.0
 42
2.0
 50
90.0
  0
LINE
  5
D4
  8
LEVEL0
 10
54.7393679693
 20
108.4864666111
 30
0.0
 11
54.7393679693
 21
107.8770915986
 31
0.0
  0
LINE
  5
D5
  8
LEVEL0
 10
54.7393679693
 20
107.8770915986
 30
0.0
 11
57.914367931
 21
107.8770915986
 31
0.0
  0
LINE
  5
D6
  8
LEVEL0
 10
57.914367931
 20
107.8770915986
 30
0.0
 11
57.914367931
 21
108.4864666111
 31
0.0
  0
LINE
  5
D7
  8
LEVEL0
 10
54.7393679693
 20
113.6586885325
 30
0.0
 11
54.7393679693
 21
114.2680635451
 31
0.0
  0
LINE
  5
D8
  8
LEVEL0
 10
54.7393679693
 20
114.2680635451
 30
0.0
 11
57.914367931
 21
114.2680635451
 31
0.0
  0
LINE
  5
D9
  8
LEVEL0
 10
57.914367931
 20
114.2680635451
 30
0.0
 11
57.914367931
 21
113.6586885325
 31
0.0
  0
LINE
  5
DA
  8
LEVEL0
 10
34.8501349537
 20
117.7176831295
 30
0.0
 11
61.9067290164
 21
117.7176831295
 31
0.0
  0
LINE
  5
DB
  8
LEVEL0
 10
60.9067290164
 20
117.7176831295
 30
0.0
 11
60.9067290164
 21
105.7899388609
 31
0.0
  0
LINE
  5
DC
  8
LEVEL0
 10
60.9067290164
 20
117.7176831295
 30
0.0
 11
60.9067290164
 21
125.7176831295
 31
0.0
  0
TEXT
  5
DD
  8
LEVEL0
 10
59.841637899
 20
105.7899388609
 30
9.75
 40
2.0
  1
  
 50
90.0
 41
0.7
 11
60.8761734869
 21
105.7899388609
 31
9.75
 73
     1
  0
TEXT
  5
DE
  8
LEVEL0
 10
56.8798323431
 20
108.4864666111
 30
9.75
 40
2.0
  1
0.31
 50
90.0
 41
0.7
 11
57.914367931
 21
108.4864666111
 31
9.75
 73
     1
  0
TEXT
  5
DF
  8
LEVEL0
 10
59.8721936614
 20
110.3336888257
 30
9.75
 40
2.0
  1
8
 50
90.0
 41
0.7
 11
60.9067292493
 21
110.3336888257
 31
9.75
 73
     1
  0
TEXT
  5
E0
  8
LEVEL0
 10
59.841637899
 20
114.8774390233
 30
9.75
 40
2.0
  1
  
 50
90.0
 41
0.7
 11
60.8761734869
 21
114.8774390233
 31
9.75
 73
     1
  0
ENDBLK
  5
D1
  8
0
  0
BLOCK
  8
0
  2
_D_2
 70
     0
 10
0.0
 20
0.0
 30
0.0
  3
_D_2
  1

  0
INSERT
  5
E5
  8
LEVEL0
  2
_CLOSED
 10
30.3501349537
 20
99.7496539044
 30
9.75
 41
2.0
 42
2.0
 50
180.0
  0
INSERT
  5
E6
  8
LEVEL0
  2
_CLOSED
 10
169.9001349537
 20
99.7496539044
 30
9.75
 41
2.0
 42
2.0
 50
0.0
  0
LINE
  5
E7
  8
LEVEL0
 10
89.6287525419
 20
105.9170149515
 30
0.0
 11
89.0193775293
 21
105.9170149515
 31
0.0
  0
LINE
  5
E8
  8
LEVEL0
 10
89.0193775293
 20
105.9170149515
 30
0.0
 11
89.0193775293
 21
102.7420149899
 31
0.0
  0
LINE
  5
E9
  8
LEVEL0
 10
89.0193775293
 20
102.7420149899
 30
0.0
 11
89.6287525419
 21
102.7420149899
 31
0.0
  0
LINE
  5
EA
  8
LEVEL0
 10
94.8009744633
 20
105.9170149515
 30
0.0
 11
95.4103494758
 21
105.9170149515
 31
0.0
  0
LINE
  5
EB
  8
LEVEL0
 10
95.4103494758
 20
105.9170149515
 30
0.0
 11
95.4103494758
 21
102.7420149899
 31
0.0
  0
LINE
  5
EC
  8
LEVEL0
 10
95.4103494758
 20
102.7420149899
 30
0.0
 11
94.8009744633
 21
102.7420149899
 31
0.0
  0
LINE
  5
ED
  8
LEVEL0
 10
30.3501349537
 20
113.2176831295
 30
0.0
 11
30.3501349537
 21
98.7496539044
 31
0.0
  0
LINE
  5
EE
  8
LEVEL0
 10
169.9001349537
 20
113.2176831295
 30
0.0
 11
169.9001349537
 21
98.7496539044
 31
0.0
  0
LINE
  5
EF
  8
LEVEL0
 10
30.3501349537
 20
99.7496539044
 30
0.0
 11
169.9001349537
 21
99.7496539044
 31
0.0
  0
TEXT
  5
F0
  8
LEVEL0
 10
86.9322247916
 20
100.8147450218
 30
9.75
 40
2.0
  1
  
 41
0.7
 11
86.9322247916
 21
99.7802094339
 31
9.75
 73
     1
  0
TEXT
  5
F1
  8
LEVEL0
 10
89.6287525419
 20
103.7765505778
 30
9.75
 40
2.0
  1
5.49
 41
0.7
 11
89.6287525419
 21
102.7420149899
 31
9.75
 73
     1
  0
TEXT
  5
F2
  8
LEVEL0
 10
88.8898636793
 20
100.7841892595
 30
9.75
 40
2.0
  1
139.6
 41
0.7
 11
88.8898636793
 21
99.7496536716
 31
9.75
 73
     1
  0
TEXT
  5
F3
  8
LEVEL0
 10
96.0197249541
 20
100.8147450218
 30
9.75
 40
2.0
  1
  
 41
0.7
 11
96.0197249541
 21
99.7802094339
 31
9.75
 73
     1
  0
ENDBLK
  5
E4
  8
0
  0
BLOCK
  8
0
  2
_D_3
 70
     0
 10
0.0
 20
0.0
 30
0.0
  3
_D_3
  1

  0
INSERT
  5
F8
  8
LEVEL0
  2
_CLOSED
 10
184.5178764765
 20
117.7176831295
 30
9.75
 41
2.0
 42
2.0
 50
270.0
  0
INSERT
  5
F9
  8
LEVEL0
  2
_CLOSED
 10
184.5178764765
 20
225.0676831295
 30
9.75
 41
2.0
 42
2.0
 50
90.0
  0
LINE
  5
FA
  8
LEVEL0
 10
178.3505154294
 20
164.5761924899
 30
0.0
 11
178.3505154294
 21
163.9668174773
 31
0.0
  0
LINE
  5
FB
  8
LEVEL0
 10
178.3505154294
 20
163.9668174773
 30
0.0
 11
181.525515391
 21
163.9668174773
 31
0.0
  0
LINE
  5
FC
  8
LEVEL0
 10
181.525515391
 20
163.9668174773
 30
0.0
 11
181.525515391
 21
164.5761924899
 31
0.0
  0
LINE
  5
FD
  8
LEVEL0
 10
178.3505154294
 20
169.7484144112
 30
0.0
 11
178.3505154294
 21
170.3577894238
 31
0.0
  0
LINE
  5
FE
  8
LEVEL0
 10
178.3505154294
 20
170.3577894238
 30
0.0
 11
181.525515391
 21
170.3577894238
 31
0.0
  0
LINE
  5
FF
  8
LEVEL0
 10
181.525515391
 20
170.3577894238
 30
0.0
 11
181.525515391
 21
169.7484144112
 31
0.0
  0
LINE
  5
100
  8
LEVEL0
 10
174.4001349537
 20
117.7176831295
 30
0.0
 11
185.5178764765
 21
117.7176831295
 31
0.0
  0
LINE
  5
101
  8
LEVEL0
 10
174.4001349537
 20
225.0676831295
 30
0.0
 11
185.5178764765
 21
225.0676831295
 31
0.0
  0
LINE
  5
102
  8
LEVEL0
 10
184.5178764765
 20
117.7176831295
 30
0.0
 11
184.5178764765
 21
225.0676831295
 31
0.0
  0
TEXT
  5
103
  8
LEVEL0
 10
183.4527853591
 20
161.8796647396
 30
9.75
 40
2.0
  1
  
 50
90.0
 41
0.7
 11
184.487320947
 21
161.8796647396
 31
9.75
 73
     1
  0
TEXT
  5
104
  8
LEVEL0
 10
180.4909798031
 20
164.5761924899
 30
9.75
 40
2.0
  1
4.23
 50
90.0
 41
0.7
 11
181.525515391
 21
164.5761924899
 31
9.75
 73
     1
  0
TEXT
  5
105
  8
LEVEL0
 10
183.4833411215
 20
163.8373036273
 30
9.75
 40
2.0
  1
107.4
 50
90.0
 41
0.7
 11
184.5178767093
 21
163.8373036273
 31
9.75
 73
     1
  0
TEXT
  5
106
  8
LEVEL0
 10
183.4527853591
 20
170.967164902
 30
9.75
 40
2.0
  1
  
 50
90.0
 41
0.7
 11
184.487320947
 21
170.967164902
 31
9.75
 73
     1
  0
ENDBLK
  5
F7
  8
0
  0
BLOCK
  8
0
  2
_D_4
 70
     0
 10
0.0
 20
0.0
 30
0.0
  3
_D_4
  1

  0
INSERT
  5
10C
  8
LEVEL0
  2
_CLOSED
 10
39.2001542602
 20
216.1599505641
 30
9.75
 41
2.0
 42
2.0
 50
315.5785198788
  0
LINE
  5
10D
  8
LEVEL0
 10
52.0246930454
 20
212.1709010235
 30
0.0
 11
51.5879782081
 21
212.5958928549
 31
0.0
  0
LINE
  5
10E
  8
LEVEL0
 10
51.5879782081
 20
212.5958928549
 30
0.0
 11
49.3736618666
 21
210.3204966485
 31
0.0
  0
LINE
  5
10F
  8
LEVEL0
 10
49.3736618666
 20
210.3204966485
 30
0.0
 11
49.810376704
 21
209.8955048171
 31
0.0
  0
LINE
  5
110
  8
LEVEL0
 10
55.7314188032
 20
208.5636771934
 30
0.0
 11
56.1681336406
 21
208.138685362
 31
0.0
  0
LINE
  5
111
  8
LEVEL0
 10
56.1681336406
 20
208.138685362
 30
0.0
 11
53.9538172991
 21
205.8632891555
 31
0.0
  0
LINE
  5
112
  8
LEVEL0
 10
53.9538172991
 20
205.8632891555
 30
0.0
 11
53.5171024617
 21
206.288280987
 31
0.0
  0
LINE
  5
113
  8
LEVEL0
 10
39.2001542602
 20
216.1599505641
 30
0.0
 11
55.9087915948
 21
199.785368386
 31
0.0
  0
LINE
  5
114
  8
LEVEL0
 10
39.2001542602
 20
216.1599505641
 30
0.0
 11
36.4531914662
 21
218.8519934345
 31
0.0
  0
TEXT
  5
115
  8
LEVEL0
 10
50.5318850774
 20
210.6369153307
 30
9.75
 40
2.0
  1
0.12
 50
315.7794268691
 41
0.7
 11
49.810376704
 21
209.8955048171
 31
9.75
 73
     1
  0
TEXT
  5
116
  8
LEVEL0
 10
49.1884800094
 20
207.7688331668
 30
9.75
 40
2.0
  1
R3
 50
315.7794268691
 41
0.7
 11
48.4669716359
 21
207.0274226532
 31
9.75
 73
     1
  0
TEXT
  5
117
  8
LEVEL0
 10
53.046410906
 20
204.0570994209
 30
9.75
 40
2.0
  1
 TYP
 50
315.7794268691
 41
0.7
 11
52.3249025326
 21
203.3156889074
 31
9.75
 73
     1
  0
ENDBLK
  5
10B
  8
0
  0
BLOCK
  8
0
  2
_D_5
 70
     0
 10
0.0
 20
0.0
 30
0.0
  3
_D_5
  1

  0
INSERT
  5
11D
  8
LEVEL0
  2
_CLOSED
 10
38.3501349537
 20
173.8453548359
 30
9.75
 41
2.0
 42
2.0
 50
180.0
  0
INSERT
  5
11E
  8
LEVEL0
  2
_CLOSED
 10
161.9001349537
 20
173.8453548359
 30
9.75
 41
2.0
 42
2.0
 50
0.0
  0
LINE
  5
11F
  8
LEVEL0
 10
74.890471317
 20
184.596049502
 30
0.0
 11
74.2810963044
 21
184.596049502
 31
0.0
  0
LINE
  5
120
  8
LEVEL0
 10
74.2810963044
 20
184.596049502
 30
0.0
 11
74.2810963044
 21
179.4238271149
 31
0.0
  0
LINE
  5
121
  8
LEVEL0
 10
74.2810963044
 20
179.4238271149
 30
0.0
 11
74.890471317
 21
179.4238271149
 31
0.0
  0
LINE
  5
122
  8
LEVEL0
 10
90.546026148
 20
184.596049502
 30
0.0
 11
91.1554011606
 21
184.596049502
 31
0.0
  0
LINE
  5
123
  8
LEVEL0
 10
91.1554011606
 20
184.596049502
 30
0.0
 11
91.1554011606
 21
179.4238271149
 31
0.0
  0
LINE
  5
124
  8
LEVEL0
 10
91.1554011606
 20
179.4238271149
 30
0.0
 11
90.546026148
 21
179.4238271149
 31
0.0
  0
LINE
  5
125
  8
LEVEL0
 10
38.3501349537
 20
173.8453548359
 30
0.0
 11
161.9001349537
 21
173.8453548359
 31
0.0
  0
TEXT
  5
126
  8
LEVEL0
 10
72.1939435668
 20
174.9104459533
 30
9.75
 40
2.0
  1
  
 50
0.0
 41
0.7
 11
72.1939435668
 21
173.8759103655
 31
9.75
 73
     1
  0
TEXT
  5
127
  8
LEVEL0
 10
74.890471317
 20
180.4889182324
 30
9.75
 40
2.0
  1
4.864
 50
0.0
 41
0.7
 11
74.890471317
 21
179.4543826445
 31
9.75
 73
     1
  0
TEXT
  5
128
  8
LEVEL0
 10
81.5404711963
 20
180.4889182324
 30
9.75
 40
2.0
  1
 
 50
0.0
 41
0.7
 11
81.5404711963
 21
179.4543826445
 31
9.75
 73
     1
  0
TEXT
  5
129
  8
LEVEL0
 10
82.2793601753
 20
183.0444738964
 30
9.75
 40
2.0
  1
+
 50
0.0
 41
0.7
 11
82.2793601753
 21
182.0099383085
 31
9.75
 73
     1
  0
TEXT
  5
12A
  8
LEVEL0
 10
82.6446379566
 20
180.4583627028
 30
9.75
 40
2.0
  1
-
 50
0.0
 41
0.7
 11
82.6446379566
 21
179.4238271149
 31
9.75
 73
     1
  0
TEXT
  5
12B
  8
LEVEL0
 10
83.8960262687
 20
183.0444738964
 30
9.75
 40
2.0
  1
0.001
 50
0.0
 41
0.7
 11
83.8960262687
 21
182.0099383085
 31
9.75
 73
     1
  0
TEXT
  5
12C
  8
LEVEL0
 10
83.8960262687
 20
180.4583627028
 30
9.75
 40
2.0
  1
0.001
 50
0.0
 41
0.7
 11
83.8960262687
 21
179.4238271149
 31
9.75
 73
     1
  0
TEXT
  5
12D
  8
LEVEL0
 10
74.8904714334
 20
174.8798899582
 30
9.75
 40
2.0
  1
123.55
 50
0.0
 41
0.7
 11
74.8904714334
 21
173.8453543703
 31
9.75
 73
     1
  0
TEXT
  5
12E
  8
LEVEL0
 10
83.0182492706
 20
174.8798899582
 30
9.75
 40
2.0
  1
 
 50
0.0
 41
0.7
 11
83.0182492706
 21
173.8453543703
 31
9.75
 73
     1
  0
TEXT
  5
12F
  8
LEVEL0
 10
83.7571373183
 20
177.4660011517
 30
9.75
 40
2.0
  1
+
 50
0.0
 41
0.7
 11
83.7571373183
 21
176.4314655638
 31
9.75
 73
     1
  0
TEXT
  5
130
  8
LEVEL0
 10
84.1224150996
 20
174.8798899582
 30
9.75
 40
2.0
  1
-
 50
0.0
 41
0.7
 11
84.1224150996
 21
173.8453543703
 31
9.75
 73
     1
  0
TEXT
  5
131
  8
LEVEL0
 10
85.3738043431
 20
177.4660011517
 30
9.75
 40
2.0
  1
0.03
 50
0.0
 41
0.7
 11
85.3738043431
 21
176.4314655638
 31
9.75
 73
     1
  0
TEXT
  5
132
  8
LEVEL0
 10
85.3738043431
 20
174.8798899582
 30
9.75
 40
2.0
  1
0.02
 50
0.0
 41
0.7
 11
85.3738043431
 21
173.8453543703
 31
9.75
 73
     1
  0
TEXT
  5
133
  8
LEVEL0
 10
91.7647766388
 20
174.9104459533
 30
9.75
 40
2.0
  1
  
 50
0.0
 41
0.7
 11
91.7647766388
 21
173.8759103655
 31
9.75
 73
     1
  0
ENDBLK
  5
11C
  8
0
  0
BLOCK
  8
0
  2
_D_6
 70
     0
 10
0.0
 20
0.0
 30
0.0
  3
_D_6
  1

  0
INSERT
  5
139
  8
LEVEL0
  2
_CLOSED
 10
101.4677236401
 20
217.0676831295
 30
9.75
 41
2.0
 42
2.0
 50
90.0
  0
INSERT
  5
13A
  8
LEVEL0
  2
_CLOSED
 10
101.4677236401
 20
125.7176831295
 30
9.75
 41
2.0
 42
2.0
 50
270.0
  0
LINE
  5
13B
  8
LEVEL0
 10
90.717028974
 20
149.4743616965
 30
0.0
 11
90.717028974
 21
148.8649866839
 31
0.0
  0
LINE
  5
13C
  8
LEVEL0
 10
90.717028974
 20
148.8649866839
 30
0.0
 11
95.8892513611
 21
148.8649866839
 31
0.0
  0
LINE
  5
13D
  8
LEVEL0
 10
95.8892513611
 20
148.8649866839
 30
0.0
 11
95.8892513611
 21
149.4743616965
 31
0.0
  0
LINE
  5
13E
  8
LEVEL0
 10
90.717028974
 20
165.1299165275
 30
0.0
 11
90.717028974
 21
165.7392915401
 31
0.0
  0
LINE
  5
13F
  8
LEVEL0
 10
90.717028974
 20
165.7392915401
 30
0.0
 11
95.8892513611
 21
165.7392915401
 31
0.0
  0
LINE
  5
140
  8
LEVEL0
 10
95.8892513611
 20
165.7392915401
 30
0.0
 11
95.8892513611
 21
165.1299165275
 31
0.0
  0
LINE
  5
141
  8
LEVEL0
 10
101.4677236401
 20
217.0676831295
 30
0.0
 11
101.4677236401
 21
125.7176831295
 31
0.0
  0
TEXT
  5
142
  8
LEVEL0
 10
100.4026325227
 20
146.7778339462
 30
9.75
 40
2.0
  1
  
 50
90.0
 41
0.7
 11
101.4371681106
 21
146.7778339462
 31
9.75
 73
     1
  0
TEXT
  5
143
  8
LEVEL0
 10
94.8241602437
 20
149.4743616965
 30
9.75
 40
2.0
  1
3.596
 50
90.0
 41
0.7
 11
95.8586958316
 21
149.4743616965
 31
9.75
 73
     1
  0
TEXT
  5
144
  8
LEVEL0
 10
94.8241602437
 20
156.1243615758
 30
9.75
 40
2.0
  1
 
 50
90.0
 41
0.7
 11
95.8586958316
 21
156.1243615758
 31
9.75
 73
     1
  0
TEXT
  5
145
  8
LEVEL0
 10
92.2686045797
 20
156.8632505547
 30
9.75
 40
2.0
  1
+
 50
90.0
 41
0.7
 11
93.3031401676
 21
156.8632505547
 31
9.75
 73
     1
  0
TEXT
  5
146
  8
LEVEL0
 10
94.8547157732
 20
157.2285283361
 30
9.75
 40
2.0
  1
-
 50
90.0
 41
0.7
 11
95.8892513611
 21
157.2285283361
 31
9.75
 73
     1
  0
TEXT
  5
147
  8
LEVEL0
 10
92.2686045797
 20
158.4799166482
 30
9.75
 40
2.0
  1
0.012
 50
90.0
 41
0.7
 11
93.3031401676
 21
158.4799166482
 31
9.75
 73
     1
  0
TEXT
  5
148
  8
LEVEL0
 10
94.8547157732
 20
158.4799166482
 30
9.75
 40
2.0
  1
0.008
 50
90.0
 41
0.7
 11
95.8892513611
 21
158.4799166482
 31
9.75
 73
     1
  0
TEXT
  5
149
  8
LEVEL0
 10
100.4331885179
 20
150.2132503262
 30
9.75
 40
2.0
  1
91.35
 50
90.0
 41
0.7
 11
101.4677241058
 21
150.2132503262
 31
9.75
 73
     1
  0
TEXT
  5
14A
  8
LEVEL0
 10
100.4331885179
 20
156.8632502055
 30
9.75
 40
2.0
  1
 
 50
90.0
 41
0.7
 11
101.4677241058
 21
156.8632502055
 31
9.75
 73
     1
  0
TEXT
  5
14B
  8
LEVEL0
 10
97.8470773243
 20
157.6021391844
 30
9.75
 40
2.0
  1
+
 50
90.0
 41
0.7
 11
98.8816129122
 21
157.6021391844
 31
9.75
 73
     1
  0
TEXT
  5
14C
  8
LEVEL0
 10
100.4331885179
 20
157.9674169658
 30
9.75
 40
2.0
  1
-
 50
90.0
 41
0.7
 11
101.4677241058
 21
157.9674169658
 31
9.75
 73
     1
  0
TEXT
  5
14D
  8
LEVEL0
 10
97.8470773243
 20
159.2188052779
 30
9.75
 40
2.0
  1
0.30
 50
90.0
 41
0.7
 11
98.8816129122
 21
159.2188052779
 31
9.75
 73
     1
  0
TEXT
  5
14E
  8
LEVEL0
 10
100.4331885179
 20
159.2188052779
 30
9.75
 40
2.0
  1
0.20
 50
90.0
 41
0.7
 11
101.4677241058
 21
159.2188052779
 31
9.75
 73
     1
  0
TEXT
  5
14F
  8
LEVEL0
 10
100.4026325227
 20
166.3486670183
 30
9.75
 40
2.0
  1
  
 50
90.0
 41
0.7
 11
101.4371681106
 21
166.3486670183
 31
9.75
 73
     1
  0
ENDBLK
  5
138
  8
0
  0
BLOCK
  8
0
  2
SW_NOTE_0
 70
     0
 10
0.0
 20
0.0
 30
0.0
  3
SW_NOTE_0
  1

  0
TEXT
  5
153
  8
LEVEL0
 62
     0
 10
19.1274184115
 20
10.4121621689
 30
0.0
 40
1.8520833333
  1
MARK SCREW
 41
0.7
 11
19.1274184115
 21
9.4541391089
 31
0.0
 73
     1
  0
TEXT
  5
154
  8
LEVEL0
 62
     0
 10
19.1274184115
 20
6.8813634562
 30
0.0
 40
1.8520833333
  1
LOCATIONS
 41
0.7
 11
19.1274184115
 21
5.9233403962
 31
0.0
 73
     1
  0
LINE
  5
155
  8
LEVEL0
 62
     0
 10
18.5265715529
 20
11.4234686801
 30
0.0
 11
0.0
 21
0.0
 31
0.0
  0
SOLID
  5
156
  8
LEVEL0
 62
     0
 10
0.0
 20
0.0
 30
0.0
 11
1.8638844814
 21
0.7877875324
 31
0.0
 12
1.5409016633
 22
1.3116007854
 32
0.0
 13
1.5409016633
 23
1.3116007854
 33
0.0
  0
ENDBLK
  5
152
  8
0
  0
BLOCK
  8
0
  2
SW_NOTE_0_1
 70
     0
 10
0.0
 20
0.0
 30
0.0
  3
SW_NOTE_0_1
  1

  0
TEXT
  5
15B
  8
LEVEL0
 62
     0
 10
0.0
 20
1.9160461201
 30
0.0
 40
3.7041666667
  1
CUTOUT ROUTING TEMPLATE
 41
0.6695652174
 11
0.0
 21
0.0
 31
0.0
 73
     1
  0
TEXT
  5
15C
  8
LEVEL0
 62
     0
 10
0.0
 20
-4.022842873
 30
0.0
 40
3.7041666667
  1
058-1-881
 41
0.7
 11
0.0
 21
-5.9388889931
 31
0.0
 73
     1
  0
TEXT
  5
15D
  8
LEVEL0
 62
     0
 10
0.0
 20
-15.9006208593
 30
0.0
 40
3.7041666667
  1
SCALE 1:1
 41
0.7
 11
0.0
 21
-17.8166669793
 31
0.0
 73
     1
  0
ENDBLK
  5
15A
  8
0
  0
BLOCK
  8
0
  2
SW_CENTERMARKSYMBOL_0
 70
     0
 10
0.0
 20
0.0
 30
0.0
  3
SW_CENTERMARKSYMBOL_0
  1

  0
LINE
  5
163
  8
LEVEL0
 62
     0
 10
0.0
 20
0.0
 30
0.0
 11
0.0
 21
2.5
 31
0.0
  0
LINE
  5
164
  8
LEVEL0
 62
     0
 10
0.0
 20
0.0
 30
0.0
 11
-2.5
 21
0.0
 31
0.0
  0
LINE
  5
165
  8
LEVEL0
 62
     0
 10
0.0
 20
0.0
 30
0.0
 11
0.0
 21
-2.5
 31
0.0
  0
LINE
  5
166
  8
LEVEL0
 62
     0
 10
0.0
 20
0.0
 30
0.0
 11
2.5
 21
0.0
 31
0.0
  0
LINE
  5
167
  8
LEVEL0
 62
     0
 10
0.0
 20
2.5
 30
0.0
 11
0.0
 21
3.5
 31
0.0
  0
LINE
  5
168
  8
LEVEL0
 62
     0
 10
-2.5
 20
0.0
 30
0.0
 11
-3.5
 21
0.0
 31
0.0
  0
LINE
  5
169
  8
LEVEL0
 62
     0
 10
0.0
 20
-2.5
 30
0.0
 11
0.0
 21
-3.5
 31
0.0
  0
LINE
  5
16A
  8
LEVEL0
 62
     0
 10
2.5
 20
0.0
 30
0.0
 11
3.5
 21
0.0
 31
0.0
  0
ENDBLK
  5
162
  8
0
  0
BLOCK
  8
0
  2
SW_CENTERMARKSYMBOL_1
 70
     0
 10
0.0
 20
0.0
 30
0.0
  3
SW_CENTERMARKSYMBOL_1
  1

  0
LINE
  5
16F
  8
LEVEL0
 62
     0
 10
0.0
 20
0.0
 30
0.0
 11
0.0
 21
2.5
 31
0.0
  0
LINE
  5
170
  8
LEVEL0
 62
     0
 10
0.0
 20
0.0
 30
0.0
 11
-2.5
 21
0.0
 31
0.0
  0
LINE
  5
171
  8
LEVEL0
 62
     0
 10
0.0
 20
0.0
 30
0.0
 11
0.0
 21
-2.5
 31
0.0
  0
LINE
  5
172
  8
LEVEL0
 62
     0
 10
0.0
 20
0.0
 30
0.0
 11
2.5
 21
0.0
 31
0.0
  0
LINE
  5
173
  8
LEVEL0
 62
     0
 10
0.0
 20
2.5
 30
0.0
 11
0.0
 21
3.5
 31
0.0
  0
LINE
  5
174
  8
LEVEL0
 62
     0
 10
-2.5
 20
0.0
 30
0.0
 11
-3.5
 21
0.0
 31
0.0
  0
LINE
  5
175
  8
LEVEL0
 62
     0
 10
0.0
 20
-2.5
 30
0.0
 11
0.0
 21
-3.5
 31
0.0
  0
LINE
  5
176
  8
LEVEL0
 62
     0
 10
2.5
 20
0.0
 30
0.0
 11
3.5
 21
0.0
 31
0.0
  0
ENDBLK
  5
16E
  8
0
  0
BLOCK
  8
0
  2
SW_CENTERMARKSYMBOL_2
 70
     0
 10
0.0
 20
0.0
 30
0.0
  3
SW_CENTERMARKSYMBOL_2
  1

  0
LINE
  5
17B
  8
LEVEL0
 62
     0
 10
0.0
 20
0.0
 30
0.0
 11
0.0
 21
2.5
 31
0.0
  0
LINE
  5
17C
  8
LEVEL0
 62
     0
 10
0.0
 20
0.0
 30
0.0
 11
-2.5
 21
0.0
 31
0.0
  0
LINE
  5
17D
  8
LEVEL0
 62
     0
 10
0.0
 20
0.0
 30
0.0
 11
0.0
 21
-2.5
 31
0.0
  0
LINE
  5
17E
  8
LEVEL0
 62
     0
 10
0.0
 20
0.0
 30
0.0
 11
2.5
 21
0.0
 31
0.0
  0
LINE
  5
17F
  8
LEVEL0
 62
     0
 10
0.0
 20
2.5
 30
0.0
 11
0.0
 21
3.5
 31
0.0
  0
LINE
  5
180
  8
LEVEL0
 62
     0
 10
-2.5
 20
0.0
 30
0.0
 11
-3.5
 21
0.0
 31
0.0
  0
LINE
  5
181
  8
LEVEL0
 62
     0
 10
0.0
 20
-2.5
 30
0.0
 11
0.0
 21
-3.5
 31
0.0
  0
LINE
  5
182
  8
LEVEL0
 62
     0
 10
2.5
 20
0.0
 30
0.0
 11
3.5
 21
0.0
 31
0.0
  0
ENDBLK
  5
17A
  8
0
  0
BLOCK
  8
0
  2
SW_CENTERMARKSYMBOL_3
 70
     0
 10
0.0
 20
0.0
 30
0.0
  3
SW_CENTERMARKSYMBOL_3
  1

  0
LINE
  5
187
  8
LEVEL0
 62
     0
 10
0.0
 20
0.0
 30
0.0
 11
0.0
 21
2.5
 31
0.0
  0
LINE
  5
188
  8
LEVEL0
 62
     0
 10
0.0
 20
0.0
 30
0.0
 11
-2.5
 21
0.0
 31
0.0
  0
LINE
  5
189
  8
LEVEL0
 62
     0
 10
0.0
 20
0.0
 30
0.0
 11
0.0
 21
-2.5
 31
0.0
  0
LINE
  5
18A
  8
LEVEL0
 62
     0
 10
0.0
 20
0.0
 30
0.0
 11
2.5
 21
0.0
 31
0.0
  0
LINE
  5
18B
  8
LEVEL0
 62
     0
 10
0.0
 20
2.5
 30
0.0
 11
0.0
 21
3.5
 31
0.0
  0
LINE
  5
18C
  8
LEVEL0
 62
     0
 10
-2.5
 20
0.0
 30
0.0
 11
-3.5
 21
0.0
 31
0.0
  0
LINE
  5
18D
  8
LEVEL0
 62
     0
 10
0.0
 20
-2.5
 30
0.0
 11
0.0
 21
-3.5
 31
0.0
  0
LINE
  5
18E
  8
LEVEL0
 62
     0
 10
2.5
 20
0.0
 30
0.0
 11
3.5
 21
0.0
 31
0.0
  0
ENDBLK
  5
186
  8
0
  0
ENDSEC
  0
SECTION
  2
ENTITIES
  0
LINE
  5
A7
  8
0
  6
CONTINUOUS
 62
     7
 10
158.9001349537
 20
125.7176831295
 30
0.0
 11
41.3501349537
 21
125.7176831295
 31
0.0
  0
LINE
  5
A8
  8
0
  6
CONTINUOUS
 62
     7
 10
161.9001349537
 20
214.0676831295
 30
0.0
 11
161.9001349537
 21
128.7176831295
 31
0.0
  0
ARC
  5
A9
  8
0
  6
CONTINUOUS
 62
     7
 10
158.9001349537
 20
214.0676831295
 30
0.0
 40
3.0
 50
0.0
 51
90.0
  0
LINE
  5
AA
  8
0
  6
CONTINUOUS
 62
     7
 10
41.3501349537
 20
217.0676831295
 30
0.0
 11
158.9001349537
 21
217.0676831295
 31
0.0
  0
ARC
  5
AB
  8
0
  6
CONTINUOUS
 62
     7
 10
41.3501349537
 20
214.0676831295
 30
0.0
 40
3.0
 50
90.0
 51
180.0
  0
LINE
  5
AC
  8
0
  6
CONTINUOUS
 62
     7
 10
38.3501349537
 20
128.7176831295
 30
0.0
 11
38.3501349537
 21
214.0676831295
 31
0.0
  0
ARC
  5
AD
  8
0
  6
CONTINUOUS
 62
     7
 10
41.3501349537
 20
128.7176831295
 30
0.0
 40
3.000000000000014
 50
180.0
 51
270.0
  0
CIRCLE
  5
AE
  8
0
  6
CONTINUOUS
 62
     7
 10
30.3501349537
 20
225.0676831295
 30
0.0
 40
1.000000000000004
  0
CIRCLE
  5
AF
  8
0
  6
CONTINUOUS
 62
     7
 10
169.9001349537
 20
117.7176831295
 30
0.0
 40
1.0
  0
CIRCLE
  5
B0
  8
0
  6
CONTINUOUS
 62
     7
 10
30.3501349537
 20
117.7176831295
 30
0.0
 40
1.000000000000004
  0
CIRCLE
  5
B1
  8
0
  6
CONTINUOUS
 62
     7
 10
169.9001349537
 20
225.0676831295
 30
0.0
 40
1.0
  0
ARC
  5
B2
  8
0
  6
CONTINUOUS
 62
     7
 10
158.9001349537
 20
128.7176831295
 30
0.0
 40
3.000000000000014
 50
270.0
 51
0.0
  0
DIMENSION
  5
B3
  8
LEVEL0
  2
_D
 10
38.3501349537
 20
138.7459358587
 30
0.0
 11
25.4697248309
 21
138.7459358587
 31
0.0
 70
   160
  1
<>
  3
SLDDIMSTYLE0
 13
30.3501349537
 23
121.2176831295
 33
0.0
 14
38.3501349537
 24
128.7176831295
 34
0.0
  0
DIMENSION
  5
CE
  8
LEVEL0
  2
_D_1
 10
60.9067290164
 20
125.7176831295
 30
0.0
 11
60.9067290164
 21
111.0725779211
 31
0.0
 70
   160
  1
<>
  3
SLDDIMSTYLE0
 13
33.8501349537
 23
117.7176831295
 33
0.0
 14
41.3501349537
 24
125.7176831295
 34
0.0
 50
90.0
  0
DIMENSION
  5
E1
  8
LEVEL0
  2
_D_2
 10
169.9001349537
 20
99.7496539044
 30
0.0
 11
92.2148638518
 21
99.7496539044
 31
0.0
 70
   160
  1
<>
  3
SLDDIMSTYLE0
 13
30.3501349537
 23
114.2176831295
 33
0.0
 14
169.9001349537
 24
114.2176831295
 34
0.0
  0
DIMENSION
  5
F4
  8
LEVEL0
  2
_D_3
 10
184.5178764765
 20
225.0676831295
 30
0.0
 11
184.5178764765
 21
167.1623037998
 31
0.0
 70
   160
  1
<>
  3
SLDDIMSTYLE0
 13
173.4001349537
 23
117.7176831295
 33
0.0
 14
173.4001349537
 24
225.0676831295
 34
0.0
 50
90.0
  0
DIMENSION
  5
107
  8
LEVEL0
  2
_D_4
 10
41.3501349537
 20
214.0676831295
 30
0.0
 11
51.6948043284
 21
204.000721832
 31
0.0
 70
   164
  1
<> TYP
  3
SLDDIMSTYLE1
 15
39.2001542602
 25
216.1599505641
 35
0.0
 40
0.0
  0
DIMENSION
  5
118
  8
LEVEL0
  2
_D_5
 10
161.9001349537
 20
173.8453548359
 30
0.0
 11
82.7182490818
 21
173.8453548359
 31
0.0
 70
   160
  1
<>
  3
SLDDIMSTYLE2
 13
38.3501349537
 23
214.0676831295
 33
0.0
 14
161.9001349537
 24
214.0676831295
 34
0.0
  0
DIMENSION
  5
134
  8
LEVEL0
  2
_D_6
 10
101.4677236401
 20
125.7176831295
 30
0.0
 11
101.4677236401
 21
157.3021394612
 31
0.0
 70
   160
  1
<>
  3
SLDDIMSTYLE3
 13
158.9001349537
 23
217.0676831295
 33
0.0
 14
158.9001349537
 24
125.7176831295
 34
0.0
 50
90.0
  0
INSERT
  5
157
  8
LEVEL0
  2
SW_NOTE_0
 10
31.1466386087
 20
225.672316843
 30
0.0
  0
INSERT
  5
15E
  8
LEVEL0
  2
SW_NOTE_0_1
 10
32.4133371824
 20
278.6392403371
 30
0.0
  0
TEXT
  5
15F
  8
LEVEL0
 10
69.1439376443
 20
80.0617069444
 30
0.0
 40
3.7041666667
  1
PRINT THIS PAGE 1:1 SCALE
 41
0.644
 11
69.1439376443
 21
78.1456608244
 31
0.0
 73
     1
  0
INSERT
  5
16B
  8
LEVEL0
  2
SW_CENTERMARKSYMBOL_0
 10
30.3501349537
 20
225.0676831295
 30
0.0
  0
INSERT
  5
177
  8
LEVEL0
  2
SW_CENTERMARKSYMBOL_1
 10
169.9001349537
 20
225.0676831295
 30
0.0
  0
INSERT
  5
183
  8
LEVEL0
  2
SW_CENTERMARKSYMBOL_2
 10
169.9001349537
 20
117.7176831295
 30
0.0
  0
INSERT
  5
18F
  8
LEVEL0
  2
SW_CENTERMARKSYMBOL_3
 10
30.3501349537
 20
117.7176831295
 30
0.0
  0
ENDSEC
  0
EOF
