  0
SECTION
  2
HEADER
  9
$ACADVER
  1
AC1009
  9
$DWGCODEPAGE
  3
ansi_1252
  9
$INSBASE
 10
0.0
 20
0.0
 30
0.0
  9
$EXTMIN
 10
0.0
 20
0.0
 30
0.0
  9
$EXTMAX
 10
210.0
 20
297.0
 30
0.0
  9
$LIMMIN
 10
0.0
 20
0.0
  9
$LIMMAX
 10
210.0
 20
297.0
  9
$ORTHOMODE
 70
     0
  9
$REGENMODE
 70
     1
  9
$FILLMODE
 70
     1
  9
$QTEXTMODE
 70
     0
  9
$MIRRTEXT
 70
     1
  9
$DRAGMODE
 70
     2
  9
$LTSCALE
 40
1.0
  9
$OSMODE
 70
    37
  9
$ATTMODE
 70
     1
  9
$TEXTSIZE
 40
2.0
  9
$TRACEWID
 40
1.0
  9
$TEXTSTYLE
  7
STANDARD
  9
$CLAYER
  8
0
  9
$CELTYPE
  6
BYLAYER
  9
$CECOLOR
 62
   256
  9
$DIMSCALE
 40
1.0
  9
$DIMASZ
 40
2.0
  9
$DIMEXO
 40
1.0
  9
$DIMDLI
 40
3.75
  9
$DIMRND
 40
0.0
  9
$DIMDLE
 40
0.0
  9
$DIMEXE
 40
1.0
  9
$DIMTP
 40
0.0
  9
$DIMTM
 40
0.0
  9
$DIMTXT
 40
2.0
  9
$DIMCEN
 40
2.5
  9
$DIMTSZ
 40
0.0
  9
$DIMTOL
 70
     0
  9
$DIMLIM
 70
     0
  9
$DIMTIH
 70
     1
  9
$DIMTOH
 70
     1
  9
$DIMSE1
 70
     0
  9
$DIMSE2
 70
     0
  9
$DIMTAD
 70
     1
  9
$DIMZIN
 70
     0
  9
$DIMBLK
  1

  9
$DIMASO
 70
     1
  9
$DIMSHO
 70
     1
  9
$DIMPOST
  1

  9
$DIMAPOST
  1

  9
$DIMALT
 70
     0
  9
$DIMALTD
 70
     3
  9
$DIMALTF
 40
0.0393700787
  9
$DIMLFAC
 40
1.0
  9
$DIMTOFL
 70
     1
  9
$DIMTVP
 40
0.0
  9
$DIMTIX
 70
     0
  9
$DIMSOXD
 70
     0
  9
$DIMSAH
 70
     0
  9
$DIMBLK1
  1

  9
$DIMBLK2
  1

  9
$DIMSTYLE
  2
ISO-25
  9
$DIMCLRD
 70
     0
  9
$DIMCLRE
 70
     0
  9
$DIMCLRT
 70
     0
  9
$DIMTFAC
 40
1.0
  9
$DIMGAP
 40
1.524
  9
$LUNITS
 70
     2
  9
$LUPREC
 70
     2
  9
$SKETCHINC
 40
1.0
  9
$FILLETRAD
 40
10.0
  9
$AUNITS
 70
     0
  9
$AUPREC
 70
     2
  9
$MENU
  1
.
  9
$ELEVATION
 40
0.0
  9
$PELEVATION
 40
0.0
  9
$THICKNESS
 40
0.0
  9
$LIMCHECK
 70
     0
  9
$CHAMFERA
 40
0.0
  9
$CHAMFERB
 40
0.0
  9
$SKPOLY
 70
     0
  9
$TDCREATE
 40
2459331.731563079
  9
$TDUPDATE
 40
2459331.731564595
  9
$TDINDWG
 40
0.0000000116
  9
$TDUSRTIMER
 40
0.0000000116
  9
$USRTIMER
 70
     1
  9
$ANGBASE
 50
0.0
  9
$ANGDIR
 70
     0
  9
$PDMODE
 70
     0
  9
$PDSIZE
 40
-1.0
  9
$PLINEWID
 40
0.0
  9
$COORDS
 70
     1
  9
$SPLFRAME
 70
     0
  9
$SPLINETYPE
 70
     6
  9
$SPLINESEGS
 70
     8
  9
$ATTDIA
 70
     0
  9
$ATTREQ
 70
     1
  9
$HANDLING
 70
     1
  9
$HANDSEED
  5
192
  9
$SURFTAB1
 70
     6
  9
$SURFTAB2
 70
     6
  9
$SURFTYPE
 70
     6
  9
$SURFU
 70
     6
  9
$SURFV
 70
     6
  9
$UCSNAME
  2

  9
$UCSORG
 10
0.0
 20
0.0
 30
0.0
  9
$UCSXDIR
 10
1.0
 20
0.0
 30
0.0
  9
$UCSYDIR
 10
0.0
 20
1.0
 30
0.0
  9
$PUCSNAME
  2

  9
$PUCSORG
 10
0.0
 20
0.0
 30
0.0
  9
$PUCSXDIR
 10
1.0
 20
0.0
 30
0.0
  9
$PUCSYDIR
 10
0.0
 20
1.0
 30
0.0
  9
$USERI1
 70
     0
  9
$USERI2
 70
     0
  9
$USERI3
 70
     0
  9
$USERI4
 70
     0
  9
$USERI5
 70
     0
  9
$USERR1
 40
0.0
  9
$USERR2
 40
0.0
  9
$USERR3
 40
0.0
  9
$USERR4
 40
0.0
  9
$USERR5
 40
0.0
  9
$WORLDVIEW
 70
     1
  9
$SHADEDGE
 70
     3
  9
$SHADEDIF
 70
    70
  9
$TILEMODE
 70
     1
  9
$MAXACTVP
 70
    64
  9
$PLIMCHECK
 70
     0
  9
$PEXTMIN
 10
1.0000000000E+20
 20
1.0000000000E+20
 30
1.0000000000E+20
  9
$PEXTMAX
 10
-1.0000000000E+20
 20
-1.0000000000E+20
 30
-1.0000000000E+20
  9
$PLIMMIN
 10
0.0
 20
0.0
  9
$PLIMMAX
 10
420.0
 20
297.0
  9
$UNITMODE
 70
     0
  9
$VISRETAIN
 70
     1
  9
$PLINEGEN
 70
     0
  9
$PSLTSCALE
 70
     1
  0
ENDSEC
  0
SECTION
  2
TABLES
  0
TABLE
  2
VPORT
 70
     1
  0
VPORT
  2
*ACTIVE
 70
     0
 10
0.0
 20
0.0
 11
1.0
 21
1.0
 12
105.0
 22
148.5
 13
0.0
 23
0.0
 14
10.0
 24
10.0
 15
10.0
 25
10.0
 16
0.0
 26
0.0
 36
1.0
 17
0.0
 27
0.0
 37
0.0
 40
297.0
 41
0.7070707071
 42
50.0
 43
0.0
 44
0.0
 50
0.0
 51
0.0
 71
     0
 72
  2000
 73
     1
 74
     3
 75
     0
 76
     0
 77
     0
 78
     0
  0
ENDTAB
  0
TABLE
  2
LTYPE
 70
     6
  0
LTYPE
  2
CONTINUOUS
 70
     0
  3
Solid line
 72
    65
 73
     0
 40
0.0
  0
LTYPE
  2
HIDDEN
 70
     0
  3
Hidden __ __ __ __ __ __ __ __ __ __ __ __ __ __
 72
    65
 73
     2
 40
1.905
 49
1.27
 49
-0.635
  0
LTYPE
  2
PHANTOM
 70
     0
  3
Phantom ______  __  __  ______  __  __  ______
 72
    65
 73
     6
 40
12.7
 49
6.35
 49
-1.27
 49
1.27
 49
-1.27
 49
1.27
 49
-1.27
  0
LTYPE
  2
CENTER
 70
     0
  3
Center ____ _ ____ _ ____ _ ____ _ ____ _ ____
 72
    65
 73
     4
 40
10.16
 49
6.35
 49
-1.27
 49
1.27
 49
-1.27
  0
LTYPE
  2
CENTERX2
 70
     0
  3
Center (2x) ________  __  ________  __  _____
 72
    65
 73
     4
 40
20.32
 49
12.7
 49
-2.54
 49
2.54
 49
-2.54
  0
LTYPE
  2
DOT2
 70
     0
  3
Dot (.5x) ........................................
 72
    65
 73
     2
 40
0.635
 49
0.0
 49
-0.635
  0
ENDTAB
  0
TABLE
  2
LAYER
 70
    53
  0
LAYER
  2
0
 70
     0
 62
     7
  6
CONTINUOUS
  0
LAYER
  2
SLD-0
 70
     0
 62
     7
  6
CONTINUOUS
  0
LAYER
  2
LEVEL0
 70
     0
 62
     7
  6
CONTINUOUS
  0
LAYER
  2
1
 70
     0
 62
     7
  6
CONTINUOUS
  0
LAYER
  2
2
 70
     0
 62
     7
  6
CONTINUOUS
  0
LAYER
  2
3
 70
     0
 62
     7
  6
CONTINUOUS
  0
LAYER
  2
4
 70
     0
 62
     7
  6
CONTINUOUS
  0
LAYER
  2
5
 70
     0
 62
     7
  6
CONTINUOUS
  0
LAYER
  2
6
 70
     0
 62
     7
  6
CONTINUOUS
  0
LAYER
  2
7
 70
     0
 62
     7
  6
CONTINUOUS
  0
LAYER
  2
8
 70
     0
 62
     7
  6
CONTINUOUS
  0
LAYER
  2
9
 70
     0
 62
     7
  6
CONTINUOUS
  0
LAYER
  2
10
 70
     0
 62
     7
  6
CONTINUOUS
  0
LAYER
  2
11
 70
     0
 62
     7
  6
CONTINUOUS
  0
LAYER
  2
12
 70
     0
 62
     7
  6
CONTINUOUS
  0
LAYER
  2
13
 70
     0
 62
     7
  6
CONTINUOUS
  0
LAYER
  2
14
 70
     0
 62
     7
  6
CONTINUOUS
  0
LAYER
  2
15
 70
     0
 62
     7
  6
CONTINUOUS
  0
LAYER
  2
16
 70
     0
 62
     7
  6
CONTINUOUS
  0
LAYER
  2
17
 70
     0
 62
     7
  6
CONTINUOUS
  0
LAYER
  2
18
 70
     0
 62
     7
  6
CONTINUOUS
  0
LAYER
  2
19
 70
     0
 62
     7
  6
CONTINUOUS
  0
LAYER
  2
20
 70
     0
 62
     7
  6
CONTINUOUS
  0
LAYER
  2
21
 70
     0
 62
     7
  6
CONTINUOUS
  0
LAYER
  2
22
 70
     0
 62
     7
  6
CONTINUOUS
  0
LAYER
  2
23
 70
     0
 62
     7
  6
CONTINUOUS
  0
LAYER
  2
24
 70
     0
 62
     7
  6
CONTINUOUS
  0
LAYER
  2
25
 70
     0
 62
     7
  6
CONTINUOUS
  0
LAYER
  2
26
 70
     0
 62
     7
  6
CONTINUOUS
  0
LAYER
  2
27
 70
     0
 62
     7
  6
CONTINUOUS
  0
LAYER
  2
28
 70
     0
 62
     7
  6
CONTINUOUS
  0
LAYER
  2
29
 70
     0
 62
     7
  6
CONTINUOUS
  0
LAYER
  2
30
 70
     0
 62
     7
  6
CONTINUOUS
  0
LAYER
  2
31
 70
     0
 62
     7
  6
CONTINUOUS
  0
LAYER
  2
32
 70
     0
 62
     7
  6
CONTINUOUS
  0
LAYER
  2
33
 70
     0
 62
     7
  6
CONTINUOUS
  0
LAYER
  2
34
 70
     0
 62
     7
  6
CONTINUOUS
  0
LAYER
  2
35
 70
     0
 62
     7
  6
CONTINUOUS
  0
LAYER
  2
36
 70
     0
 62
     7
  6
CONTINUOUS
  0
LAYER
  2
37
 70
     0
 62
     7
  6
CONTINUOUS
  0
LAYER
  2
38
 70
     0
 62
     7
  6
CONTINUOUS
  0
LAYER
  2
39
 70
     0
 62
     7
  6
CONTINUOUS
  0
LAYER
  2
40
 70
     0
 62
     7
  6
CONTINUOUS
  0
LAYER
  2
41
 70
     0
 62
     7
  6
CONTINUOUS
  0
LAYER
  2
42
 70
     0
 62
     7
  6
CONTINUOUS
  0
LAYER
  2
43
 70
     0
 62
     7
  6
CONTINUOUS
  0
LAYER
  2
44
 70
     0
 62
     7
  6
CONTINUOUS
  0
LAYER
  2
45
 70
     0
 62
     7
  6
CONTINUOUS
  0
LAYER
  2
46
 70
     0
 62
     7
  6
CONTINUOUS
  0
LAYER
  2
47
 70
     0
 62
     7
  6
CONTINUOUS
  0
LAYER
  2
48
 70
     0
 62
     7
  6
CONTINUOUS
  0
LAYER
  2
49
 70
     0
 62
     7
  6
CONTINUOUS
  0
LAYER
  2
50
 70
     0
 62
     7
  6
CONTINUOUS
  0
ENDTAB
  0
TABLE
  2
STYLE
 70
     1
  0
STYLE
  2
STANDARD
 70
     0
 40
0.0
 41
1.0
 50
0.0
 71
     0
 42
2.0
  3
txt
  4

  0
ENDTAB
  0
TABLE
  2
VIEW
 70
     0
  0
ENDTAB
  0
TABLE
  2
UCS
 70
     0
  0
ENDTAB
  0
TABLE
  2
APPID
 70
     1
  0
APPID
  2
ACAD
 70
     0
  0
ENDTAB
  0
TABLE
  2
DIMSTYLE
 70
     6
  0
DIMSTYLE
  2
ISO-25
 70
     0
  3

  4

  5

  6

  7

 40
1.0
 41
2.5
 42
0.625
 43
3.75
 44
1.25
 45
0.0
 46
0.0
 47
0.0
 48
0.0
140
2.5
141
2.5
142
0.0
143
0.0393700787
144
1.0
145
0.0
146
1.0
147
0.625
 71
     0
 72
     0
 73
     0
 74
     0
 75
     0
 76
     0
 77
     1
 78
     8
170
     0
171
     3
172
     1
173
     0
174
     0
175
     0
176
     0
177
     0
178
     0
  0
DIMSTYLE
  2
SLDDIMSTYLE0
 70
     0
  3

  4

  5

  6
CLOSED
  7
CLOSED
 40
1.0
 41
2.0
 42
0.0625
 43
0.38
 44
0.0
 45
0.000000001
 46
0.0
 47
0.0
 48
0.0
140
2.0
141
0.09
142
0.0
143
0.0393700787
144
1.0
145
0.0
146
1.0
147
0.5
 71
     0
 72
     0
 73
     0
 74
     0
 75
     0
 76
     0
 77
     1
 78
    12
170
     1
171
     2
172
     1
173
     1
174
     0
175
     0
176
     0
177
     0
178
     0
  0
DIMSTYLE
  2
SLDDIMSTYLE1
 70
     0
  3

  4

  5

  6
CLOSED
  7
CLOSED
 40
1.0
 41
2.0
 42
0.0625
 43
0.38
 44
0.0
 45
0.000000001
 46
0.0
 47
0.0
 48
0.0
140
2.0
141
0.09
142
0.0
143
0.0393700787
144
1.0
145
0.0
146
1.0
147
0.5
 71
     0
 72
     0
 73
     0
 74
     0
 75
     0
 76
     0
 77
     1
 78
    12
170
     1
171
     2
172
     0
173
     1
174
     0
175
     0
176
     0
177
     0
178
     0
  0
DIMSTYLE
  2
SLDDIMSTYLE2
 70
     0
  3

  4

  5

  6
CLOSED
  7
CLOSED
 40
1.0
 41
2.0
 42
0.0625
 43
0.38
 44
0.0
 45
0.000000001
 46
0.0
 47
0.3
 48
0.2
140
2.0
141
0.09
142
0.0
143
0.0393700787
144
1.0
145
0.0
146
1.0
147
0.5
 71
     1
 72
     0
 73
     0
 74
     0
 75
     0
 76
     0
 77
     1
 78
    12
170
     1
171
     3
172
     0
173
     1
174
     0
175
     0
176
     0
177
     0
178
     0
  0
DIMSTYLE
  2
SLDDIMSTYLE3
 70
     0
  3

  4

  5

  6
CLOSED
  7
CLOSED
 40
1.0
 41
2.0
 42
0.0625
 43
0.38
 44
0.0
 45
0.000000001
 46
0.0
 47
0.3
 48
0.2
140
2.0
141
0.09
142
0.0
143
0.0393700787
144
1.0
145
0.0
146
1.0
147
0.5
 71
     1
 72
     0
 73
     0
 74
     0
 75
     0
 76
     0
 77
     1
 78
    12
170
     1
171
     3
172
     0
173
     1
174
     0
175
     0
176
     0
177
     0
178
     0
  0
DIMSTYLE
  2
SLDDIMSTYLE4
 70
     0
  3

  4

  5

  6
CLOSED
  7
CLOSED
 40
1.0
 41
2.0
 42
0.0625
 43
0.38
 44
0.0
 45
0.000000001
 46
0.0
 47
0.0
 48
0.0
140
2.0
141
0.0
142
0.0
143
0.0393700787
144
1.0
145
0.0
146
1.0
147
0.5
 71
     0
 72
     0
 73
     0
 74
     0
 75
     0
 76
     0
 77
     1
 78
    12
170
     1
171
     2
172
     0
173
     1
174
     0
175
     0
176
     0
177
     0
178
     0
  0
ENDTAB
  0
ENDSEC
  0
SECTION
  2
BLOCKS
  0
BLOCK
  8
0
  2
$MODEL_SPACE
 70
     0
 10
0.0
 20
0.0
 30
0.0
  3
$MODEL_SPACE
  1

  0
ENDBLK
  5
21
  8
0
  0
BLOCK
 67
     1
  8
0
  2
$PAPER_SPACE
 70
     0
 10
0.0
 20
0.0
 30
0.0
  3
$PAPER_SPACE
  1

  0
ENDBLK
  5
1D
 67
     1
  8
0
  0
BLOCK
  8
0
  2
_CLOSED
 70
     0
 10
0.0
 20
0.0
 30
0.0
  3
_CLOSED
  1

  0
LINE
  5
B9
  8
0
  6
BYBLOCK
 62
     0
 10
-1.0
 20
0.166667
 30
0.0
 11
0.0
 21
0.0
 31
0.0
  0
LINE
  5
BA
  8
0
  6
BYBLOCK
 62
     0
 10
0.0
 20
0.0
 30
0.0
 11
-1.0
 21
-0.166667
 31
0.0
  0
LINE
  5
BB
  8
0
  6
BYBLOCK
 62
     0
 10
-1.0
 20
0.166667
 30
0.0
 11
-1.0
 21
-0.166667
 31
0.0
  0
LINE
  5
BC
  8
0
  6
BYBLOCK
 62
     0
 10
0.0
 20
0.0
 30
0.0
 11
-1.0
 21
0.0
 31
0.0
  0
ENDBLK
  5
B8
  8
0
  0
BLOCK
  8
0
  2
_D
 70
     0
 10
0.0
 20
0.0
 30
0.0
  3
_D
  1

  0
INSERT
  5
C0
  8
LEVEL0
  2
_CLOSED
 10
49.2936568936
 20
126.5709577874
 30
9.75
 41
2.0
 42
2.0
 50
0.0
  0
INSERT
  5
C1
  8
LEVEL0
  2
_CLOSED
 10
57.2936568936
 20
126.5709577874
 30
9.75
 41
2.0
 42
2.0
 50
180.0
  0
LINE
  5
C2
  8
LEVEL0
 10
50.4864676503
 20
132.7383188345
 30
0.0
 11
49.8770926377
 21
132.7383188345
 31
0.0
  0
LINE
  5
C3
  8
LEVEL0
 10
49.8770926377
 20
132.7383188345
 30
0.0
 11
49.8770926377
 21
129.5633188729
 31
0.0
  0
LINE
  5
C4
  8
LEVEL0
 10
49.8770926377
 20
129.5633188729
 30
0.0
 11
50.4864676503
 21
129.5633188729
 31
0.0
  0
LINE
  5
C5
  8
LEVEL0
 10
55.6586895717
 20
132.7383188345
 30
0.0
 11
56.2680645842
 21
132.7383188345
 31
0.0
  0
LINE
  5
C6
  8
LEVEL0
 10
56.2680645842
 20
132.7383188345
 30
0.0
 11
56.2680645842
 21
129.5633188729
 31
0.0
  0
LINE
  5
C7
  8
LEVEL0
 10
56.2680645842
 20
129.5633188729
 30
0.0
 11
55.6586895717
 21
129.5633188729
 31
0.0
  0
LINE
  5
C8
  8
LEVEL0
 10
49.2936568936
 20
112.1180410972
 30
0.0
 11
49.2936568936
 21
127.5709577874
 31
0.0
  0
LINE
  5
C9
  8
LEVEL0
 10
49.2936568936
 20
126.5709577874
 30
0.0
 11
45.4475030475
 21
126.5709577874
 31
0.0
  0
LINE
  5
CA
  8
LEVEL0
 10
49.2936568936
 20
126.5709577874
 30
0.0
 11
57.2936568936
 21
126.5709577874
 31
0.0
  0
LINE
  5
CB
  8
LEVEL0
 10
57.2936568936
 20
126.5709577874
 30
0.0
 11
61.1398107398
 21
126.5709577874
 31
0.0
  0
TEXT
  5
CC
  8
LEVEL0
 10
47.7899399001
 20
127.6360489048
 30
9.75
 40
2.0
  1
  
 41
0.7
 11
47.7899399001
 21
126.6015133169
 31
9.75
 73
     1
  0
TEXT
  5
CD
  8
LEVEL0
 10
50.4864676503
 20
130.5978544608
 30
9.75
 40
2.0
  1
0.31
 41
0.7
 11
50.4864676503
 21
129.5633188729
 31
9.75
 73
     1
  0
TEXT
  5
CE
  8
LEVEL0
 10
52.3336898648
 20
127.6054931425
 30
9.75
 40
2.0
  1
8
 41
0.7
 11
52.3336898648
 21
126.5709575546
 31
9.75
 73
     1
  0
TEXT
  5
CF
  8
LEVEL0
 10
56.8774400625
 20
127.6360489048
 30
9.75
 40
2.0
  1
  
 41
0.7
 11
56.8774400625
 21
126.6015133169
 31
9.75
 73
     1
  0
ENDBLK
  5
BF
  8
0
  0
BLOCK
  8
0
  2
_D_1
 70
     0
 10
0.0
 20
0.0
 30
0.0
  3
_D_1
  1

  0
INSERT
  5
D5
  8
LEVEL0
  2
_CLOSED
 10
72.6814789531
 20
107.6180410972
 30
9.75
 41
2.0
 42
2.0
 50
270.0
  0
INSERT
  5
D6
  8
LEVEL0
  2
_CLOSED
 10
72.6814789531
 20
115.6180410972
 30
9.75
 41
2.0
 42
2.0
 50
90.0
  0
LINE
  5
D7
  8
LEVEL0
 10
66.514117906
 20
99.7763279677
 30
0.0
 11
66.514117906
 21
99.1669529551
 31
0.0
  0
LINE
  5
D8
  8
LEVEL0
 10
66.514117906
 20
99.1669529551
 30
0.0
 11
69.6891178676
 21
99.1669529551
 31
0.0
  0
LINE
  5
D9
  8
LEVEL0
 10
69.6891178676
 20
99.1669529551
 30
0.0
 11
69.6891178676
 21
99.7763279677
 31
0.0
  0
LINE
  5
DA
  8
LEVEL0
 10
66.514117906
 20
104.9485498891
 30
0.0
 11
66.514117906
 21
105.5579249017
 31
0.0
  0
LINE
  5
DB
  8
LEVEL0
 10
66.514117906
 20
105.5579249017
 30
0.0
 11
69.6891178676
 21
105.5579249017
 31
0.0
  0
LINE
  5
DC
  8
LEVEL0
 10
69.6891178676
 20
105.5579249017
 30
0.0
 11
69.6891178676
 21
104.9485498891
 31
0.0
  0
LINE
  5
DD
  8
LEVEL0
 10
53.7936568936
 20
107.6180410972
 30
0.0
 11
73.6814789531
 21
107.6180410972
 31
0.0
  0
LINE
  5
DE
  8
LEVEL0
 10
72.6814789531
 20
107.6180410972
 30
0.0
 11
72.6814789531
 21
97.0798002175
 31
0.0
  0
LINE
  5
DF
  8
LEVEL0
 10
72.6814789531
 20
107.6180410972
 30
0.0
 11
72.6814789531
 21
115.6180410972
 31
0.0
  0
TEXT
  5
E0
  8
LEVEL0
 10
71.6163878357
 20
97.0798002175
 30
9.75
 40
2.0
  1
  
 50
90.0
 41
0.7
 11
72.6509234236
 21
97.0798002175
 31
9.75
 73
     1
  0
TEXT
  5
E1
  8
LEVEL0
 10
68.6545822798
 20
99.7763279677
 30
9.75
 40
2.0
  1
0.31
 50
90.0
 41
0.7
 11
69.6891178676
 21
99.7763279677
 31
9.75
 73
     1
  0
TEXT
  5
E2
  8
LEVEL0
 10
71.6469435981
 20
101.6235501823
 30
9.75
 40
2.0
  1
8
 50
90.0
 41
0.7
 11
72.681479186
 21
101.6235501823
 31
9.75
 73
     1
  0
TEXT
  5
E3
  8
LEVEL0
 10
71.6163878357
 20
106.1673003799
 30
9.75
 40
2.0
  1
  
 50
90.0
 41
0.7
 11
72.6509234236
 21
106.1673003799
 31
9.75
 73
     1
  0
ENDBLK
  5
D4
  8
0
  0
BLOCK
  8
0
  2
_D_2
 70
     0
 10
0.0
 20
0.0
 30
0.0
  3
_D_2
  1

  0
INSERT
  5
E9
  8
LEVEL0
  2
_CLOSED
 10
57.2936568936
 20
149.651353737
 30
9.75
 41
2.0
 42
2.0
 50
180.0
  0
INSERT
  5
EA
  8
LEVEL0
  2
_CLOSED
 10
148.5536568936
 20
149.651353737
 30
9.75
 41
2.0
 42
2.0
 50
0.0
  0
LINE
  5
EB
  8
LEVEL0
 10
104.4674572924
 20
160.4020484031
 30
0.0
 11
103.8580822798
 21
160.4020484031
 31
0.0
  0
LINE
  5
EC
  8
LEVEL0
 10
103.8580822798
 20
160.4020484031
 30
0.0
 11
103.8580822798
 21
155.229826016
 31
0.0
  0
LINE
  5
ED
  8
LEVEL0
 10
103.8580822798
 20
155.229826016
 30
0.0
 11
104.4674572924
 21
155.229826016
 31
0.0
  0
LINE
  5
EE
  8
LEVEL0
 10
120.1230121234
 20
160.4020484031
 30
0.0
 11
120.732387136
 21
160.4020484031
 31
0.0
  0
LINE
  5
EF
  8
LEVEL0
 10
120.732387136
 20
160.4020484031
 30
0.0
 11
120.732387136
 21
155.229826016
 31
0.0
  0
LINE
  5
F0
  8
LEVEL0
 10
120.732387136
 20
155.229826016
 30
0.0
 11
120.1230121234
 21
155.229826016
 31
0.0
  0
LINE
  5
F1
  8
LEVEL0
 10
57.2936568936
 20
149.651353737
 30
0.0
 11
148.5536568936
 21
149.651353737
 31
0.0
  0
TEXT
  5
F2
  8
LEVEL0
 10
101.7709295421
 20
150.7164448544
 30
9.75
 40
2.0
  1
  
 50
0.0
 41
0.7
 11
101.7709295421
 21
149.6819092665
 31
9.75
 73
     1
  0
TEXT
  5
F3
  8
LEVEL0
 10
104.4674572924
 20
156.2949171334
 30
9.75
 40
2.0
  1
3.593
 50
0.0
 41
0.7
 11
104.4674572924
 21
155.2603815455
 31
9.75
 73
     1
  0
TEXT
  5
F4
  8
LEVEL0
 10
111.1174571717
 20
156.2949171334
 30
9.75
 40
2.0
  1
 
 50
0.0
 41
0.7
 11
111.1174571717
 21
155.2603815455
 31
9.75
 73
     1
  0
TEXT
  5
F5
  8
LEVEL0
 10
111.8563461506
 20
158.8504727974
 30
9.75
 40
2.0
  1
+
 50
0.0
 41
0.7
 11
111.8563461506
 21
157.8159372095
 31
9.75
 73
     1
  0
TEXT
  5
F6
  8
LEVEL0
 10
112.221623932
 20
156.2643616039
 30
9.75
 40
2.0
  1
-
 50
0.0
 41
0.7
 11
112.221623932
 21
155.229826016
 31
9.75
 73
     1
  0
TEXT
  5
F7
  8
LEVEL0
 10
113.4730122441
 20
158.8504727974
 30
9.75
 40
2.0
  1
0.012
 50
0.0
 41
0.7
 11
113.4730122441
 21
157.8159372095
 31
9.75
 73
     1
  0
TEXT
  5
F8
  8
LEVEL0
 10
113.4730122441
 20
156.2643616039
 30
9.75
 40
2.0
  1
0.008
 50
0.0
 41
0.7
 11
113.4730122441
 21
155.229826016
 31
9.75
 73
     1
  0
TEXT
  5
F9
  8
LEVEL0
 10
105.2063459221
 20
150.6858888592
 30
9.75
 40
2.0
  1
91.26
 50
0.0
 41
0.7
 11
105.2063459221
 21
149.6513532713
 31
9.75
 73
     1
  0
TEXT
  5
FA
  8
LEVEL0
 10
111.8563458014
 20
150.6858888592
 30
9.75
 40
2.0
  1
 
 50
0.0
 41
0.7
 11
111.8563458014
 21
149.6513532713
 31
9.75
 73
     1
  0
TEXT
  5
FB
  8
LEVEL0
 10
112.5952347803
 20
153.2720000528
 30
9.75
 40
2.0
  1
+
 50
0.0
 41
0.7
 11
112.5952347803
 21
152.2374644649
 31
9.75
 73
     1
  0
TEXT
  5
FC
  8
LEVEL0
 10
112.9605125617
 20
150.6858888592
 30
9.75
 40
2.0
  1
-
 50
0.0
 41
0.7
 11
112.9605125617
 21
149.6513532713
 31
9.75
 73
     1
  0
TEXT
  5
FD
  8
LEVEL0
 10
114.2119008738
 20
153.2720000528
 30
9.75
 40
2.0
  1
0.30
 50
0.0
 41
0.7
 11
114.2119008738
 21
152.2374644649
 31
9.75
 73
     1
  0
TEXT
  5
FE
  8
LEVEL0
 10
114.2119008738
 20
150.6858888592
 30
9.75
 40
2.0
  1
0.20
 50
0.0
 41
0.7
 11
114.2119008738
 21
149.6513532713
 31
9.75
 73
     1
  0
TEXT
  5
FF
  8
LEVEL0
 10
121.3417626142
 20
150.7164448544
 30
9.75
 40
2.0
  1
  
 50
0.0
 41
0.7
 11
121.3417626142
 21
149.6819092665
 31
9.75
 73
     1
  0
ENDBLK
  5
E8
  8
0
  0
BLOCK
  8
0
  2
_D_3
 70
     0
 10
0.0
 20
0.0
 30
0.0
  3
_D_3
  1

  0
INSERT
  5
105
  8
LEVEL0
  2
_CLOSED
 10
95.0133857918
 20
115.6180410972
 30
9.75
 41
2.0
 42
2.0
 50
270.0
  0
INSERT
  5
106
  8
LEVEL0
  2
_CLOSED
 10
95.0133857918
 20
206.8780410972
 30
9.75
 41
2.0
 42
2.0
 50
90.0
  0
LINE
  5
107
  8
LEVEL0
 10
84.2626911257
 20
164.5577804151
 30
0.0
 11
84.2626911257
 21
163.9484054025
 31
0.0
  0
LINE
  5
108
  8
LEVEL0
 10
84.2626911257
 20
163.9484054025
 30
0.0
 11
89.4349135128
 21
163.9484054025
 31
0.0
  0
LINE
  5
109
  8
LEVEL0
 10
89.4349135128
 20
163.9484054025
 30
0.0
 11
89.4349135128
 21
164.5577804151
 31
0.0
  0
LINE
  5
10A
  8
LEVEL0
 10
84.2626911257
 20
180.2133352461
 30
0.0
 11
84.2626911257
 21
180.8227102587
 31
0.0
  0
LINE
  5
10B
  8
LEVEL0
 10
84.2626911257
 20
180.8227102587
 30
0.0
 11
89.4349135128
 21
180.8227102587
 31
0.0
  0
LINE
  5
10C
  8
LEVEL0
 10
89.4349135128
 20
180.8227102587
 30
0.0
 11
89.4349135128
 21
180.2133352461
 31
0.0
  0
LINE
  5
10D
  8
LEVEL0
 10
95.0133857918
 20
115.6180410972
 30
0.0
 11
95.0133857918
 21
206.8780410972
 31
0.0
  0
TEXT
  5
10E
  8
LEVEL0
 10
93.9482946744
 20
161.8612526648
 30
9.75
 40
2.0
  1
  
 50
90.0
 41
0.7
 11
94.9828302622
 21
161.8612526648
 31
9.75
 73
     1
  0
TEXT
  5
10F
  8
LEVEL0
 10
88.3698223953
 20
164.5577804151
 30
9.75
 40
2.0
  1
3.593
 50
90.0
 41
0.7
 11
89.4043579832
 21
164.5577804151
 31
9.75
 73
     1
  0
TEXT
  5
110
  8
LEVEL0
 10
88.3698223953
 20
171.2077802944
 30
9.75
 40
2.0
  1
 
 50
90.0
 41
0.7
 11
89.4043579832
 21
171.2077802944
 31
9.75
 73
     1
  0
TEXT
  5
111
  8
LEVEL0
 10
85.8142667313
 20
171.9466692733
 30
9.75
 40
2.0
  1
+
 50
90.0
 41
0.7
 11
86.8488023192
 21
171.9466692733
 31
9.75
 73
     1
  0
TEXT
  5
112
  8
LEVEL0
 10
88.4003779249
 20
172.3119470547
 30
9.75
 40
2.0
  1
-
 50
90.0
 41
0.7
 11
89.4349135128
 21
172.3119470547
 31
9.75
 73
     1
  0
TEXT
  5
113
  8
LEVEL0
 10
85.8142667313
 20
173.5633353668
 30
9.75
 40
2.0
  1
0.012
 50
90.0
 41
0.7
 11
86.8488023192
 21
173.5633353668
 31
9.75
 73
     1
  0
TEXT
  5
114
  8
LEVEL0
 10
88.4003779249
 20
173.5633353668
 30
9.75
 40
2.0
  1
0.008
 50
90.0
 41
0.7
 11
89.4349135128
 21
173.5633353668
 31
9.75
 73
     1
  0
TEXT
  5
115
  8
LEVEL0
 10
93.9788506695
 20
165.2966690448
 30
9.75
 40
2.0
  1
91.26
 50
90.0
 41
0.7
 11
95.0133862574
 21
165.2966690448
 31
9.75
 73
     1
  0
TEXT
  5
116
  8
LEVEL0
 10
93.9788506695
 20
171.9466689241
 30
9.75
 40
2.0
  1
 
 50
90.0
 41
0.7
 11
95.0133862574
 21
171.9466689241
 31
9.75
 73
     1
  0
TEXT
  5
117
  8
LEVEL0
 10
91.392739476
 20
172.6855579031
 30
9.75
 40
2.0
  1
+
 50
90.0
 41
0.7
 11
92.4272750639
 21
172.6855579031
 31
9.75
 73
     1
  0
TEXT
  5
118
  8
LEVEL0
 10
93.9788506695
 20
173.0508356844
 30
9.75
 40
2.0
  1
-
 50
90.0
 41
0.7
 11
95.0133862574
 21
173.0508356844
 31
9.75
 73
     1
  0
TEXT
  5
119
  8
LEVEL0
 10
91.392739476
 20
174.3022239965
 30
9.75
 40
2.0
  1
0.30
 50
90.0
 41
0.7
 11
92.4272750639
 21
174.3022239965
 31
9.75
 73
     1
  0
TEXT
  5
11A
  8
LEVEL0
 10
93.9788506695
 20
174.3022239965
 30
9.75
 40
2.0
  1
0.20
 50
90.0
 41
0.7
 11
95.0133862574
 21
174.3022239965
 31
9.75
 73
     1
  0
TEXT
  5
11B
  8
LEVEL0
 10
93.9482946744
 20
181.4320857369
 30
9.75
 40
2.0
  1
  
 50
90.0
 41
0.7
 11
94.9828302622
 21
181.4320857369
 31
9.75
 73
     1
  0
ENDBLK
  5
104
  8
0
  0
BLOCK
  8
0
  2
_D_4
 70
     0
 10
0.0
 20
0.0
 30
0.0
  3
_D_4
  1

  0
INSERT
  5
121
  8
LEVEL0
  2
_CLOSED
 10
58.1723365501
 20
205.9993614407
 30
9.75
 41
2.0
 42
2.0
 50
314.7114994484
  0
LINE
  5
122
  8
LEVEL0
 10
69.5278374979
 20
203.2132856479
 30
0.0
 11
69.0969442943
 21
203.6441788515
 31
0.0
  0
LINE
  5
123
  8
LEVEL0
 10
69.0969442943
 20
203.6441788515
 30
0.0
 11
66.8518802911
 21
201.3991148484
 31
0.0
  0
LINE
  5
124
  8
LEVEL0
 10
66.8518802911
 20
201.3991148484
 30
0.0
 11
67.2827734948
 21
200.9682216447
 31
0.0
  0
LINE
  5
125
  8
LEVEL0
 10
73.1851506924
 20
199.5559724535
 30
0.0
 11
73.616043896
 21
199.1250792498
 31
0.0
  0
LINE
  5
126
  8
LEVEL0
 10
73.616043896
 20
199.1250792498
 30
0.0
 11
71.3709798929
 21
196.8800152466
 31
0.0
  0
LINE
  5
127
  8
LEVEL0
 10
71.3709798929
 20
196.8800152466
 30
0.0
 11
70.9400866892
 21
197.3109084503
 31
0.0
  0
LINE
  5
128
  8
LEVEL0
 10
58.1723365501
 20
205.9993614407
 30
0.0
 11
73.2430944596
 21
190.7760630494
 31
0.0
  0
LINE
  5
129
  8
LEVEL0
 10
58.1723365501
 20
205.9993614407
 30
0.0
 11
55.4664236716
 21
208.7326625406
 31
0.0
  0
TEXT
  5
12A
  8
LEVEL0
 10
68.0143006244
 20
201.6997487743
 30
9.75
 40
2.0
  1
0.12
 50
315.0
 41
0.7
 11
67.2827734948
 21
200.9682216447
 31
9.75
 73
     1
  0
TEXT
  5
12B
  8
LEVEL0
 10
66.6320049185
 20
198.8502065203
 30
9.75
 40
2.0
  1
R3
 50
315.0
 41
0.7
 11
65.9004777889
 21
198.1186793908
 31
9.75
 73
     1
  0
TEXT
  5
12C
  8
LEVEL0
 10
70.4390875976
 20
195.0863362147
 30
9.75
 40
2.0
  1
 TYP
 50
315.0
 41
0.7
 11
69.707560468
 21
194.3548090852
 31
9.75
 73
     1
  0
ENDBLK
  5
120
  8
0
  0
BLOCK
  8
0
  2
_D_5
 70
     0
 10
0.0
 20
0.0
 30
0.0
  3
_D_5
  1

  0
INSERT
  5
131
  8
LEVEL0
  2
_CLOSED
 10
177.098924835
 20
107.6180410972
 30
9.75
 41
2.0
 42
2.0
 50
270.0
  0
INSERT
  5
132
  8
LEVEL0
  2
_CLOSED
 10
177.098924835
 20
214.8780410972
 30
9.75
 41
2.0
 42
2.0
 50
90.0
  0
LINE
  5
133
  8
LEVEL0
 10
170.9315637879
 20
162.381991365
 30
0.0
 11
170.9315637879
 21
161.7726163524
 31
0.0
  0
LINE
  5
134
  8
LEVEL0
 10
170.9315637879
 20
161.7726163524
 30
0.0
 11
174.1065637495
 21
161.7726163524
 31
0.0
  0
LINE
  5
135
  8
LEVEL0
 10
174.1065637495
 20
161.7726163524
 30
0.0
 11
174.1065637495
 21
162.381991365
 31
0.0
  0
LINE
  5
136
  8
LEVEL0
 10
170.9315637879
 20
167.5542132864
 30
0.0
 11
170.9315637879
 21
168.1635882989
 31
0.0
  0
LINE
  5
137
  8
LEVEL0
 10
170.9315637879
 20
168.1635882989
 30
0.0
 11
174.1065637495
 21
168.1635882989
 31
0.0
  0
LINE
  5
138
  8
LEVEL0
 10
174.1065637495
 20
168.1635882989
 30
0.0
 11
174.1065637495
 21
167.5542132864
 31
0.0
  0
LINE
  5
139
  8
LEVEL0
 10
161.0536568936
 20
107.6180410972
 30
0.0
 11
178.098924835
 21
107.6180410972
 31
0.0
  0
LINE
  5
13A
  8
LEVEL0
 10
161.0536568936
 20
214.8780410972
 30
0.0
 11
178.098924835
 21
214.8780410972
 31
0.0
  0
LINE
  5
13B
  8
LEVEL0
 10
177.098924835
 20
107.6180410972
 30
0.0
 11
177.098924835
 21
214.8780410972
 31
0.0
  0
TEXT
  5
13C
  8
LEVEL0
 10
176.0338337176
 20
159.6854636148
 30
9.75
 40
2.0
  1
  
 50
90.0
 41
0.7
 11
177.0683693055
 21
159.6854636148
 31
9.75
 73
     1
  0
TEXT
  5
13D
  8
LEVEL0
 10
173.0720281616
 20
162.381991365
 30
9.75
 40
2.0
  1
4.22
 50
90.0
 41
0.7
 11
174.1065637495
 21
162.381991365
 31
9.75
 73
     1
  0
TEXT
  5
13E
  8
LEVEL0
 10
176.0643894799
 20
161.6431025024
 30
9.75
 40
2.0
  1
107.3
 50
90.0
 41
0.7
 11
177.0989250678
 21
161.6431025024
 31
9.75
 73
     1
  0
TEXT
  5
13F
  8
LEVEL0
 10
176.0338337176
 20
168.7729637772
 30
9.75
 40
2.0
  1
  
 50
90.0
 41
0.7
 11
177.0683693055
 21
168.7729637772
 31
9.75
 73
     1
  0
ENDBLK
  5
130
  8
0
  0
BLOCK
  8
0
  2
_D_6
 70
     0
 10
0.0
 20
0.0
 30
0.0
  3
_D_6
  1

  0
INSERT
  5
144
  8
LEVEL0
  2
_CLOSED
 10
49.2936568936
 20
89.8240911951
 30
9.75
 41
2.0
 42
2.0
 50
180.0
  0
INSERT
  5
145
  8
LEVEL0
  2
_CLOSED
 10
156.5536568936
 20
89.8240911951
 30
9.75
 41
2.0
 42
2.0
 50
0.0
  0
LINE
  5
146
  8
LEVEL0
 10
95.5454171633
 20
95.9914522422
 30
0.0
 11
94.9360421507
 21
95.9914522422
 31
0.0
  0
LINE
  5
147
  8
LEVEL0
 10
94.9360421507
 20
95.9914522422
 30
0.0
 11
94.9360421507
 21
92.8164522806
 31
0.0
  0
LINE
  5
148
  8
LEVEL0
 10
94.9360421507
 20
92.8164522806
 30
0.0
 11
95.5454171633
 21
92.8164522806
 31
0.0
  0
LINE
  5
149
  8
LEVEL0
 10
100.7176390846
 20
95.9914522422
 30
0.0
 11
101.3270140972
 21
95.9914522422
 31
0.0
  0
LINE
  5
14A
  8
LEVEL0
 10
101.3270140972
 20
95.9914522422
 30
0.0
 11
101.3270140972
 21
92.8164522806
 31
0.0
  0
LINE
  5
14B
  8
LEVEL0
 10
101.3270140972
 20
92.8164522806
 30
0.0
 11
100.7176390846
 21
92.8164522806
 31
0.0
  0
LINE
  5
14C
  8
LEVEL0
 10
49.2936568936
 20
103.1180410972
 30
0.0
 11
49.2936568936
 21
88.8240911951
 31
0.0
  0
LINE
  5
14D
  8
LEVEL0
 10
156.5536568936
 20
103.1180410972
 30
0.0
 11
156.5536568936
 21
88.8240911951
 31
0.0
  0
LINE
  5
14E
  8
LEVEL0
 10
49.2936568936
 20
89.8240911951
 30
0.0
 11
156.5536568936
 21
89.8240911951
 31
0.0
  0
TEXT
  5
14F
  8
LEVEL0
 10
92.848889413
 20
90.8891823125
 30
9.75
 40
2.0
  1
  
 41
0.7
 11
92.848889413
 21
89.8546467246
 31
9.75
 73
     1
  0
TEXT
  5
150
  8
LEVEL0
 10
95.5454171633
 20
93.8509878685
 30
9.75
 40
2.0
  1
4.22
 41
0.7
 11
95.5454171633
 21
92.8164522806
 31
9.75
 73
     1
  0
TEXT
  5
151
  8
LEVEL0
 10
94.8065283007
 20
90.8586265501
 30
9.75
 40
2.0
  1
107.3
 41
0.7
 11
94.8065283007
 21
89.8240909622
 31
9.75
 73
     1
  0
TEXT
  5
152
  8
LEVEL0
 10
101.9363895754
 20
90.8891823125
 30
9.75
 40
2.0
  1
  
 41
0.7
 11
101.9363895754
 21
89.8546467246
 31
9.75
 73
     1
  0
ENDBLK
  5
143
  8
0
  0
BLOCK
  8
0
  2
SW_NOTE_0
 70
     0
 10
0.0
 20
0.0
 30
0.0
  3
SW_NOTE_0
  1

  0
TEXT
  5
156
  8
LEVEL0
 62
     0
 10
28.4430745755
 20
13.4903774404
 30
0.0
 40
1.8520833333
  1
MARK SCREW
 41
0.7
 11
28.4430745755
 21
12.5323543804
 31
0.0
 73
     1
  0
TEXT
  5
157
  8
LEVEL0
 62
     0
 10
28.4430745755
 20
9.9595787277
 30
0.0
 40
1.8520833333
  1
LOCATIONS
 41
0.7
 11
28.4430745755
 21
9.0015556676
 31
0.0
 73
     1
  0
LINE
  5
158
  8
LEVEL0
 62
     0
 10
27.9358118981
 20
14.4955096699
 30
0.0
 11
0.0
 21
0.0
 31
0.0
  0
SOLID
  5
159
  8
LEVEL0
 62
     0
 10
0.0
 20
0.0
 30
0.0
 11
1.9169573957
 21
0.6480346435
 31
0.0
 12
1.6335269875
 22
1.1942630101
 32
0.0
 13
1.6335269875
 23
1.1942630101
 33
0.0
  0
ENDBLK
  5
155
  8
0
  0
BLOCK
  8
0
  2
SW_NOTE_0_1
 70
     0
 10
0.0
 20
0.0
 30
0.0
  3
SW_NOTE_0_1
  1

  0
TEXT
  5
15E
  8
LEVEL0
 62
     0
 10
0.0
 20
1.9160461201
 30
0.0
 40
3.7041666667
  1
CUTOUT ROUTING TEMPLATE
 41
0.6695652174
 11
0.0
 21
0.0
 31
0.0
 73
     1
  0
TEXT
  5
15F
  8
LEVEL0
 62
     0
 10
0.0
 20
-4.022842873
 30
0.0
 40
3.7041666667
  1
058-1-879
 41
0.7
 11
0.0
 21
-5.9388889931
 31
0.0
 73
     1
  0
TEXT
  5
160
  8
LEVEL0
 62
     0
 10
0.0
 20
-15.9006208593
 30
0.0
 40
3.7041666667
  1
SCALE 1:1
 41
0.7
 11
0.0
 21
-17.8166669793
 31
0.0
 73
     1
  0
ENDBLK
  5
15D
  8
0
  0
BLOCK
  8
0
  2
SW_CENTERMARKSYMBOL_0
 70
     0
 10
0.0
 20
0.0
 30
0.0
  3
SW_CENTERMARKSYMBOL_0
  1

  0
LINE
  5
165
  8
LEVEL0
 62
     0
 10
0.0
 20
0.0
 30
0.0
 11
0.0
 21
2.5
 31
0.0
  0
LINE
  5
166
  8
LEVEL0
 62
     0
 10
0.0
 20
0.0
 30
0.0
 11
-2.5
 21
0.0
 31
0.0
  0
LINE
  5
167
  8
LEVEL0
 62
     0
 10
0.0
 20
0.0
 30
0.0
 11
0.0
 21
-2.5
 31
0.0
  0
LINE
  5
168
  8
LEVEL0
 62
     0
 10
0.0
 20
0.0
 30
0.0
 11
2.5
 21
0.0
 31
0.0
  0
LINE
  5
169
  8
LEVEL0
 62
     0
 10
0.0
 20
2.5
 30
0.0
 11
0.0
 21
3.5
 31
0.0
  0
LINE
  5
16A
  8
LEVEL0
 62
     0
 10
-2.5
 20
0.0
 30
0.0
 11
-3.5
 21
0.0
 31
0.0
  0
LINE
  5
16B
  8
LEVEL0
 62
     0
 10
0.0
 20
-2.5
 30
0.0
 11
0.0
 21
-3.5
 31
0.0
  0
LINE
  5
16C
  8
LEVEL0
 62
     0
 10
2.5
 20
0.0
 30
0.0
 11
3.5
 21
0.0
 31
0.0
  0
ENDBLK
  5
164
  8
0
  0
BLOCK
  8
0
  2
SW_CENTERMARKSYMBOL_1
 70
     0
 10
0.0
 20
0.0
 30
0.0
  3
SW_CENTERMARKSYMBOL_1
  1

  0
LINE
  5
171
  8
LEVEL0
 62
     0
 10
0.0
 20
0.0
 30
0.0
 11
0.0
 21
2.5
 31
0.0
  0
LINE
  5
172
  8
LEVEL0
 62
     0
 10
0.0
 20
0.0
 30
0.0
 11
-2.5
 21
0.0
 31
0.0
  0
LINE
  5
173
  8
LEVEL0
 62
     0
 10
0.0
 20
0.0
 30
0.0
 11
0.0
 21
-2.5
 31
0.0
  0
LINE
  5
174
  8
LEVEL0
 62
     0
 10
0.0
 20
0.0
 30
0.0
 11
2.5
 21
0.0
 31
0.0
  0
LINE
  5
175
  8
LEVEL0
 62
     0
 10
0.0
 20
2.5
 30
0.0
 11
0.0
 21
3.5
 31
0.0
  0
LINE
  5
176
  8
LEVEL0
 62
     0
 10
-2.5
 20
0.0
 30
0.0
 11
-3.5
 21
0.0
 31
0.0
  0
LINE
  5
177
  8
LEVEL0
 62
     0
 10
0.0
 20
-2.5
 30
0.0
 11
0.0
 21
-3.5
 31
0.0
  0
LINE
  5
178
  8
LEVEL0
 62
     0
 10
2.5
 20
0.0
 30
0.0
 11
3.5
 21
0.0
 31
0.0
  0
ENDBLK
  5
170
  8
0
  0
BLOCK
  8
0
  2
SW_CENTERMARKSYMBOL_2
 70
     0
 10
0.0
 20
0.0
 30
0.0
  3
SW_CENTERMARKSYMBOL_2
  1

  0
LINE
  5
17D
  8
LEVEL0
 62
     0
 10
0.0
 20
0.0
 30
0.0
 11
0.0
 21
2.5
 31
0.0
  0
LINE
  5
17E
  8
LEVEL0
 62
     0
 10
0.0
 20
0.0
 30
0.0
 11
-2.5
 21
0.0
 31
0.0
  0
LINE
  5
17F
  8
LEVEL0
 62
     0
 10
0.0
 20
0.0
 30
0.0
 11
0.0
 21
-2.5
 31
0.0
  0
LINE
  5
180
  8
LEVEL0
 62
     0
 10
0.0
 20
0.0
 30
0.0
 11
2.5
 21
0.0
 31
0.0
  0
LINE
  5
181
  8
LEVEL0
 62
     0
 10
0.0
 20
2.5
 30
0.0
 11
0.0
 21
3.5
 31
0.0
  0
LINE
  5
182
  8
LEVEL0
 62
     0
 10
-2.5
 20
0.0
 30
0.0
 11
-3.5
 21
0.0
 31
0.0
  0
LINE
  5
183
  8
LEVEL0
 62
     0
 10
0.0
 20
-2.5
 30
0.0
 11
0.0
 21
-3.5
 31
0.0
  0
LINE
  5
184
  8
LEVEL0
 62
     0
 10
2.5
 20
0.0
 30
0.0
 11
3.5
 21
0.0
 31
0.0
  0
ENDBLK
  5
17C
  8
0
  0
BLOCK
  8
0
  2
SW_CENTERMARKSYMBOL_3
 70
     0
 10
0.0
 20
0.0
 30
0.0
  3
SW_CENTERMARKSYMBOL_3
  1

  0
LINE
  5
189
  8
LEVEL0
 62
     0
 10
0.0
 20
0.0
 30
0.0
 11
0.0
 21
2.5
 31
0.0
  0
LINE
  5
18A
  8
LEVEL0
 62
     0
 10
0.0
 20
0.0
 30
0.0
 11
-2.5
 21
0.0
 31
0.0
  0
LINE
  5
18B
  8
LEVEL0
 62
     0
 10
0.0
 20
0.0
 30
0.0
 11
0.0
 21
-2.5
 31
0.0
  0
LINE
  5
18C
  8
LEVEL0
 62
     0
 10
0.0
 20
0.0
 30
0.0
 11
2.5
 21
0.0
 31
0.0
  0
LINE
  5
18D
  8
LEVEL0
 62
     0
 10
0.0
 20
2.5
 30
0.0
 11
0.0
 21
3.5
 31
0.0
  0
LINE
  5
18E
  8
LEVEL0
 62
     0
 10
-2.5
 20
0.0
 30
0.0
 11
-3.5
 21
0.0
 31
0.0
  0
LINE
  5
18F
  8
LEVEL0
 62
     0
 10
0.0
 20
-2.5
 30
0.0
 11
0.0
 21
-3.5
 31
0.0
  0
LINE
  5
190
  8
LEVEL0
 62
     0
 10
2.5
 20
0.0
 30
0.0
 11
3.5
 21
0.0
 31
0.0
  0
ENDBLK
  5
188
  8
0
  0
ENDSEC
  0
SECTION
  2
ENTITIES
  0
TEXT
  5
A7
  8
LEVEL0
 10
73.1113856813
 20
63.0922381223
 30
0.0
 40
3.7041666667
  1
PRINT THIS PAGE 1:1 SCALE
 41
0.644
 11
73.1113856813
 21
61.1761920022
 31
0.0
 73
     1
  0
LINE
  5
A8
  8
0
  6
CONTINUOUS
 62
     7
 10
145.5536568936
 20
115.6180410972
 30
0.0
 11
60.2936568936
 21
115.6180410972
 31
0.0
  0
LINE
  5
A9
  8
0
  6
CONTINUOUS
 62
     7
 10
148.5536568936
 20
203.8780410972
 30
0.0
 11
148.5536568936
 21
118.6180410972
 31
0.0
  0
ARC
  5
AA
  8
0
  6
CONTINUOUS
 62
     7
 10
145.5536568936
 20
203.8780410972
 30
0.0
 40
3.0
 50
0.0
 51
90.0
  0
LINE
  5
AB
  8
0
  6
CONTINUOUS
 62
     7
 10
60.2936568936
 20
206.8780410972
 30
0.0
 11
145.5536568936
 21
206.8780410972
 31
0.0
  0
ARC
  5
AC
  8
0
  6
CONTINUOUS
 62
     7
 10
60.2936568936
 20
203.8780410972
 30
0.0
 40
3.000000000000007
 50
90.0
 51
180.0
  0
LINE
  5
AD
  8
0
  6
CONTINUOUS
 62
     7
 10
57.2936568936
 20
118.6180410972
 30
0.0
 11
57.2936568936
 21
203.8780410972
 31
0.0
  0
ARC
  5
AE
  8
0
  6
CONTINUOUS
 62
     7
 10
60.2936568936
 20
118.6180410972
 30
0.0
 40
3.000000000000014
 50
180.0
 51
270.0
  0
CIRCLE
  5
AF
  8
0
  6
CONTINUOUS
 62
     7
 10
49.2936568936
 20
214.8780410972
 30
0.0
 40
1.0
  0
CIRCLE
  5
B0
  8
0
  6
CONTINUOUS
 62
     7
 10
156.5536568936
 20
214.8780410972
 30
0.0
 40
1.0
  0
CIRCLE
  5
B1
  8
0
  6
CONTINUOUS
 62
     7
 10
156.5536568936
 20
107.6180410972
 30
0.0
 40
1.0
  0
CIRCLE
  5
B2
  8
0
  6
CONTINUOUS
 62
     7
 10
49.2936568936
 20
107.6180410972
 30
0.0
 40
1.0
  0
ARC
  5
B3
  8
0
  6
CONTINUOUS
 62
     7
 10
145.5536568936
 20
118.6180410972
 30
0.0
 40
3.000000000000014
 50
270.0
 51
0.0
  0
DIMENSION
  5
B4
  8
LEVEL0
  2
_D
 10
57.2936568936
 20
126.5709577874
 30
0.0
 11
53.0725789602
 21
126.5709577874
 31
0.0
 70
   160
  1
<>
  3
SLDDIMSTYLE0
 13
49.2936568936
 23
111.1180410972
 33
0.0
 14
57.2936568936
 24
118.6180410972
 34
0.0
  0
DIMENSION
  5
D0
  8
LEVEL0
  2
_D_1
 10
72.6814789531
 20
115.6180410972
 30
0.0
 11
72.6814789531
 21
102.3624392777
 31
0.0
 70
   160
  1
<>
  3
SLDDIMSTYLE1
 13
52.7936568936
 23
107.6180410972
 33
0.0
 14
60.2936568936
 24
115.6180410972
 34
0.0
 50
90.0
  0
DIMENSION
  5
E4
  8
LEVEL0
  2
_D_2
 10
148.5536568936
 20
149.651353737
 30
0.0
 11
112.2952350571
 21
149.651353737
 31
0.0
 70
   160
  1
<>
  3
SLDDIMSTYLE2
 13
57.2936568936
 23
118.6180410972
 33
0.0
 14
148.5536568936
 24
118.6180410972
 34
0.0
  0
DIMENSION
  5
100
  8
LEVEL0
  2
_D_3
 10
95.0133857918
 20
206.8780410972
 30
0.0
 11
95.0133857918
 21
172.3855581798
 31
0.0
 70
   160
  1
<>
  3
SLDDIMSTYLE3
 13
60.2936568936
 23
115.6180410972
 33
0.0
 14
60.2936568936
 24
206.8780410972
 34
0.0
 50
90.0
  0
DIMENSION
  5
11C
  8
LEVEL0
  2
_D_4
 10
60.2936568936
 20
203.8780410972
 30
0.0
 11
69.1406926032
 21
195.0310253877
 31
0.0
 70
   164
  1
<> TYP
  3
SLDDIMSTYLE4
 15
58.1723365501
 25
205.9993614407
 35
0.0
 40
0.0
  0
DIMENSION
  5
12D
  8
LEVEL0
  2
_D_5
 10
177.098924835
 20
214.8780410972
 30
0.0
 11
177.098924835
 21
164.9681026749
 31
0.0
 70
   160
  1
<>
  3
SLDDIMSTYLE1
 13
160.0536568936
 23
107.6180410972
 33
0.0
 14
160.0536568936
 24
214.8780410972
 34
0.0
 50
90.0
  0
DIMENSION
  5
140
  8
LEVEL0
  2
_D_6
 10
156.5536568936
 20
89.8240911951
 30
0.0
 11
98.1315284732
 21
89.8240911951
 31
0.0
 70
   160
  1
<>
  3
SLDDIMSTYLE1
 13
49.2936568936
 23
104.1180410972
 33
0.0
 14
156.5536568936
 24
104.1180410972
 34
0.0
  0
INSERT
  5
15A
  8
LEVEL0
  2
SW_NOTE_0
 10
50.0283913352
 20
215.5563959456
 30
0.0
  0
INSERT
  5
161
  8
LEVEL0
  2
SW_NOTE_0_1
 10
31.363891455
 20
264.6466306374
 30
0.0
  0
INSERT
  5
16D
  8
LEVEL0
  2
SW_CENTERMARKSYMBOL_0
 10
49.2936568936
 20
214.8780410972
 30
0.0
  0
INSERT
  5
179
  8
LEVEL0
  2
SW_CENTERMARKSYMBOL_1
 10
156.5536568936
 20
214.8780410972
 30
0.0
  0
INSERT
  5
185
  8
LEVEL0
  2
SW_CENTERMARKSYMBOL_2
 10
156.5536568936
 20
107.6180410972
 30
0.0
  0
INSERT
  5
191
  8
LEVEL0
  2
SW_CENTERMARKSYMBOL_3
 10
49.2936568936
 20
107.6180410972
 30
0.0
  0
ENDSEC
  0
EOF
