  0
SECTION
  2
HEADER
  9
$ACADVER
  1
AC1009
  9
$DWGCODEPAGE
  3
ansi_1252
  9
$INSBASE
 10
0.0
 20
0.0
 30
0.0
  9
$EXTMIN
 10
0.0
 20
0.0
 30
0.0
  9
$EXTMAX
 10
210.0
 20
297.0
 30
0.0
  9
$LIMMIN
 10
0.0
 20
0.0
  9
$LIMMAX
 10
210.0
 20
297.0
  9
$ORTHOMODE
 70
     0
  9
$REGENMODE
 70
     1
  9
$FILLMODE
 70
     1
  9
$QTEXTMODE
 70
     0
  9
$MIRRTEXT
 70
     1
  9
$DRAGMODE
 70
     2
  9
$LTSCALE
 40
1.0
  9
$OSMODE
 70
    37
  9
$ATTMODE
 70
     1
  9
$TEXTSIZE
 40
2.0
  9
$TRACEWID
 40
1.0
  9
$TEXTSTYLE
  7
STANDARD
  9
$CLAYER
  8
0
  9
$CELTYPE
  6
BYLAYER
  9
$CECOLOR
 62
   256
  9
$DIMSCALE
 40
1.0
  9
$DIMASZ
 40
2.0
  9
$DIMEXO
 40
1.0
  9
$DIMDLI
 40
3.75
  9
$DIMRND
 40
0.0
  9
$DIMDLE
 40
0.0
  9
$DIMEXE
 40
1.0
  9
$DIMTP
 40
0.0
  9
$DIMTM
 40
0.0
  9
$DIMTXT
 40
2.0
  9
$DIMCEN
 40
2.5
  9
$DIMTSZ
 40
0.0
  9
$DIMTOL
 70
     0
  9
$DIMLIM
 70
     0
  9
$DIMTIH
 70
     1
  9
$DIMTOH
 70
     1
  9
$DIMSE1
 70
     0
  9
$DIMSE2
 70
     0
  9
$DIMTAD
 70
     1
  9
$DIMZIN
 70
     0
  9
$DIMBLK
  1

  9
$DIMASO
 70
     1
  9
$DIMSHO
 70
     1
  9
$DIMPOST
  1

  9
$DIMAPOST
  1

  9
$DIMALT
 70
     0
  9
$DIMALTD
 70
     3
  9
$DIMALTF
 40
0.0393700787
  9
$DIMLFAC
 40
1.0
  9
$DIMTOFL
 70
     1
  9
$DIMTVP
 40
0.0
  9
$DIMTIX
 70
     0
  9
$DIMSOXD
 70
     0
  9
$DIMSAH
 70
     0
  9
$DIMBLK1
  1

  9
$DIMBLK2
  1

  9
$DIMSTYLE
  2
ISO-25
  9
$DIMCLRD
 70
     0
  9
$DIMCLRE
 70
     0
  9
$DIMCLRT
 70
     0
  9
$DIMTFAC
 40
1.0
  9
$DIMGAP
 40
1.524
  9
$LUNITS
 70
     2
  9
$LUPREC
 70
     2
  9
$SKETCHINC
 40
1.0
  9
$FILLETRAD
 40
10.0
  9
$AUNITS
 70
     0
  9
$AUPREC
 70
     2
  9
$MENU
  1
.
  9
$ELEVATION
 40
0.0
  9
$PELEVATION
 40
0.0
  9
$THICKNESS
 40
0.0
  9
$LIMCHECK
 70
     0
  9
$CHAMFERA
 40
0.0
  9
$CHAMFERB
 40
0.0
  9
$SKPOLY
 70
     0
  9
$TDCREATE
 40
2459366.706458623
  9
$TDUPDATE
 40
2459366.706464294
  9
$TDINDWG
 40
0.0000000116
  9
$TDUSRTIMER
 40
0.0000000116
  9
$USRTIMER
 70
     1
  9
$ANGBASE
 50
0.0
  9
$ANGDIR
 70
     0
  9
$PDMODE
 70
     0
  9
$PDSIZE
 40
-1.0
  9
$PLINEWID
 40
0.0
  9
$COORDS
 70
     1
  9
$SPLFRAME
 70
     0
  9
$SPLINETYPE
 70
     6
  9
$SPLINESEGS
 70
     8
  9
$ATTDIA
 70
     0
  9
$ATTREQ
 70
     1
  9
$HANDLING
 70
     1
  9
$HANDSEED
  5
18F
  9
$SURFTAB1
 70
     6
  9
$SURFTAB2
 70
     6
  9
$SURFTYPE
 70
     6
  9
$SURFU
 70
     6
  9
$SURFV
 70
     6
  9
$UCSNAME
  2

  9
$UCSORG
 10
0.0
 20
0.0
 30
0.0
  9
$UCSXDIR
 10
1.0
 20
0.0
 30
0.0
  9
$UCSYDIR
 10
0.0
 20
1.0
 30
0.0
  9
$PUCSNAME
  2

  9
$PUCSORG
 10
0.0
 20
0.0
 30
0.0
  9
$PUCSXDIR
 10
1.0
 20
0.0
 30
0.0
  9
$PUCSYDIR
 10
0.0
 20
1.0
 30
0.0
  9
$USERI1
 70
     0
  9
$USERI2
 70
     0
  9
$USERI3
 70
     0
  9
$USERI4
 70
     0
  9
$USERI5
 70
     0
  9
$USERR1
 40
0.0
  9
$USERR2
 40
0.0
  9
$USERR3
 40
0.0
  9
$USERR4
 40
0.0
  9
$USERR5
 40
0.0
  9
$WORLDVIEW
 70
     1
  9
$SHADEDGE
 70
     3
  9
$SHADEDIF
 70
    70
  9
$TILEMODE
 70
     1
  9
$MAXACTVP
 70
    64
  9
$PLIMCHECK
 70
     0
  9
$PEXTMIN
 10
1.0000000000E+20
 20
1.0000000000E+20
 30
1.0000000000E+20
  9
$PEXTMAX
 10
-1.0000000000E+20
 20
-1.0000000000E+20
 30
-1.0000000000E+20
  9
$PLIMMIN
 10
0.0
 20
0.0
  9
$PLIMMAX
 10
420.0
 20
297.0
  9
$UNITMODE
 70
     0
  9
$VISRETAIN
 70
     1
  9
$PLINEGEN
 70
     0
  9
$PSLTSCALE
 70
     1
  0
ENDSEC
  0
SECTION
  2
TABLES
  0
TABLE
  2
VPORT
 70
     1
  0
VPORT
  2
*ACTIVE
 70
     0
 10
0.0
 20
0.0
 11
1.0
 21
1.0
 12
105.0
 22
148.5
 13
0.0
 23
0.0
 14
10.0
 24
10.0
 15
10.0
 25
10.0
 16
0.0
 26
0.0
 36
1.0
 17
0.0
 27
0.0
 37
0.0
 40
297.0
 41
0.7070707071
 42
50.0
 43
0.0
 44
0.0
 50
0.0
 51
0.0
 71
     0
 72
  2000
 73
     1
 74
     3
 75
     0
 76
     0
 77
     0
 78
     0
  0
ENDTAB
  0
TABLE
  2
LTYPE
 70
     6
  0
LTYPE
  2
CONTINUOUS
 70
     0
  3
Solid line
 72
    65
 73
     0
 40
0.0
  0
LTYPE
  2
HIDDEN
 70
     0
  3
Hidden __ __ __ __ __ __ __ __ __ __ __ __ __ __
 72
    65
 73
     2
 40
1.905
 49
1.27
 49
-0.635
  0
LTYPE
  2
PHANTOM
 70
     0
  3
Phantom ______  __  __  ______  __  __  ______
 72
    65
 73
     6
 40
12.7
 49
6.35
 49
-1.27
 49
1.27
 49
-1.27
 49
1.27
 49
-1.27
  0
LTYPE
  2
CENTER
 70
     0
  3
Center ____ _ ____ _ ____ _ ____ _ ____ _ ____
 72
    65
 73
     4
 40
10.16
 49
6.35
 49
-1.27
 49
1.27
 49
-1.27
  0
LTYPE
  2
CENTERX2
 70
     0
  3
Center (2x) ________  __  ________  __  _____
 72
    65
 73
     4
 40
20.32
 49
12.7
 49
-2.54
 49
2.54
 49
-2.54
  0
LTYPE
  2
DOT2
 70
     0
  3
Dot (.5x) ........................................
 72
    65
 73
     2
 40
0.635
 49
0.0
 49
-0.635
  0
ENDTAB
  0
TABLE
  2
LAYER
 70
    53
  0
LAYER
  2
0
 70
     0
 62
     7
  6
CONTINUOUS
  0
LAYER
  2
SLD-0
 70
     0
 62
     7
  6
CONTINUOUS
  0
LAYER
  2
LEVEL0
 70
     0
 62
     7
  6
CONTINUOUS
  0
LAYER
  2
1
 70
     0
 62
     7
  6
CONTINUOUS
  0
LAYER
  2
2
 70
     0
 62
     7
  6
CONTINUOUS
  0
LAYER
  2
3
 70
     0
 62
     7
  6
CONTINUOUS
  0
LAYER
  2
4
 70
     0
 62
     7
  6
CONTINUOUS
  0
LAYER
  2
5
 70
     0
 62
     7
  6
CONTINUOUS
  0
LAYER
  2
6
 70
     0
 62
     7
  6
CONTINUOUS
  0
LAYER
  2
7
 70
     0
 62
     7
  6
CONTINUOUS
  0
LAYER
  2
8
 70
     0
 62
     7
  6
CONTINUOUS
  0
LAYER
  2
9
 70
     0
 62
     7
  6
CONTINUOUS
  0
LAYER
  2
10
 70
     0
 62
     7
  6
CONTINUOUS
  0
LAYER
  2
11
 70
     0
 62
     7
  6
CONTINUOUS
  0
LAYER
  2
12
 70
     0
 62
     7
  6
CONTINUOUS
  0
LAYER
  2
13
 70
     0
 62
     7
  6
CONTINUOUS
  0
LAYER
  2
14
 70
     0
 62
     7
  6
CONTINUOUS
  0
LAYER
  2
15
 70
     0
 62
     7
  6
CONTINUOUS
  0
LAYER
  2
16
 70
     0
 62
     7
  6
CONTINUOUS
  0
LAYER
  2
17
 70
     0
 62
     7
  6
CONTINUOUS
  0
LAYER
  2
18
 70
     0
 62
     7
  6
CONTINUOUS
  0
LAYER
  2
19
 70
     0
 62
     7
  6
CONTINUOUS
  0
LAYER
  2
20
 70
     0
 62
     7
  6
CONTINUOUS
  0
LAYER
  2
21
 70
     0
 62
     7
  6
CONTINUOUS
  0
LAYER
  2
22
 70
     0
 62
     7
  6
CONTINUOUS
  0
LAYER
  2
23
 70
     0
 62
     7
  6
CONTINUOUS
  0
LAYER
  2
24
 70
     0
 62
     7
  6
CONTINUOUS
  0
LAYER
  2
25
 70
     0
 62
     7
  6
CONTINUOUS
  0
LAYER
  2
26
 70
     0
 62
     7
  6
CONTINUOUS
  0
LAYER
  2
27
 70
     0
 62
     7
  6
CONTINUOUS
  0
LAYER
  2
28
 70
     0
 62
     7
  6
CONTINUOUS
  0
LAYER
  2
29
 70
     0
 62
     7
  6
CONTINUOUS
  0
LAYER
  2
30
 70
     0
 62
     7
  6
CONTINUOUS
  0
LAYER
  2
31
 70
     0
 62
     7
  6
CONTINUOUS
  0
LAYER
  2
32
 70
     0
 62
     7
  6
CONTINUOUS
  0
LAYER
  2
33
 70
     0
 62
     7
  6
CONTINUOUS
  0
LAYER
  2
34
 70
     0
 62
     7
  6
CONTINUOUS
  0
LAYER
  2
35
 70
     0
 62
     7
  6
CONTINUOUS
  0
LAYER
  2
36
 70
     0
 62
     7
  6
CONTINUOUS
  0
LAYER
  2
37
 70
     0
 62
     7
  6
CONTINUOUS
  0
LAYER
  2
38
 70
     0
 62
     7
  6
CONTINUOUS
  0
LAYER
  2
39
 70
     0
 62
     7
  6
CONTINUOUS
  0
LAYER
  2
40
 70
     0
 62
     7
  6
CONTINUOUS
  0
LAYER
  2
41
 70
     0
 62
     7
  6
CONTINUOUS
  0
LAYER
  2
42
 70
     0
 62
     7
  6
CONTINUOUS
  0
LAYER
  2
43
 70
     0
 62
     7
  6
CONTINUOUS
  0
LAYER
  2
44
 70
     0
 62
     7
  6
CONTINUOUS
  0
LAYER
  2
45
 70
     0
 62
     7
  6
CONTINUOUS
  0
LAYER
  2
46
 70
     0
 62
     7
  6
CONTINUOUS
  0
LAYER
  2
47
 70
     0
 62
     7
  6
CONTINUOUS
  0
LAYER
  2
48
 70
     0
 62
     7
  6
CONTINUOUS
  0
LAYER
  2
49
 70
     0
 62
     7
  6
CONTINUOUS
  0
LAYER
  2
50
 70
     0
 62
     7
  6
CONTINUOUS
  0
ENDTAB
  0
TABLE
  2
STYLE
 70
     1
  0
STYLE
  2
STANDARD
 70
     0
 40
0.0
 41
1.0
 50
0.0
 71
     0
 42
2.0
  3
txt
  4

  0
ENDTAB
  0
TABLE
  2
VIEW
 70
     0
  0
ENDTAB
  0
TABLE
  2
UCS
 70
     0
  0
ENDTAB
  0
TABLE
  2
APPID
 70
     1
  0
APPID
  2
ACAD
 70
     0
  0
ENDTAB
  0
TABLE
  2
DIMSTYLE
 70
     5
  0
DIMSTYLE
  2
ISO-25
 70
     0
  3

  4

  5

  6

  7

 40
1.0
 41
2.5
 42
0.625
 43
3.75
 44
1.25
 45
0.0
 46
0.0
 47
0.0
 48
0.0
140
2.5
141
2.5
142
0.0
143
0.0393700787
144
1.0
145
0.0
146
1.0
147
0.625
 71
     0
 72
     0
 73
     0
 74
     0
 75
     0
 76
     0
 77
     1
 78
     8
170
     0
171
     3
172
     1
173
     0
174
     0
175
     0
176
     0
177
     0
178
     0
  0
DIMSTYLE
  2
SLDDIMSTYLE0
 70
     0
  3

  4

  5

  6
CLOSED
  7
CLOSED
 40
1.0
 41
2.0
 42
0.0625
 43
0.38
 44
0.0
 45
0.000000001
 46
0.0
 47
0.3
 48
0.2
140
2.0
141
0.09
142
0.0
143
0.0393700787
144
1.0
145
0.0
146
1.0
147
0.5
 71
     1
 72
     0
 73
     0
 74
     0
 75
     0
 76
     0
 77
     1
 78
    12
170
     1
171
     2
172
     0
173
     1
174
     0
175
     0
176
     0
177
     0
178
     0
  0
DIMSTYLE
  2
SLDDIMSTYLE1
 70
     0
  3

  4

  5

  6
CLOSED
  7
CLOSED
 40
1.0
 41
2.0
 42
0.0625
 43
0.38
 44
0.0
 45
0.000000001
 46
0.0
 47
0.0
 48
0.0
140
2.0
141
0.09
142
0.0
143
0.0393700787
144
1.0
145
0.0
146
1.0
147
0.5
 71
     0
 72
     0
 73
     0
 74
     0
 75
     0
 76
     0
 77
     1
 78
    12
170
     1
171
     2
172
     0
173
     1
174
     0
175
     0
176
     0
177
     0
178
     0
  0
DIMSTYLE
  2
SLDDIMSTYLE2
 70
     0
  3

  4

  5

  6
CLOSED
  7
CLOSED
 40
1.0
 41
2.0
 42
0.0625
 43
0.38
 44
0.0
 45
0.000000001
 46
0.0
 47
0.0
 48
0.0
140
2.0
141
0.09
142
0.0
143
0.0393700787
144
1.0
145
0.0
146
1.0
147
0.5
 71
     0
 72
     0
 73
     0
 74
     0
 75
     0
 76
     0
 77
     1
 78
     4
170
     1
171
     2
172
     0
173
     1
174
     0
175
     0
176
     0
177
     0
178
     0
  0
DIMSTYLE
  2
SLDDIMSTYLE3
 70
     0
  3

  4

  5

  6
CLOSED
  7
CLOSED
 40
1.0
 41
2.0
 42
0.0625
 43
0.38
 44
0.0
 45
0.000000001
 46
0.0
 47
0.0
 48
0.0
140
2.0
141
0.0
142
0.0
143
0.0393700787
144
1.0
145
0.0
146
1.0
147
0.5
 71
     0
 72
     0
 73
     0
 74
     0
 75
     0
 76
     0
 77
     1
 78
     4
170
     1
171
     2
172
     0
173
     1
174
     0
175
     0
176
     0
177
     0
178
     0
  0
ENDTAB
  0
ENDSEC
  0
SECTION
  2
BLOCKS
  0
BLOCK
  8
0
  2
$MODEL_SPACE
 70
     0
 10
0.0
 20
0.0
 30
0.0
  3
$MODEL_SPACE
  1

  0
ENDBLK
  5
21
  8
0
  0
BLOCK
 67
     1
  8
0
  2
$PAPER_SPACE
 70
     0
 10
0.0
 20
0.0
 30
0.0
  3
$PAPER_SPACE
  1

  0
ENDBLK
  5
1D
 67
     1
  8
0
  0
BLOCK
  8
0
  2
SW_NOTE_0
 70
     0
 10
0.0
 20
0.0
 30
0.0
  3
SW_NOTE_0
  1

  0
TEXT
  5
AA
  8
LEVEL0
 62
     0
 10
0.0
 20
1.308534146
 30
0.0
 40
3.7041666667
  1
CUTOUT ROUTING TEMPLATE FOR METAL FINISH
 41
0.65625
 11
0.0
 21
0.0
 31
0.0
 73
     1
  0
TEXT
  5
AB
  8
LEVEL0
 62
     0
 10
0.0
 20
-10.5692438402
 30
0.0
 40
3.7041666667
  1
058-1-604
 41
0.7
 11
0.0
 21
-11.8777779862
 31
0.0
 73
     1
  0
TEXT
  5
AC
  8
LEVEL0
 62
     0
 10
0.0
 20
-22.4470218264
 30
0.0
 40
3.7041666667
  1
SCALE 1:1
 41
0.7
 11
0.0
 21
-23.7555559725
 31
0.0
 73
     1
  0
ENDBLK
  5
A9
  8
0
  0
BLOCK
  8
0
  2
_CLOSED
 70
     0
 10
0.0
 20
0.0
 30
0.0
  3
_CLOSED
  1

  0
LINE
  5
C0
  8
0
  6
BYBLOCK
 62
     0
 10
-1.0
 20
0.166667
 30
0.0
 11
0.0
 21
0.0
 31
0.0
  0
LINE
  5
C1
  8
0
  6
BYBLOCK
 62
     0
 10
0.0
 20
0.0
 30
0.0
 11
-1.0
 21
-0.166667
 31
0.0
  0
LINE
  5
C2
  8
0
  6
BYBLOCK
 62
     0
 10
-1.0
 20
0.166667
 30
0.0
 11
-1.0
 21
-0.166667
 31
0.0
  0
LINE
  5
C3
  8
0
  6
BYBLOCK
 62
     0
 10
0.0
 20
0.0
 30
0.0
 11
-1.0
 21
0.0
 31
0.0
  0
ENDBLK
  5
BF
  8
0
  0
BLOCK
  8
0
  2
_D
 70
     0
 10
0.0
 20
0.0
 30
0.0
  3
_D
  1

  0
INSERT
  5
C7
  8
LEVEL0
  2
_CLOSED
 10
57.76427135
 20
130.4927130135
 30
10.2
 41
2.0
 42
2.0
 50
180.0
  0
INSERT
  5
C8
  8
LEVEL0
  2
_CLOSED
 10
161.62427135
 20
130.4927130135
 30
10.2
 41
2.0
 42
2.0
 50
0.0
  0
LINE
  5
C9
  8
LEVEL0
 10
104.4756260007
 20
141.2434076796
 30
0.0
 11
103.8662509882
 21
141.2434076796
 31
0.0
  0
LINE
  5
CA
  8
LEVEL0
 10
103.8662509882
 20
141.2434076796
 30
0.0
 11
103.8662509882
 21
136.0711852926
 31
0.0
  0
LINE
  5
CB
  8
LEVEL0
 10
103.8662509882
 20
136.0711852926
 30
0.0
 11
104.4756260007
 21
136.0711852926
 31
0.0
  0
LINE
  5
CC
  8
LEVEL0
 10
117.1756249159
 20
141.2434076796
 30
0.0
 11
117.7849999285
 21
141.2434076796
 31
0.0
  0
LINE
  5
CD
  8
LEVEL0
 10
117.7849999285
 20
141.2434076796
 30
0.0
 11
117.7849999285
 21
136.0711852926
 31
0.0
  0
LINE
  5
CE
  8
LEVEL0
 10
117.7849999285
 20
136.0711852926
 30
0.0
 11
117.1756249159
 21
136.0711852926
 31
0.0
  0
LINE
  5
CF
  8
LEVEL0
 10
57.76427135
 20
130.4927130135
 30
0.0
 11
161.62427135
 21
130.4927130135
 31
0.0
  0
TEXT
  5
D0
  8
LEVEL0
 10
101.7790982505
 20
131.2297886669
 30
10.2
 40
2.0
  1
  
 41
0.7
 11
101.7790982505
 21
130.5232685431
 31
10.2
 73
     1
  0
TEXT
  5
D1
  8
LEVEL0
 10
104.4756260007
 20
136.8082609459
 30
10.2
 40
2.0
  1
4.1
 41
0.7
 11
104.4756260007
 21
136.1017408221
 31
10.2
 73
     1
  0
TEXT
  5
D2
  8
LEVEL0
 10
108.1700704299
 20
136.8082609459
 30
10.2
 40
2.0
  1
 
 41
0.7
 11
108.1700704299
 21
136.1017408221
 31
10.2
 73
     1
  0
TEXT
  5
D3
  8
LEVEL0
 10
108.9089589432
 20
139.3638166099
 30
10.2
 40
2.0
  1
+
 41
0.7
 11
108.9089589432
 21
138.6572964861
 31
10.2
 73
     1
  0
TEXT
  5
D4
  8
LEVEL0
 10
109.2742367246
 20
136.7777054164
 30
10.2
 40
2.0
  1
-
 41
0.7
 11
109.2742367246
 21
136.0711852926
 31
10.2
 73
     1
  0
TEXT
  5
D5
  8
LEVEL0
 10
110.525625968
 20
139.3638166099
 30
10.2
 40
2.0
  1
0.012
 41
0.7
 11
110.525625968
 21
138.6572964861
 31
10.2
 73
     1
  0
TEXT
  5
D6
  8
LEVEL0
 10
110.525625968
 20
136.7777054164
 30
10.2
 40
2.0
  1
0.008
 41
0.7
 11
110.525625968
 21
136.0711852926
 31
10.2
 73
     1
  0
TEXT
  5
D7
  8
LEVEL0
 10
103.7367366725
 20
131.1992326717
 30
10.2
 40
2.0
  1
103.86
 41
0.7
 11
103.7367366725
 21
130.4927125479
 31
10.2
 73
     1
  0
TEXT
  5
D8
  8
LEVEL0
 10
111.8645145098
 20
131.1992326717
 30
10.2
 40
2.0
  1
 
 41
0.7
 11
111.8645145098
 21
130.4927125479
 31
10.2
 73
     1
  0
TEXT
  5
D9
  8
LEVEL0
 10
112.6034025574
 20
133.7853438652
 30
10.2
 40
2.0
  1
+
 41
0.7
 11
112.6034025574
 21
133.0788237414
 31
10.2
 73
     1
  0
TEXT
  5
DA
  8
LEVEL0
 10
112.9686803388
 20
131.1992326717
 30
10.2
 40
2.0
  1
-
 41
0.7
 11
112.9686803388
 21
130.4927125479
 31
10.2
 73
     1
  0
TEXT
  5
DB
  8
LEVEL0
 10
114.2200695822
 20
133.7853438652
 30
10.2
 40
2.0
  1
0.3
 41
0.7
 11
114.2200695822
 21
133.0788237414
 31
10.2
 73
     1
  0
TEXT
  5
DC
  8
LEVEL0
 10
114.2200695822
 20
131.1992326717
 30
10.2
 40
2.0
  1
0.2
 41
0.7
 11
114.2200695822
 21
130.4927125479
 31
10.2
 73
     1
  0
TEXT
  5
DD
  8
LEVEL0
 10
118.3943754067
 20
131.2297886669
 30
10.2
 40
2.0
  1
  
 41
0.7
 11
118.3943754067
 21
130.5232685431
 31
10.2
 73
     1
  0
ENDBLK
  5
C6
  8
0
  0
BLOCK
  8
0
  2
_D_1
 70
     0
 10
0.0
 20
0.0
 30
0.0
  3
_D_1
  1

  0
INSERT
  5
E2
  8
LEVEL0
  2
_CLOSED
 10
141.2119255311
 20
104.5687490907
 30
10.2
 41
2.0
 42
2.0
 50
270.0
  0
INSERT
  5
E3
  8
LEVEL0
  2
_CLOSED
 10
141.2119255311
 20
200.9987490907
 30
10.2
 41
2.0
 42
2.0
 50
90.0
  0
LINE
  5
E4
  8
LEVEL0
 10
130.461230865
 20
164.052936592
 30
0.0
 11
130.461230865
 21
163.4435615794
 31
0.0
  0
LINE
  5
E5
  8
LEVEL0
 10
130.461230865
 20
163.4435615794
 30
0.0
 11
135.6334532521
 21
163.4435615794
 31
0.0
  0
LINE
  5
E6
  8
LEVEL0
 10
135.6334532521
 20
163.4435615794
 30
0.0
 11
135.6334532521
 21
164.052936592
 31
0.0
  0
LINE
  5
E7
  8
LEVEL0
 10
130.461230865
 20
176.7529355072
 30
0.0
 11
130.461230865
 21
177.3623105198
 31
0.0
  0
LINE
  5
E8
  8
LEVEL0
 10
130.461230865
 20
177.3623105198
 30
0.0
 11
135.6334532521
 21
177.3623105198
 31
0.0
  0
LINE
  5
E9
  8
LEVEL0
 10
135.6334532521
 20
177.3623105198
 30
0.0
 11
135.6334532521
 21
176.7529355072
 31
0.0
  0
LINE
  5
EA
  8
LEVEL0
 10
141.2119255311
 20
104.5687490907
 30
0.0
 11
141.2119255311
 21
200.9987490907
 31
0.0
  0
TEXT
  5
EB
  8
LEVEL0
 10
140.4748498777
 20
161.3564088418
 30
10.2
 40
2.0
  1
  
 50
90.0
 41
0.7
 11
141.1813700016
 21
161.3564088418
 31
10.2
 73
     1
  0
TEXT
  5
EC
  8
LEVEL0
 10
134.8963775987
 20
164.052936592
 30
10.2
 40
2.0
  1
3.8
 50
90.0
 41
0.7
 11
135.6028977225
 21
164.052936592
 31
10.2
 73
     1
  0
TEXT
  5
ED
  8
LEVEL0
 10
134.8963775987
 20
167.7473810211
 30
10.2
 40
2.0
  1
 
 50
90.0
 41
0.7
 11
135.6028977225
 21
167.7473810211
 31
10.2
 73
     1
  0
TEXT
  5
EE
  8
LEVEL0
 10
132.3408219347
 20
168.4862695344
 30
10.2
 40
2.0
  1
+
 50
90.0
 41
0.7
 11
133.0473420585
 21
168.4862695344
 31
10.2
 73
     1
  0
TEXT
  5
EF
  8
LEVEL0
 10
134.9269331282
 20
168.8515473158
 30
10.2
 40
2.0
  1
-
 50
90.0
 41
0.7
 11
135.6334532521
 21
168.8515473158
 31
10.2
 73
     1
  0
TEXT
  5
F0
  8
LEVEL0
 10
132.3408219347
 20
170.1029365592
 30
10.2
 40
2.0
  1
0.012
 50
90.0
 41
0.7
 11
133.0473420585
 21
170.1029365592
 31
10.2
 73
     1
  0
TEXT
  5
F1
  8
LEVEL0
 10
134.9269331282
 20
170.1029365592
 30
10.2
 40
2.0
  1
0.008
 50
90.0
 41
0.7
 11
135.6334532521
 21
170.1029365592
 31
10.2
 73
     1
  0
TEXT
  5
F2
  8
LEVEL0
 10
140.5054058729
 20
164.0529362428
 30
10.2
 40
2.0
  1
96.43
 50
90.0
 41
0.7
 11
141.2119259967
 21
164.0529362428
 31
10.2
 73
     1
  0
TEXT
  5
F3
  8
LEVEL0
 10
140.5054058729
 20
170.7029361221
 30
10.2
 40
2.0
  1
 
 50
90.0
 41
0.7
 11
141.2119259967
 21
170.7029361221
 31
10.2
 73
     1
  0
TEXT
  5
F4
  8
LEVEL0
 10
137.9192946794
 20
171.441825101
 30
10.2
 40
2.0
  1
+
 50
90.0
 41
0.7
 11
138.6258148032
 21
171.441825101
 31
10.2
 73
     1
  0
TEXT
  5
F5
  8
LEVEL0
 10
140.5054058729
 20
171.8071028824
 30
10.2
 40
2.0
  1
-
 50
90.0
 41
0.7
 11
141.2119259967
 21
171.8071028824
 31
10.2
 73
     1
  0
TEXT
  5
F6
  8
LEVEL0
 10
137.9192946794
 20
173.0584911945
 30
10.2
 40
2.0
  1
0.3
 50
90.0
 41
0.7
 11
138.6258148032
 21
173.0584911945
 31
10.2
 73
     1
  0
TEXT
  5
F7
  8
LEVEL0
 10
140.5054058729
 20
173.0584911945
 30
10.2
 40
2.0
  1
0.2
 50
90.0
 41
0.7
 11
141.2119259967
 21
173.0584911945
 31
10.2
 73
     1
  0
TEXT
  5
F8
  8
LEVEL0
 10
140.4748498777
 20
177.971685998
 30
10.2
 40
2.0
  1
  
 50
90.0
 41
0.7
 11
141.1813700016
 21
177.971685998
 31
10.2
 73
     1
  0
ENDBLK
  5
E1
  8
0
  0
BLOCK
  8
0
  2
_D_2
 70
     0
 10
0.0
 20
0.0
 30
0.0
  3
_D_2
  1

  0
INSERT
  5
FE
  8
LEVEL0
  2
_CLOSED
 10
50.16427135
 20
220.0184808098
 30
10.2
 41
2.0
 42
2.0
 50
180.0
  0
INSERT
  5
FF
  8
LEVEL0
  2
_CLOSED
 10
169.22427135
 20
220.0184808098
 30
10.2
 41
2.0
 42
2.0
 50
0.0
  0
LINE
  5
100
  8
LEVEL0
 10
108.9784034766
 20
226.185841857
 30
0.0
 11
108.369028464
 21
226.185841857
 31
0.0
  0
LINE
  5
101
  8
LEVEL0
 10
108.369028464
 20
226.185841857
 30
0.0
 11
108.369028464
 21
223.0108418953
 31
0.0
  0
LINE
  5
102
  8
LEVEL0
 10
108.369028464
 20
223.0108418953
 30
0.0
 11
108.9784034766
 21
223.0108418953
 31
0.0
  0
LINE
  5
103
  8
LEVEL0
 10
112.6728476729
 20
226.185841857
 30
0.0
 11
113.2822226855
 21
226.185841857
 31
0.0
  0
LINE
  5
104
  8
LEVEL0
 10
113.2822226855
 20
226.185841857
 30
0.0
 11
113.2822226855
 21
223.0108418953
 31
0.0
  0
LINE
  5
105
  8
LEVEL0
 10
113.2822226855
 20
223.0108418953
 30
0.0
 11
112.6728476729
 21
223.0108418953
 31
0.0
  0
LINE
  5
106
  8
LEVEL0
 10
50.16427135
 20
213.0987490907
 30
0.0
 11
50.16427135
 21
221.0184808098
 31
0.0
  0
LINE
  5
107
  8
LEVEL0
 10
169.22427135
 20
213.0987490907
 30
0.0
 11
169.22427135
 21
221.0184808098
 31
0.0
  0
LINE
  5
108
  8
LEVEL0
 10
50.16427135
 20
220.0184808098
 30
0.0
 11
169.22427135
 21
220.0184808098
 31
0.0
  0
TEXT
  5
109
  8
LEVEL0
 10
105.2839589311
 20
220.7555564632
 30
10.2
 40
2.0
  1
  
 41
0.7
 11
105.2839589311
 21
220.0490363394
 31
10.2
 73
     1
  0
TEXT
  5
10A
  8
LEVEL0
 10
108.9784034766
 20
223.7173620192
 30
10.2
 40
2.0
  1
4.7
 41
0.7
 11
108.9784034766
 21
223.0108418953
 31
10.2
 73
     1
  0
TEXT
  5
10B
  8
LEVEL0
 10
106.7617366562
 20
220.7250007009
 30
10.2
 40
2.0
  1
119.06
 41
0.7
 11
106.7617366562
 21
220.018480577
 31
10.2
 73
     1
  0
TEXT
  5
10C
  8
LEVEL0
 10
114.8895147262
 20
220.7555564632
 30
10.2
 40
2.0
  1
  
 41
0.7
 11
114.8895147262
 21
220.0490363394
 31
10.2
 73
     1
  0
ENDBLK
  5
FD
  8
0
  0
BLOCK
  8
0
  2
_D_3
 70
     0
 10
0.0
 20
0.0
 30
0.0
  3
_D_3
  1

  0
INSERT
  5
111
  8
LEVEL0
  2
_CLOSED
 10
38.9430813893
 20
208.5987490907
 30
10.2
 41
2.0
 42
2.0
 50
90.0
  0
INSERT
  5
112
  8
LEVEL0
  2
_CLOSED
 10
38.9430813893
 20
96.9687490907
 30
10.2
 41
2.0
 42
2.0
 50
270.0
  0
LINE
  5
113
  8
LEVEL0
 10
32.7757203422
 20
156.1619665531
 30
0.0
 11
32.7757203422
 21
155.5525915405
 31
0.0
  0
LINE
  5
114
  8
LEVEL0
 10
32.7757203422
 20
155.5525915405
 30
0.0
 11
35.9507203038
 21
155.5525915405
 31
0.0
  0
LINE
  5
115
  8
LEVEL0
 10
35.9507203038
 20
155.5525915405
 30
0.0
 11
35.9507203038
 21
156.1619665531
 31
0.0
  0
LINE
  5
116
  8
LEVEL0
 10
32.7757203422
 20
159.8564107494
 30
0.0
 11
32.7757203422
 21
160.4657857619
 31
0.0
  0
LINE
  5
117
  8
LEVEL0
 10
32.7757203422
 20
160.4657857619
 30
0.0
 11
35.9507203038
 21
160.4657857619
 31
0.0
  0
LINE
  5
118
  8
LEVEL0
 10
35.9507203038
 20
160.4657857619
 30
0.0
 11
35.9507203038
 21
159.8564107494
 31
0.0
  0
LINE
  5
119
  8
LEVEL0
 10
45.66427135
 20
208.5987490907
 30
0.0
 11
37.9430813893
 21
208.5987490907
 31
0.0
  0
LINE
  5
11A
  8
LEVEL0
 10
45.66427135
 20
96.9687490907
 30
0.0
 11
37.9430813893
 21
96.9687490907
 31
0.0
  0
LINE
  5
11B
  8
LEVEL0
 10
38.9430813893
 20
208.5987490907
 30
0.0
 11
38.9430813893
 21
96.9687490907
 31
0.0
  0
TEXT
  5
11C
  8
LEVEL0
 10
38.206005736
 20
152.4675220075
 30
10.2
 40
2.0
  1
  
 50
90.0
 41
0.7
 11
38.9125258598
 21
152.4675220075
 31
10.2
 73
     1
  0
TEXT
  5
11D
  8
LEVEL0
 10
35.24420018
 20
156.1619665531
 30
10.2
 40
2.0
  1
4.4
 50
90.0
 41
0.7
 11
35.9507203038
 21
156.1619665531
 31
10.2
 73
     1
  0
TEXT
  5
11E
  8
LEVEL0
 10
38.2365614983
 20
153.9452997326
 30
10.2
 40
2.0
  1
111.63
 50
90.0
 41
0.7
 11
38.9430816222
 21
153.9452997326
 31
10.2
 73
     1
  0
TEXT
  5
11F
  8
LEVEL0
 10
38.206005736
 20
162.0730778027
 30
10.2
 40
2.0
  1
  
 50
90.0
 41
0.7
 11
38.9125258598
 21
162.0730778027
 31
10.2
 73
     1
  0
ENDBLK
  5
110
  8
0
  0
BLOCK
  8
0
  2
_D_4
 70
     0
 10
0.0
 20
0.0
 30
0.0
  3
_D_4
  1

  0
INSERT
  5
125
  8
LEVEL0
  2
_CLOSED
 10
54.0479089097
 20
96.9687490907
 30
10.2
 41
2.0
 42
2.0
 50
270.0
  0
INSERT
  5
126
  8
LEVEL0
  2
_CLOSED
 10
54.0479089097
 20
104.5687490907
 30
10.2
 41
2.0
 42
2.0
 50
90.0
  0
LINE
  5
127
  8
LEVEL0
 10
47.8805478626
 20
115.3524325506
 30
0.0
 11
47.8805478626
 21
114.743057538
 31
0.0
  0
LINE
  5
128
  8
LEVEL0
 10
47.8805478626
 20
114.743057538
 30
0.0
 11
51.0555478242
 21
114.743057538
 31
0.0
  0
LINE
  5
129
  8
LEVEL0
 10
51.0555478242
 20
114.743057538
 30
0.0
 11
51.0555478242
 21
115.3524325506
 31
0.0
  0
LINE
  5
12A
  8
LEVEL0
 10
47.8805478626
 20
119.0468767469
 30
0.0
 11
47.8805478626
 21
119.6562517595
 31
0.0
  0
LINE
  5
12B
  8
LEVEL0
 10
47.8805478626
 20
119.6562517595
 30
0.0
 11
51.0555478242
 21
119.6562517595
 31
0.0
  0
LINE
  5
12C
  8
LEVEL0
 10
51.0555478242
 20
119.6562517595
 30
0.0
 11
51.0555478242
 21
119.0468767469
 31
0.0
  0
LINE
  5
12D
  8
LEVEL0
 10
54.66427135
 20
96.9687490907
 30
0.0
 11
55.0479089097
 21
96.9687490907
 31
0.0
  0
LINE
  5
12E
  8
LEVEL0
 10
58.16427135
 20
104.5687490907
 30
0.0
 11
53.0479089097
 21
104.5687490907
 31
0.0
  0
LINE
  5
12F
  8
LEVEL0
 10
54.0479089097
 20
96.9687490907
 30
0.0
 11
54.0479089097
 21
104.5687490907
 31
0.0
  0
LINE
  5
130
  8
LEVEL0
 10
54.0479089097
 20
104.5687490907
 30
0.0
 11
54.0479089097
 21
121.7434049628
 31
0.0
  0
TEXT
  5
131
  8
LEVEL0
 10
53.3108332564
 20
112.6559048004
 30
10.2
 40
2.0
  1
  
 50
90.0
 41
0.7
 11
54.0173533802
 21
112.6559048004
 31
10.2
 73
     1
  0
TEXT
  5
132
  8
LEVEL0
 10
50.3490277004
 20
115.3524325506
 30
10.2
 40
2.0
  1
0.3
 50
90.0
 41
0.7
 11
51.0555478242
 21
115.3524325506
 31
10.2
 73
     1
  0
TEXT
  5
133
  8
LEVEL0
 10
53.3413890187
 20
114.6135436881
 30
10.2
 40
2.0
  1
7.60
 50
90.0
 41
0.7
 11
54.0479091426
 21
114.6135436881
 31
10.2
 73
     1
  0
TEXT
  5
134
  8
LEVEL0
 10
53.3108332564
 20
120.2656270049
 30
10.2
 40
2.0
  1
  
 50
90.0
 41
0.7
 11
54.0173533802
 21
120.2656270049
 31
10.2
 73
     1
  0
ENDBLK
  5
124
  8
0
  0
BLOCK
  8
0
  2
_D_5
 70
     0
 10
0.0
 20
0.0
 30
0.0
  3
_D_5
  1

  0
INSERT
  5
139
  8
LEVEL0
  2
_CLOSED
 10
50.16427135
 20
204.3836593414
 30
10.2
 41
2.0
 42
2.0
 50
180.0
  0
INSERT
  5
13A
  8
LEVEL0
  2
_CLOSED
 10
57.76427135
 20
204.3836593414
 30
10.2
 41
2.0
 42
2.0
 50
0.0
  0
LINE
  5
13B
  8
LEVEL0
 10
67.0405171251
 20
210.5510203885
 30
0.0
 11
66.4311421125
 21
210.5510203885
 31
0.0
  0
LINE
  5
13C
  8
LEVEL0
 10
66.4311421125
 20
210.5510203885
 30
0.0
 11
66.4311421125
 21
207.3760204269
 31
0.0
  0
LINE
  5
13D
  8
LEVEL0
 10
66.4311421125
 20
207.3760204269
 30
0.0
 11
67.0405171251
 21
207.3760204269
 31
0.0
  0
LINE
  5
13E
  8
LEVEL0
 10
70.7349613214
 20
210.5510203885
 30
0.0
 11
71.344336334
 21
210.5510203885
 31
0.0
  0
LINE
  5
13F
  8
LEVEL0
 10
71.344336334
 20
210.5510203885
 30
0.0
 11
71.344336334
 21
207.3760204269
 31
0.0
  0
LINE
  5
140
  8
LEVEL0
 10
71.344336334
 20
207.3760204269
 30
0.0
 11
70.7349613214
 21
207.3760204269
 31
0.0
  0
LINE
  5
141
  8
LEVEL0
 10
50.16427135
 20
204.0987490907
 30
0.0
 11
50.16427135
 21
203.3836593414
 31
0.0
  0
LINE
  5
142
  8
LEVEL0
 10
57.76427135
 20
200.5987490907
 30
0.0
 11
57.76427135
 21
205.3836593414
 31
0.0
  0
LINE
  5
143
  8
LEVEL0
 10
50.16427135
 20
204.3836593414
 30
0.0
 11
57.76427135
 21
204.3836593414
 31
0.0
  0
LINE
  5
144
  8
LEVEL0
 10
57.76427135
 20
204.3836593414
 30
0.0
 11
73.4314895373
 21
204.3836593414
 31
0.0
  0
TEXT
  5
145
  8
LEVEL0
 10
64.3439893749
 20
205.1207349947
 30
10.2
 40
2.0
  1
  
 41
0.7
 11
64.3439893749
 21
204.4142148709
 31
10.2
 73
     1
  0
TEXT
  5
146
  8
LEVEL0
 10
67.0405171251
 20
208.0825405507
 30
10.2
 40
2.0
  1
0.3
 41
0.7
 11
67.0405171251
 21
207.3760204269
 31
10.2
 73
     1
  0
TEXT
  5
147
  8
LEVEL0
 10
66.3016282625
 20
205.0901792324
 30
10.2
 40
2.0
  1
7.60
 41
0.7
 11
66.3016282625
 21
204.3836591085
 31
10.2
 73
     1
  0
TEXT
  5
148
  8
LEVEL0
 10
71.9537115794
 20
205.1207349947
 30
10.2
 40
2.0
  1
  
 41
0.7
 11
71.9537115794
 21
204.4142148709
 31
10.2
 73
     1
  0
ENDBLK
  5
138
  8
0
  0
BLOCK
  8
0
  2
_D_6
 70
     0
 10
0.0
 20
0.0
 30
0.0
  3
_D_6
  1

  0
INSERT
  5
14E
  8
LEVEL0
  2
_CLOSED
 10
58.1743218564
 20
200.5886985844
 30
10.2
 41
2.0
 42
2.0
 50
134.8088389571
  0
LINE
  5
14F
  8
LEVEL0
 10
73.1874614737
 20
194.2013853359
 30
0.0
 11
72.75656827
 21
194.6322785396
 31
0.0
  0
LINE
  5
150
  8
LEVEL0
 10
72.75656827
 20
194.6322785396
 30
0.0
 11
70.5115042668
 21
192.3872145365
 31
0.0
  0
LINE
  5
151
  8
LEVEL0
 10
70.5115042668
 20
192.3872145365
 30
0.0
 11
70.9423974705
 21
191.9563213328
 31
0.0
  0
LINE
  5
152
  8
LEVEL0
 10
75.7998280176
 20
191.589018792
 30
0.0
 11
76.2307212212
 21
191.1581255883
 31
0.0
  0
LINE
  5
153
  8
LEVEL0
 10
76.2307212212
 20
191.1581255883
 30
0.0
 11
73.9856572181
 21
188.9130615852
 31
0.0
  0
LINE
  5
154
  8
LEVEL0
 10
73.9856572181
 20
188.9130615852
 30
0.0
 11
73.5547640144
 21
189.3439547889
 31
0.0
  0
LINE
  5
155
  8
LEVEL0
 10
58.1743218564
 20
200.5886985844
 30
0.0
 11
72.5338788516
 21
186.1330023211
 31
0.0
  0
TEXT
  5
156
  8
LEVEL0
 10
71.4419826411
 20
192.4559065034
 30
10.2
 40
2.0
  1
0.1
 50
315.0
 41
0.7
 11
70.9423974705
 21
191.9563213328
 31
10.2
 73
     1
  0
TEXT
  5
157
  8
LEVEL0
 10
68.2310300087
 20
191.4350211759
 30
10.2
 40
2.0
  1
R1.40
 50
315.0
 41
0.7
 11
67.7314448381
 21
190.9354360053
 31
10.2
 73
     1
  0
ENDBLK
  5
14D
  8
0
  0
BLOCK
  8
0
  2
SW_NOTE_0_1
 70
     0
 10
0.0
 20
0.0
 30
0.0
  3
SW_NOTE_0_1
  1

  0
TEXT
  5
15B
  8
LEVEL0
 62
     0
 10
-60.5346211585
 20
-18.8958124796
 30
0.0
 40
2.0
  1
MARK 4 SCREW POSITIONS
 41
0.6522727273
 11
-60.5346211585
 21
-19.6023326034
 31
0.0
 73
     1
  0
LINE
  5
15C
  8
LEVEL0
 62
     0
 10
-26.4607856858
 20
-17.7346166192
 30
0.0
 11
0.0
 21
0.0
 31
0.0
  0
SOLID
  5
15D
  8
LEVEL0
 62
     0
 10
0.0
 20
0.0
 30
0.0
 11
-1.8326746153
 21
-0.8578917825
 31
0.0
 12
-1.4900632303
 22
-1.3690822203
 32
0.0
 13
-1.4900632303
 23
-1.3690822203
 33
0.0
  0
ENDBLK
  5
15A
  8
0
  0
BLOCK
  8
0
  2
SW_CENTERMARKSYMBOL_0
 70
     0
 10
0.0
 20
0.0
 30
0.0
  3
SW_CENTERMARKSYMBOL_0
  1

  0
LINE
  5
162
  8
LEVEL0
 62
     0
 10
0.0
 20
0.0
 30
0.0
 11
0.0
 21
2.5
 31
0.0
  0
LINE
  5
163
  8
LEVEL0
 62
     0
 10
0.0
 20
0.0
 30
0.0
 11
-2.5
 21
0.0
 31
0.0
  0
LINE
  5
164
  8
LEVEL0
 62
     0
 10
0.0
 20
0.0
 30
0.0
 11
0.0
 21
-2.5
 31
0.0
  0
LINE
  5
165
  8
LEVEL0
 62
     0
 10
0.0
 20
0.0
 30
0.0
 11
2.5
 21
0.0
 31
0.0
  0
LINE
  5
166
  8
LEVEL0
 62
     0
 10
0.0
 20
2.5
 30
0.0
 11
0.0
 21
3.5
 31
0.0
  0
LINE
  5
167
  8
LEVEL0
 62
     0
 10
-2.5
 20
0.0
 30
0.0
 11
-3.5
 21
0.0
 31
0.0
  0
LINE
  5
168
  8
LEVEL0
 62
     0
 10
0.0
 20
-2.5
 30
0.0
 11
0.0
 21
-3.5
 31
0.0
  0
LINE
  5
169
  8
LEVEL0
 62
     0
 10
2.5
 20
0.0
 30
0.0
 11
3.5
 21
0.0
 31
0.0
  0
ENDBLK
  5
161
  8
0
  0
BLOCK
  8
0
  2
SW_CENTERMARKSYMBOL_1
 70
     0
 10
0.0
 20
0.0
 30
0.0
  3
SW_CENTERMARKSYMBOL_1
  1

  0
LINE
  5
16E
  8
LEVEL0
 62
     0
 10
0.0
 20
0.0
 30
0.0
 11
0.0
 21
2.5
 31
0.0
  0
LINE
  5
16F
  8
LEVEL0
 62
     0
 10
0.0
 20
0.0
 30
0.0
 11
-2.5
 21
0.0
 31
0.0
  0
LINE
  5
170
  8
LEVEL0
 62
     0
 10
0.0
 20
0.0
 30
0.0
 11
0.0
 21
-2.5
 31
0.0
  0
LINE
  5
171
  8
LEVEL0
 62
     0
 10
0.0
 20
0.0
 30
0.0
 11
2.5
 21
0.0
 31
0.0
  0
LINE
  5
172
  8
LEVEL0
 62
     0
 10
0.0
 20
2.5
 30
0.0
 11
0.0
 21
3.5
 31
0.0
  0
LINE
  5
173
  8
LEVEL0
 62
     0
 10
-2.5
 20
0.0
 30
0.0
 11
-3.5
 21
0.0
 31
0.0
  0
LINE
  5
174
  8
LEVEL0
 62
     0
 10
0.0
 20
-2.5
 30
0.0
 11
0.0
 21
-3.5
 31
0.0
  0
LINE
  5
175
  8
LEVEL0
 62
     0
 10
2.5
 20
0.0
 30
0.0
 11
3.5
 21
0.0
 31
0.0
  0
ENDBLK
  5
16D
  8
0
  0
BLOCK
  8
0
  2
SW_CENTERMARKSYMBOL_2
 70
     0
 10
0.0
 20
0.0
 30
0.0
  3
SW_CENTERMARKSYMBOL_2
  1

  0
LINE
  5
17A
  8
LEVEL0
 62
     0
 10
0.0
 20
0.0
 30
0.0
 11
0.0
 21
2.5
 31
0.0
  0
LINE
  5
17B
  8
LEVEL0
 62
     0
 10
0.0
 20
0.0
 30
0.0
 11
-2.5
 21
0.0
 31
0.0
  0
LINE
  5
17C
  8
LEVEL0
 62
     0
 10
0.0
 20
0.0
 30
0.0
 11
0.0
 21
-2.5
 31
0.0
  0
LINE
  5
17D
  8
LEVEL0
 62
     0
 10
0.0
 20
0.0
 30
0.0
 11
2.5
 21
0.0
 31
0.0
  0
LINE
  5
17E
  8
LEVEL0
 62
     0
 10
0.0
 20
2.5
 30
0.0
 11
0.0
 21
3.5
 31
0.0
  0
LINE
  5
17F
  8
LEVEL0
 62
     0
 10
-2.5
 20
0.0
 30
0.0
 11
-3.5
 21
0.0
 31
0.0
  0
LINE
  5
180
  8
LEVEL0
 62
     0
 10
0.0
 20
-2.5
 30
0.0
 11
0.0
 21
-3.5
 31
0.0
  0
LINE
  5
181
  8
LEVEL0
 62
     0
 10
2.5
 20
0.0
 30
0.0
 11
3.5
 21
0.0
 31
0.0
  0
ENDBLK
  5
179
  8
0
  0
BLOCK
  8
0
  2
SW_CENTERMARKSYMBOL_3
 70
     0
 10
0.0
 20
0.0
 30
0.0
  3
SW_CENTERMARKSYMBOL_3
  1

  0
LINE
  5
186
  8
LEVEL0
 62
     0
 10
0.0
 20
0.0
 30
0.0
 11
0.0
 21
2.5
 31
0.0
  0
LINE
  5
187
  8
LEVEL0
 62
     0
 10
0.0
 20
0.0
 30
0.0
 11
-2.5
 21
0.0
 31
0.0
  0
LINE
  5
188
  8
LEVEL0
 62
     0
 10
0.0
 20
0.0
 30
0.0
 11
0.0
 21
-2.5
 31
0.0
  0
LINE
  5
189
  8
LEVEL0
 62
     0
 10
0.0
 20
0.0
 30
0.0
 11
2.5
 21
0.0
 31
0.0
  0
LINE
  5
18A
  8
LEVEL0
 62
     0
 10
0.0
 20
2.5
 30
0.0
 11
0.0
 21
3.5
 31
0.0
  0
LINE
  5
18B
  8
LEVEL0
 62
     0
 10
-2.5
 20
0.0
 30
0.0
 11
-3.5
 21
0.0
 31
0.0
  0
LINE
  5
18C
  8
LEVEL0
 62
     0
 10
0.0
 20
-2.5
 30
0.0
 11
0.0
 21
-3.5
 31
0.0
  0
LINE
  5
18D
  8
LEVEL0
 62
     0
 10
2.5
 20
0.0
 30
0.0
 11
3.5
 21
0.0
 31
0.0
  0
ENDBLK
  5
185
  8
0
  0
ENDSEC
  0
SECTION
  2
ENTITIES
  0
INSERT
  5
AD
  8
LEVEL0
  2
SW_NOTE_0
 10
38.6305083249
 20
264.2776073579
 30
0.0
  0
TEXT
  5
AE
  8
LEVEL0
 10
68.7387458035
 20
30.1449050925
 30
0.0
 40
3.7041666667
  1
PRINT THIS PAGE 1:1 SCALE
 41
0.644
 11
68.7387458035
 21
28.8363709465
 31
0.0
 73
     1
  0
ARC
  5
AF
  8
0
  6
CONTINUOUS
 62
     7
 10
59.16427135
 20
199.5987490907
 30
0.0
 40
1.399999999999999
 50
90.0
 51
180.0
  0
LINE
  5
B0
  8
0
  6
CONTINUOUS
 62
     7
 10
57.76427135
 20
105.9687490907
 30
0.0
 11
57.76427135
 21
199.5987490907
 31
0.0
  0
ARC
  5
B1
  8
0
  6
CONTINUOUS
 62
     7
 10
59.16427135
 20
105.9687490907
 30
0.0
 40
1.400000000000006
 50
180.0
 51
270.0
  0
LINE
  5
B2
  8
0
  6
CONTINUOUS
 62
     7
 10
160.22427135
 20
104.5687490907
 30
0.0
 11
59.16427135
 21
104.5687490907
 31
0.0
  0
ARC
  5
B3
  8
0
  6
CONTINUOUS
 62
     7
 10
160.22427135
 20
105.9687490907
 30
0.0
 40
1.400000000000006
 50
270.0
 51
0.0
  0
LINE
  5
B4
  8
0
  6
CONTINUOUS
 62
     7
 10
161.62427135
 20
199.5987490907
 30
0.0
 11
161.62427135
 21
105.9687490907
 31
0.0
  0
ARC
  5
B5
  8
0
  6
CONTINUOUS
 62
     7
 10
160.22427135
 20
199.5987490907
 30
0.0
 40
1.400000000000006
 50
0.0
 51
90.0
  0
LINE
  5
B6
  8
0
  6
CONTINUOUS
 62
     7
 10
59.16427135
 20
200.9987490907
 30
0.0
 11
160.22427135
 21
200.9987490907
 31
0.0
  0
CIRCLE
  5
B7
  8
0
  6
CONTINUOUS
 62
     7
 10
50.16427135
 20
208.5987490907
 30
0.0
 40
1.0
  0
CIRCLE
  5
B8
  8
0
  6
CONTINUOUS
 62
     7
 10
169.22427135
 20
96.9687490907
 30
0.0
 40
1.0
  0
CIRCLE
  5
B9
  8
0
  6
CONTINUOUS
 62
     7
 10
50.16427135
 20
96.9687490907
 30
0.0
 40
1.0
  0
CIRCLE
  5
BA
  8
0
  6
CONTINUOUS
 62
     7
 10
169.22427135
 20
208.5987490907
 30
0.0
 40
1.0
  0
DIMENSION
  5
BB
  8
LEVEL0
  2
_D
 10
161.62427135
 20
130.4927130135
 30
0.0
 11
110.8256258076
 21
130.4927130135
 31
0.0
 70
   160
  1
<>
  3
SLDDIMSTYLE0
 13
57.76427135
 23
105.9687490907
 33
0.0
 14
161.62427135
 24
105.9687490907
 34
0.0
  0
DIMENSION
  5
DE
  8
LEVEL0
  2
_D_1
 10
141.2119255311
 20
200.9987490907
 30
0.0
 11
141.2119255311
 21
170.4029363989
 31
0.0
 70
   160
  1
<>
  3
SLDDIMSTYLE0
 13
160.22427135
 23
104.5687490907
 33
0.0
 14
160.22427135
 24
200.9987490907
 34
0.0
 50
90.0
  0
DIMENSION
  5
F9
  8
LEVEL0
  2
_D_2
 10
169.22427135
 20
220.0184808098
 30
0.0
 11
110.8256258076
 21
220.0184808098
 31
0.0
 70
   160
  1
<>
  3
SLDDIMSTYLE1
 13
50.16427135
 23
212.0987490907
 33
0.0
 14
169.22427135
 24
212.0987490907
 34
0.0
  0
DIMENSION
  5
10D
  8
LEVEL0
  2
_D_3
 10
38.9430813893
 20
96.9687490907
 30
0.0
 11
38.9430813893
 21
158.009188884
 31
0.0
 70
   160
  1
<>
  3
SLDDIMSTYLE1
 13
46.66427135
 23
208.5987490907
 33
0.0
 14
46.66427135
 24
96.9687490907
 34
0.0
 50
90.0
  0
DIMENSION
  5
120
  8
LEVEL0
  2
_D_4
 10
54.0479089097
 20
104.5687490907
 30
0.0
 11
54.0479089097
 21
117.1996548816
 31
0.0
 70
   160
  1
<>
  3
SLDDIMSTYLE2
 13
53.66427135
 23
96.9687490907
 33
0.0
 14
59.16427135
 24
104.5687490907
 34
0.0
 50
90.0
  0
DIMENSION
  5
135
  8
LEVEL0
  2
_D_5
 10
57.76427135
 20
204.3836593414
 30
0.0
 11
68.8877394561
 21
204.3836593414
 31
0.0
 70
   160
  1
<>
  3
SLDDIMSTYLE2
 13
50.16427135
 23
205.0987490907
 33
0.0
 14
57.76427135
 24
199.5987490907
 34
0.0
  0
DIMENSION
  5
149
  8
LEVEL0
  2
_D_6
 10
59.16427135
 20
199.5987490907
 30
0.0
 11
70.4134062912
 21
188.3496341496
 31
0.0
 70
   164
  1
<>
  3
SLDDIMSTYLE3
 15
58.1743218564
 25
200.5886985844
 35
0.0
 40
0.0
  0
INSERT
  5
15E
  8
LEVEL0
  2
SW_NOTE_0_1
 10
168.610239832
 20
96.1794675853
 30
0.0
  0
INSERT
  5
16A
  8
LEVEL0
  2
SW_CENTERMARKSYMBOL_0
 10
50.16427135
 20
208.5987490907
 30
0.0
  0
INSERT
  5
176
  8
LEVEL0
  2
SW_CENTERMARKSYMBOL_1
 10
50.16427135
 20
96.9687490907
 30
0.0
  0
INSERT
  5
182
  8
LEVEL0
  2
SW_CENTERMARKSYMBOL_2
 10
169.22427135
 20
208.5987490907
 30
0.0
  0
INSERT
  5
18E
  8
LEVEL0
  2
SW_CENTERMARKSYMBOL_3
 10
169.22427135
 20
96.9687490907
 30
0.0
  0
ENDSEC
  0
EOF
