  0
SECTION
  2
HEADER
  9
$ACADVER
  1
AC1009
  9
$DWGCODEPAGE
  3
ansi_1252
  9
$INSBASE
 10
0.0
 20
0.0
 30
0.0
  9
$EXTMIN
 10
0.0
 20
0.0
 30
0.0
  9
$EXTMAX
 10
210.0
 20
297.0
 30
0.0
  9
$LIMMIN
 10
0.0
 20
0.0
  9
$LIMMAX
 10
210.0
 20
297.0
  9
$ORTHOMODE
 70
     0
  9
$REGENMODE
 70
     1
  9
$FILLMODE
 70
     1
  9
$QTEXTMODE
 70
     0
  9
$MIRRTEXT
 70
     1
  9
$DRAGMODE
 70
     2
  9
$LTSCALE
 40
1.0
  9
$OSMODE
 70
    37
  9
$ATTMODE
 70
     1
  9
$TEXTSIZE
 40
2.0
  9
$TRACEWID
 40
1.0
  9
$TEXTSTYLE
  7
STANDARD
  9
$CLAYER
  8
0
  9
$CELTYPE
  6
BYLAYER
  9
$CECOLOR
 62
   256
  9
$DIMSCALE
 40
1.0
  9
$DIMASZ
 40
2.0
  9
$DIMEXO
 40
1.0
  9
$DIMDLI
 40
3.75
  9
$DIMRND
 40
0.0
  9
$DIMDLE
 40
0.0
  9
$DIMEXE
 40
1.0
  9
$DIMTP
 40
0.0
  9
$DIMTM
 40
0.0
  9
$DIMTXT
 40
2.0
  9
$DIMCEN
 40
2.5
  9
$DIMTSZ
 40
0.0
  9
$DIMTOL
 70
     0
  9
$DIMLIM
 70
     0
  9
$DIMTIH
 70
     1
  9
$DIMTOH
 70
     1
  9
$DIMSE1
 70
     0
  9
$DIMSE2
 70
     0
  9
$DIMTAD
 70
     1
  9
$DIMZIN
 70
     0
  9
$DIMBLK
  1

  9
$DIMASO
 70
     1
  9
$DIMSHO
 70
     1
  9
$DIMPOST
  1

  9
$DIMAPOST
  1

  9
$DIMALT
 70
     0
  9
$DIMALTD
 70
     3
  9
$DIMALTF
 40
0.0393700787
  9
$DIMLFAC
 40
1.0
  9
$DIMTOFL
 70
     1
  9
$DIMTVP
 40
0.0
  9
$DIMTIX
 70
     0
  9
$DIMSOXD
 70
     0
  9
$DIMSAH
 70
     0
  9
$DIMBLK1
  1

  9
$DIMBLK2
  1

  9
$DIMSTYLE
  2
ISO-25
  9
$DIMCLRD
 70
     0
  9
$DIMCLRE
 70
     0
  9
$DIMCLRT
 70
     0
  9
$DIMTFAC
 40
1.0
  9
$DIMGAP
 40
1.524
  9
$LUNITS
 70
     2
  9
$LUPREC
 70
     2
  9
$SKETCHINC
 40
1.0
  9
$FILLETRAD
 40
10.0
  9
$AUNITS
 70
     0
  9
$AUPREC
 70
     2
  9
$MENU
  1
.
  9
$ELEVATION
 40
0.0
  9
$PELEVATION
 40
0.0
  9
$THICKNESS
 40
0.0
  9
$LIMCHECK
 70
     0
  9
$CHAMFERA
 40
0.0
  9
$CHAMFERB
 40
0.0
  9
$SKPOLY
 70
     0
  9
$TDCREATE
 40
2459366.707449074
  9
$TDUPDATE
 40
2459366.70745434
  9
$TDINDWG
 40
0.0000000116
  9
$TDUSRTIMER
 40
0.0000000116
  9
$USRTIMER
 70
     1
  9
$ANGBASE
 50
0.0
  9
$ANGDIR
 70
     0
  9
$PDMODE
 70
     0
  9
$PDSIZE
 40
-1.0
  9
$PLINEWID
 40
0.0
  9
$COORDS
 70
     1
  9
$SPLFRAME
 70
     0
  9
$SPLINETYPE
 70
     6
  9
$SPLINESEGS
 70
     8
  9
$ATTDIA
 70
     0
  9
$ATTREQ
 70
     1
  9
$HANDLING
 70
     1
  9
$HANDSEED
  5
18F
  9
$SURFTAB1
 70
     6
  9
$SURFTAB2
 70
     6
  9
$SURFTYPE
 70
     6
  9
$SURFU
 70
     6
  9
$SURFV
 70
     6
  9
$UCSNAME
  2

  9
$UCSORG
 10
0.0
 20
0.0
 30
0.0
  9
$UCSXDIR
 10
1.0
 20
0.0
 30
0.0
  9
$UCSYDIR
 10
0.0
 20
1.0
 30
0.0
  9
$PUCSNAME
  2

  9
$PUCSORG
 10
0.0
 20
0.0
 30
0.0
  9
$PUCSXDIR
 10
1.0
 20
0.0
 30
0.0
  9
$PUCSYDIR
 10
0.0
 20
1.0
 30
0.0
  9
$USERI1
 70
     0
  9
$USERI2
 70
     0
  9
$USERI3
 70
     0
  9
$USERI4
 70
     0
  9
$USERI5
 70
     0
  9
$USERR1
 40
0.0
  9
$USERR2
 40
0.0
  9
$USERR3
 40
0.0
  9
$USERR4
 40
0.0
  9
$USERR5
 40
0.0
  9
$WORLDVIEW
 70
     1
  9
$SHADEDGE
 70
     3
  9
$SHADEDIF
 70
    70
  9
$TILEMODE
 70
     1
  9
$MAXACTVP
 70
    64
  9
$PLIMCHECK
 70
     0
  9
$PEXTMIN
 10
1.0000000000E+20
 20
1.0000000000E+20
 30
1.0000000000E+20
  9
$PEXTMAX
 10
-1.0000000000E+20
 20
-1.0000000000E+20
 30
-1.0000000000E+20
  9
$PLIMMIN
 10
0.0
 20
0.0
  9
$PLIMMAX
 10
420.0
 20
297.0
  9
$UNITMODE
 70
     0
  9
$VISRETAIN
 70
     1
  9
$PLINEGEN
 70
     0
  9
$PSLTSCALE
 70
     1
  0
ENDSEC
  0
SECTION
  2
TABLES
  0
TABLE
  2
VPORT
 70
     1
  0
VPORT
  2
*ACTIVE
 70
     0
 10
0.0
 20
0.0
 11
1.0
 21
1.0
 12
105.0
 22
148.5
 13
0.0
 23
0.0
 14
10.0
 24
10.0
 15
10.0
 25
10.0
 16
0.0
 26
0.0
 36
1.0
 17
0.0
 27
0.0
 37
0.0
 40
297.0
 41
0.7070707071
 42
50.0
 43
0.0
 44
0.0
 50
0.0
 51
0.0
 71
     0
 72
  2000
 73
     1
 74
     3
 75
     0
 76
     0
 77
     0
 78
     0
  0
ENDTAB
  0
TABLE
  2
LTYPE
 70
     6
  0
LTYPE
  2
CONTINUOUS
 70
     0
  3
Solid line
 72
    65
 73
     0
 40
0.0
  0
LTYPE
  2
HIDDEN
 70
     0
  3
Hidden __ __ __ __ __ __ __ __ __ __ __ __ __ __
 72
    65
 73
     2
 40
1.905
 49
1.27
 49
-0.635
  0
LTYPE
  2
PHANTOM
 70
     0
  3
Phantom ______  __  __  ______  __  __  ______
 72
    65
 73
     6
 40
12.7
 49
6.35
 49
-1.27
 49
1.27
 49
-1.27
 49
1.27
 49
-1.27
  0
LTYPE
  2
CENTER
 70
     0
  3
Center ____ _ ____ _ ____ _ ____ _ ____ _ ____
 72
    65
 73
     4
 40
10.16
 49
6.35
 49
-1.27
 49
1.27
 49
-1.27
  0
LTYPE
  2
CENTERX2
 70
     0
  3
Center (2x) ________  __  ________  __  _____
 72
    65
 73
     4
 40
20.32
 49
12.7
 49
-2.54
 49
2.54
 49
-2.54
  0
LTYPE
  2
DOT2
 70
     0
  3
Dot (.5x) ........................................
 72
    65
 73
     2
 40
0.635
 49
0.0
 49
-0.635
  0
ENDTAB
  0
TABLE
  2
LAYER
 70
    53
  0
LAYER
  2
0
 70
     0
 62
     7
  6
CONTINUOUS
  0
LAYER
  2
SLD-0
 70
     0
 62
     7
  6
CONTINUOUS
  0
LAYER
  2
LEVEL0
 70
     0
 62
     7
  6
CONTINUOUS
  0
LAYER
  2
1
 70
     0
 62
     7
  6
CONTINUOUS
  0
LAYER
  2
2
 70
     0
 62
     7
  6
CONTINUOUS
  0
LAYER
  2
3
 70
     0
 62
     7
  6
CONTINUOUS
  0
LAYER
  2
4
 70
     0
 62
     7
  6
CONTINUOUS
  0
LAYER
  2
5
 70
     0
 62
     7
  6
CONTINUOUS
  0
LAYER
  2
6
 70
     0
 62
     7
  6
CONTINUOUS
  0
LAYER
  2
7
 70
     0
 62
     7
  6
CONTINUOUS
  0
LAYER
  2
8
 70
     0
 62
     7
  6
CONTINUOUS
  0
LAYER
  2
9
 70
     0
 62
     7
  6
CONTINUOUS
  0
LAYER
  2
10
 70
     0
 62
     7
  6
CONTINUOUS
  0
LAYER
  2
11
 70
     0
 62
     7
  6
CONTINUOUS
  0
LAYER
  2
12
 70
     0
 62
     7
  6
CONTINUOUS
  0
LAYER
  2
13
 70
     0
 62
     7
  6
CONTINUOUS
  0
LAYER
  2
14
 70
     0
 62
     7
  6
CONTINUOUS
  0
LAYER
  2
15
 70
     0
 62
     7
  6
CONTINUOUS
  0
LAYER
  2
16
 70
     0
 62
     7
  6
CONTINUOUS
  0
LAYER
  2
17
 70
     0
 62
     7
  6
CONTINUOUS
  0
LAYER
  2
18
 70
     0
 62
     7
  6
CONTINUOUS
  0
LAYER
  2
19
 70
     0
 62
     7
  6
CONTINUOUS
  0
LAYER
  2
20
 70
     0
 62
     7
  6
CONTINUOUS
  0
LAYER
  2
21
 70
     0
 62
     7
  6
CONTINUOUS
  0
LAYER
  2
22
 70
     0
 62
     7
  6
CONTINUOUS
  0
LAYER
  2
23
 70
     0
 62
     7
  6
CONTINUOUS
  0
LAYER
  2
24
 70
     0
 62
     7
  6
CONTINUOUS
  0
LAYER
  2
25
 70
     0
 62
     7
  6
CONTINUOUS
  0
LAYER
  2
26
 70
     0
 62
     7
  6
CONTINUOUS
  0
LAYER
  2
27
 70
     0
 62
     7
  6
CONTINUOUS
  0
LAYER
  2
28
 70
     0
 62
     7
  6
CONTINUOUS
  0
LAYER
  2
29
 70
     0
 62
     7
  6
CONTINUOUS
  0
LAYER
  2
30
 70
     0
 62
     7
  6
CONTINUOUS
  0
LAYER
  2
31
 70
     0
 62
     7
  6
CONTINUOUS
  0
LAYER
  2
32
 70
     0
 62
     7
  6
CONTINUOUS
  0
LAYER
  2
33
 70
     0
 62
     7
  6
CONTINUOUS
  0
LAYER
  2
34
 70
     0
 62
     7
  6
CONTINUOUS
  0
LAYER
  2
35
 70
     0
 62
     7
  6
CONTINUOUS
  0
LAYER
  2
36
 70
     0
 62
     7
  6
CONTINUOUS
  0
LAYER
  2
37
 70
     0
 62
     7
  6
CONTINUOUS
  0
LAYER
  2
38
 70
     0
 62
     7
  6
CONTINUOUS
  0
LAYER
  2
39
 70
     0
 62
     7
  6
CONTINUOUS
  0
LAYER
  2
40
 70
     0
 62
     7
  6
CONTINUOUS
  0
LAYER
  2
41
 70
     0
 62
     7
  6
CONTINUOUS
  0
LAYER
  2
42
 70
     0
 62
     7
  6
CONTINUOUS
  0
LAYER
  2
43
 70
     0
 62
     7
  6
CONTINUOUS
  0
LAYER
  2
44
 70
     0
 62
     7
  6
CONTINUOUS
  0
LAYER
  2
45
 70
     0
 62
     7
  6
CONTINUOUS
  0
LAYER
  2
46
 70
     0
 62
     7
  6
CONTINUOUS
  0
LAYER
  2
47
 70
     0
 62
     7
  6
CONTINUOUS
  0
LAYER
  2
48
 70
     0
 62
     7
  6
CONTINUOUS
  0
LAYER
  2
49
 70
     0
 62
     7
  6
CONTINUOUS
  0
LAYER
  2
50
 70
     0
 62
     7
  6
CONTINUOUS
  0
ENDTAB
  0
TABLE
  2
STYLE
 70
     1
  0
STYLE
  2
STANDARD
 70
     0
 40
0.0
 41
1.0
 50
0.0
 71
     0
 42
2.0
  3
txt
  4

  0
ENDTAB
  0
TABLE
  2
VIEW
 70
     0
  0
ENDTAB
  0
TABLE
  2
UCS
 70
     0
  0
ENDTAB
  0
TABLE
  2
APPID
 70
     1
  0
APPID
  2
ACAD
 70
     0
  0
ENDTAB
  0
TABLE
  2
DIMSTYLE
 70
     5
  0
DIMSTYLE
  2
ISO-25
 70
     0
  3

  4

  5

  6

  7

 40
1.0
 41
2.5
 42
0.625
 43
3.75
 44
1.25
 45
0.0
 46
0.0
 47
0.0
 48
0.0
140
2.5
141
2.5
142
0.0
143
0.0393700787
144
1.0
145
0.0
146
1.0
147
0.625
 71
     0
 72
     0
 73
     0
 74
     0
 75
     0
 76
     0
 77
     1
 78
     8
170
     0
171
     3
172
     1
173
     0
174
     0
175
     0
176
     0
177
     0
178
     0
  0
DIMSTYLE
  2
SLDDIMSTYLE0
 70
     0
  3

  4

  5

  6
CLOSED
  7
CLOSED
 40
1.0
 41
2.0
 42
0.0625
 43
0.38
 44
0.0
 45
0.000000001
 46
0.0
 47
0.3
 48
0.2
140
2.0
141
0.09
142
0.0
143
0.0393700787
144
1.0
145
0.0
146
1.0
147
0.5
 71
     1
 72
     0
 73
     0
 74
     0
 75
     0
 76
     0
 77
     1
 78
     4
170
     1
171
     2
172
     0
173
     1
174
     0
175
     0
176
     0
177
     0
178
     0
  0
DIMSTYLE
  2
SLDDIMSTYLE1
 70
     0
  3

  4

  5

  6
CLOSED
  7
CLOSED
 40
1.0
 41
2.0
 42
0.0625
 43
0.38
 44
0.0
 45
0.000000001
 46
0.0
 47
0.3
 48
0.2
140
2.0
141
0.09
142
0.0
143
0.0393700787
144
1.0
145
0.0
146
1.0
147
0.5
 71
     1
 72
     0
 73
     0
 74
     0
 75
     0
 76
     0
 77
     1
 78
    12
170
     1
171
     2
172
     0
173
     1
174
     0
175
     0
176
     0
177
     0
178
     0
  0
DIMSTYLE
  2
SLDDIMSTYLE2
 70
     0
  3

  4

  5

  6
CLOSED
  7
CLOSED
 40
1.0
 41
2.0
 42
0.0625
 43
0.38
 44
0.0
 45
0.000000001
 46
0.0
 47
0.0
 48
0.0
140
2.0
141
0.0
142
0.0
143
0.0393700787
144
1.0
145
0.0
146
1.0
147
0.5
 71
     0
 72
     0
 73
     0
 74
     0
 75
     0
 76
     0
 77
     1
 78
     4
170
     1
171
     2
172
     0
173
     1
174
     0
175
     0
176
     0
177
     0
178
     0
  0
DIMSTYLE
  2
SLDDIMSTYLE3
 70
     0
  3

  4

  5

  6
CLOSED
  7
CLOSED
 40
1.0
 41
2.0
 42
0.0625
 43
0.38
 44
0.0
 45
0.000000001
 46
0.0
 47
0.0
 48
0.0
140
2.0
141
0.09
142
0.0
143
0.0393700787
144
1.0
145
0.0
146
1.0
147
0.5
 71
     0
 72
     0
 73
     0
 74
     0
 75
     0
 76
     0
 77
     1
 78
    12
170
     1
171
     2
172
     0
173
     1
174
     0
175
     0
176
     0
177
     0
178
     0
  0
ENDTAB
  0
ENDSEC
  0
SECTION
  2
BLOCKS
  0
BLOCK
  8
0
  2
$MODEL_SPACE
 70
     0
 10
0.0
 20
0.0
 30
0.0
  3
$MODEL_SPACE
  1

  0
ENDBLK
  5
21
  8
0
  0
BLOCK
 67
     1
  8
0
  2
$PAPER_SPACE
 70
     0
 10
0.0
 20
0.0
 30
0.0
  3
$PAPER_SPACE
  1

  0
ENDBLK
  5
1D
 67
     1
  8
0
  0
BLOCK
  8
0
  2
SW_NOTE_0
 70
     0
 10
0.0
 20
0.0
 30
0.0
  3
SW_NOTE_0
  1

  0
TEXT
  5
AA
  8
LEVEL0
 62
     0
 10
0.0
 20
1.308534146
 30
0.0
 40
3.7041666667
  1
CUTOUT ROUTING TEMPLATE FOR MATTE FINISH
 41
0.65625
 11
0.0
 21
0.0
 31
0.0
 73
     1
  0
TEXT
  5
AB
  8
LEVEL0
 62
     0
 10
0.0
 20
-10.5692438402
 30
0.0
 40
3.7041666667
  1
058-1-604
 41
0.7
 11
0.0
 21
-11.8777779862
 31
0.0
 73
     1
  0
TEXT
  5
AC
  8
LEVEL0
 62
     0
 10
0.0
 20
-22.4470218264
 30
0.0
 40
3.7041666667
  1
SCALE 1:1
 41
0.7
 11
0.0
 21
-23.7555559725
 31
0.0
 73
     1
  0
ENDBLK
  5
A9
  8
0
  0
BLOCK
  8
0
  2
_CLOSED
 70
     0
 10
0.0
 20
0.0
 30
0.0
  3
_CLOSED
  1

  0
LINE
  5
C0
  8
0
  6
BYBLOCK
 62
     0
 10
-1.0
 20
0.166667
 30
0.0
 11
0.0
 21
0.0
 31
0.0
  0
LINE
  5
C1
  8
0
  6
BYBLOCK
 62
     0
 10
0.0
 20
0.0
 30
0.0
 11
-1.0
 21
-0.166667
 31
0.0
  0
LINE
  5
C2
  8
0
  6
BYBLOCK
 62
     0
 10
-1.0
 20
0.166667
 30
0.0
 11
-1.0
 21
-0.166667
 31
0.0
  0
LINE
  5
C3
  8
0
  6
BYBLOCK
 62
     0
 10
0.0
 20
0.0
 30
0.0
 11
-1.0
 21
0.0
 31
0.0
  0
ENDBLK
  5
BF
  8
0
  0
BLOCK
  8
0
  2
_D
 70
     0
 10
0.0
 20
0.0
 30
0.0
  3
_D
  1

  0
INSERT
  5
C7
  8
LEVEL0
  2
_CLOSED
 10
59.0786200011
 20
149.1861922823
 30
-11.0
 41
2.0
 42
2.0
 50
180.0
  0
INSERT
  5
C8
  8
LEVEL0
  2
_CLOSED
 10
161.3786200011
 20
149.1861922823
 30
-11.0
 41
2.0
 42
2.0
 50
0.0
  0
LINE
  5
C9
  8
LEVEL0
 10
112.535530869
 20
159.9368869483
 30
0.0
 11
111.9261558564
 21
159.9368869483
 31
0.0
  0
LINE
  5
CA
  8
LEVEL0
 10
111.9261558564
 20
159.9368869483
 30
0.0
 11
111.9261558564
 21
154.7646645613
 31
0.0
  0
LINE
  5
CB
  8
LEVEL0
 10
111.9261558564
 20
154.7646645613
 30
0.0
 11
112.535530869
 21
154.7646645613
 31
0.0
  0
LINE
  5
CC
  8
LEVEL0
 10
125.2355297842
 20
159.9368869483
 30
0.0
 11
125.8449047967
 21
159.9368869483
 31
0.0
  0
LINE
  5
CD
  8
LEVEL0
 10
125.8449047967
 20
159.9368869483
 30
0.0
 11
125.8449047967
 21
154.7646645613
 31
0.0
  0
LINE
  5
CE
  8
LEVEL0
 10
125.8449047967
 20
154.7646645613
 30
0.0
 11
125.2355297842
 21
154.7646645613
 31
0.0
  0
LINE
  5
CF
  8
LEVEL0
 10
59.0786200011
 20
149.1861922823
 30
0.0
 11
161.3786200011
 21
149.1861922823
 31
0.0
  0
TEXT
  5
D0
  8
LEVEL0
 10
109.5799753024
 20
149.9232679356
 30
-11.0
 40
2.0
  1
  
 41
0.7
 11
109.5799753024
 21
149.2167478118
 31
-11.0
 73
     1
  0
TEXT
  5
D1
  8
LEVEL0
 10
112.535530869
 20
155.5017402146
 30
-11.0
 40
2.0
  1
4.0
 41
0.7
 11
112.535530869
 21
154.7952200908
 31
-11.0
 73
     1
  0
TEXT
  5
D2
  8
LEVEL0
 10
116.2299752981
 20
155.5017402146
 30
-11.0
 40
2.0
  1
 
 41
0.7
 11
116.2299752981
 21
154.7952200908
 31
-11.0
 73
     1
  0
TEXT
  5
D3
  8
LEVEL0
 10
116.9688638114
 20
158.0572958786
 30
-11.0
 40
2.0
  1
+
 41
0.7
 11
116.9688638114
 21
157.3507757548
 31
-11.0
 73
     1
  0
TEXT
  5
D4
  8
LEVEL0
 10
117.3341415928
 20
155.4711846851
 30
-11.0
 40
2.0
  1
-
 41
0.7
 11
117.3341415928
 21
154.7646645613
 31
-11.0
 73
     1
  0
TEXT
  5
D5
  8
LEVEL0
 10
118.5855308362
 20
158.0572958786
 30
-11.0
 40
2.0
  1
0.012
 41
0.7
 11
118.5855308362
 21
157.3507757548
 31
-11.0
 73
     1
  0
TEXT
  5
D6
  8
LEVEL0
 10
118.5855308362
 20
155.4711846851
 30
-11.0
 40
2.0
  1
0.008
 41
0.7
 11
118.5855308362
 21
154.7646645613
 31
-11.0
 73
     1
  0
TEXT
  5
D7
  8
LEVEL0
 10
111.0577530275
 20
149.8927119404
 30
-11.0
 40
2.0
  1
102.30
 41
0.7
 11
111.0577530275
 21
149.1861918166
 31
-11.0
 73
     1
  0
TEXT
  5
D8
  8
LEVEL0
 10
119.1855308647
 20
149.8927119404
 30
-11.0
 40
2.0
  1
 
 41
0.7
 11
119.1855308647
 21
149.1861918166
 31
-11.0
 73
     1
  0
TEXT
  5
D9
  8
LEVEL0
 10
119.9244189123
 20
152.478823134
 30
-11.0
 40
2.0
  1
+
 41
0.7
 11
119.9244189123
 21
151.7723030101
 31
-11.0
 73
     1
  0
TEXT
  5
DA
  8
LEVEL0
 10
120.2896966937
 20
149.8927119404
 30
-11.0
 40
2.0
  1
-
 41
0.7
 11
120.2896966937
 21
149.1861918166
 31
-11.0
 73
     1
  0
TEXT
  5
DB
  8
LEVEL0
 10
121.5410859371
 20
152.478823134
 30
-11.0
 40
2.0
  1
0.30
 41
0.7
 11
121.5410859371
 21
151.7723030101
 31
-11.0
 73
     1
  0
TEXT
  5
DC
  8
LEVEL0
 10
121.5410859371
 20
149.8927119404
 30
-11.0
 40
2.0
  1
0.20
 41
0.7
 11
121.5410859371
 21
149.1861918166
 31
-11.0
 73
     1
  0
TEXT
  5
DD
  8
LEVEL0
 10
126.7133080913
 20
149.9232679356
 30
-11.0
 40
2.0
  1
  
 41
0.7
 11
126.7133080913
 21
149.2167478118
 31
-11.0
 73
     1
  0
ENDBLK
  5
C6
  8
0
  0
BLOCK
  8
0
  2
_D_1
 70
     0
 10
0.0
 20
0.0
 30
0.0
  3
_D_1
  1

  0
INSERT
  5
E3
  8
LEVEL0
  2
_CLOSED
 10
101.4134475803
 20
191.5550518395
 30
-11.0
 41
2.0
 42
2.0
 50
90.0
  0
INSERT
  5
E4
  8
LEVEL0
  2
_CLOSED
 10
101.4134475803
 20
96.7050518395
 30
-11.0
 41
2.0
 42
2.0
 50
270.0
  0
LINE
  5
E5
  8
LEVEL0
 10
90.6627529142
 20
127.7044067486
 30
0.0
 11
90.6627529142
 21
127.095031736
 31
0.0
  0
LINE
  5
E6
  8
LEVEL0
 10
90.6627529142
 20
127.095031736
 30
0.0
 11
95.8349753012
 21
127.095031736
 31
0.0
  0
LINE
  5
E7
  8
LEVEL0
 10
95.8349753012
 20
127.095031736
 30
0.0
 11
95.8349753012
 21
127.7044067486
 31
0.0
  0
LINE
  5
E8
  8
LEVEL0
 10
90.6627529142
 20
140.4044056638
 30
0.0
 11
90.6627529142
 21
141.0137806764
 31
0.0
  0
LINE
  5
E9
  8
LEVEL0
 10
90.6627529142
 20
141.0137806764
 30
0.0
 11
95.8349753012
 21
141.0137806764
 31
0.0
  0
LINE
  5
EA
  8
LEVEL0
 10
95.8349753012
 20
141.0137806764
 30
0.0
 11
95.8349753012
 21
140.4044056638
 31
0.0
  0
LINE
  5
EB
  8
LEVEL0
 10
101.4134475803
 20
191.5550518395
 30
0.0
 11
101.4134475803
 21
96.7050518395
 31
0.0
  0
TEXT
  5
EC
  8
LEVEL0
 10
100.6763719269
 20
125.0078789984
 30
-11.0
 40
2.0
  1
  
 50
90.0
 41
0.7
 11
101.3828920507
 21
125.0078789984
 31
-11.0
 73
     1
  0
TEXT
  5
ED
  8
LEVEL0
 10
95.0978996479
 20
127.7044067486
 30
-11.0
 40
2.0
  1
3.7
 50
90.0
 41
0.7
 11
95.8044197717
 21
127.7044067486
 31
-11.0
 73
     1
  0
TEXT
  5
EE
  8
LEVEL0
 10
95.0978996479
 20
131.3988511777
 30
-11.0
 40
2.0
  1
 
 50
90.0
 41
0.7
 11
95.8044197717
 21
131.3988511777
 31
-11.0
 73
     1
  0
TEXT
  5
EF
  8
LEVEL0
 10
92.5423439839
 20
132.137739691
 30
-11.0
 40
2.0
  1
+
 50
90.0
 41
0.7
 11
93.2488641077
 21
132.137739691
 31
-11.0
 73
     1
  0
TEXT
  5
F0
  8
LEVEL0
 10
95.1284551774
 20
132.5030174724
 30
-11.0
 40
2.0
  1
-
 50
90.0
 41
0.7
 11
95.8349753012
 21
132.5030174724
 31
-11.0
 73
     1
  0
TEXT
  5
F1
  8
LEVEL0
 10
92.5423439839
 20
133.7544067158
 30
-11.0
 40
2.0
  1
0.012
 50
90.0
 41
0.7
 11
93.2488641077
 21
133.7544067158
 31
-11.0
 73
     1
  0
TEXT
  5
F2
  8
LEVEL0
 10
95.1284551774
 20
133.7544067158
 30
-11.0
 40
2.0
  1
0.008
 50
90.0
 41
0.7
 11
95.8349753012
 21
133.7544067158
 31
-11.0
 73
     1
  0
TEXT
  5
F3
  8
LEVEL0
 10
100.7069279221
 20
126.9655174204
 30
-11.0
 40
2.0
  1
94.85
 50
90.0
 41
0.7
 11
101.4134480459
 21
126.9655174204
 31
-11.0
 73
     1
  0
TEXT
  5
F4
  8
LEVEL0
 10
100.7069279221
 20
133.6155172997
 30
-11.0
 40
2.0
  1
 
 50
90.0
 41
0.7
 11
101.4134480459
 21
133.6155172997
 31
-11.0
 73
     1
  0
TEXT
  5
F5
  8
LEVEL0
 10
98.1208167285
 20
134.3544062787
 30
-11.0
 40
2.0
  1
+
 50
90.0
 41
0.7
 11
98.8273368524
 21
134.3544062787
 31
-11.0
 73
     1
  0
TEXT
  5
F6
  8
LEVEL0
 10
100.7069279221
 20
134.71968406
 30
-11.0
 40
2.0
  1
-
 50
90.0
 41
0.7
 11
101.4134480459
 21
134.71968406
 31
-11.0
 73
     1
  0
TEXT
  5
F7
  8
LEVEL0
 10
98.1208167285
 20
135.9710723721
 30
-11.0
 40
2.0
  1
0.30
 50
90.0
 41
0.7
 11
98.8273368524
 21
135.9710723721
 31
-11.0
 73
     1
  0
TEXT
  5
F8
  8
LEVEL0
 10
100.7069279221
 20
135.9710723721
 30
-11.0
 40
2.0
  1
0.20
 50
90.0
 41
0.7
 11
101.4134480459
 21
135.9710723721
 31
-11.0
 73
     1
  0
TEXT
  5
F9
  8
LEVEL0
 10
100.6763719269
 20
141.6231561546
 30
-11.0
 40
2.0
  1
  
 50
90.0
 41
0.7
 11
101.3828920507
 21
141.6231561546
 31
-11.0
 73
     1
  0
ENDBLK
  5
E2
  8
0
  0
BLOCK
  8
0
  2
_D_2
 70
     0
 10
0.0
 20
0.0
 30
0.0
  3
_D_2
  1

  0
INSERT
  5
FF
  8
LEVEL0
  2
_CLOSED
 10
59.5803720119
 20
191.2289003158
 30
-11.0
 41
2.0
 42
2.0
 50
309.7437931231
  0
LINE
  5
100
  8
LEVEL0
 10
72.407966332
 20
185.4010889133
 30
0.0
 11
72.0169878465
 21
185.8685006481
 31
0.0
  0
LINE
  5
101
  8
LEVEL0
 10
72.0169878465
 20
185.8685006481
 30
0.0
 11
69.5816529388
 21
183.8314025543
 31
0.0
  0
LINE
  5
102
  8
LEVEL0
 10
69.5816529388
 20
183.8314025543
 30
0.0
 11
69.9726314243
 21
183.3639908195
 31
0.0
  0
LINE
  5
103
  8
LEVEL0
 10
74.778342811
 20
182.5673222914
 30
0.0
 11
75.1693212965
 21
182.0999105566
 31
0.0
  0
LINE
  5
104
  8
LEVEL0
 10
75.1693212965
 20
182.0999105566
 30
0.0
 11
72.7339863888
 21
180.0628124628
 31
0.0
  0
LINE
  5
105
  8
LEVEL0
 10
72.7339863888
 20
180.0628124628
 30
0.0
 11
72.3430079033
 21
180.5302241976
 31
0.0
  0
LINE
  5
106
  8
LEVEL0
 10
59.5803720119
 20
191.2289003158
 30
0.0
 11
74.2689944891
 21
173.5638592792
 31
0.0
  0
LINE
  5
107
  8
LEVEL0
 10
59.5803720119
 20
191.2289003158
 30
0.0
 11
57.1213115917
 21
194.1862506937
 31
0.0
  0
TEXT
  5
108
  8
LEVEL0
 10
70.5145568231
 20
183.8172981628
 30
-11.0
 40
2.0
  1
0.1
 50
309.9116574642
 41
0.7
 11
69.9726314243
 21
183.3639908195
 31
-11.0
 73
     1
  0
TEXT
  5
109
  8
LEVEL0
 10
67.2257141401
 20
183.0852206632
 30
-11.0
 40
2.0
  1
R1.40
 50
309.9116574642
 41
0.7
 11
66.6837887412
 21
182.63191332
 31
-11.0
 73
     1
  0
TEXT
  5
10A
  8
LEVEL0
 10
71.6067238244
 20
177.8953815959
 30
-11.0
 40
2.0
  1
 TYP
 50
309.9116574642
 41
0.7
 11
71.0647984256
 21
177.4420742526
 31
-11.0
 73
     1
  0
ENDBLK
  5
FE
  8
0
  0
BLOCK
  8
0
  2
_D_3
 70
     0
 10
0.0
 20
0.0
 30
0.0
  3
_D_3
  1

  0
INSERT
  5
110
  8
LEVEL0
  2
_CLOSED
 10
50.6986200011
 20
59.7172892437
 30
-11.0
 41
2.0
 42
2.0
 50
180.0
  0
INSERT
  5
111
  8
LEVEL0
  2
_CLOSED
 10
169.7586200011
 20
59.7172892437
 30
-11.0
 41
2.0
 42
2.0
 50
0.0
  0
LINE
  5
112
  8
LEVEL0
 10
109.988143131
 20
65.8846502908
 30
0.0
 11
109.3787681184
 21
65.8846502908
 31
0.0
  0
LINE
  5
113
  8
LEVEL0
 10
109.3787681184
 20
65.8846502908
 30
0.0
 11
109.3787681184
 21
62.7096503292
 31
0.0
  0
LINE
  5
114
  8
LEVEL0
 10
109.3787681184
 20
62.7096503292
 30
0.0
 11
109.988143131
 21
62.7096503292
 31
0.0
  0
LINE
  5
115
  8
LEVEL0
 10
113.6825873273
 20
65.8846502908
 30
0.0
 11
114.2919623399
 21
65.8846502908
 31
0.0
  0
LINE
  5
116
  8
LEVEL0
 10
114.2919623399
 20
65.8846502908
 30
0.0
 11
114.2919623399
 21
62.7096503292
 31
0.0
  0
LINE
  5
117
  8
LEVEL0
 10
114.2919623399
 20
62.7096503292
 30
0.0
 11
113.6825873273
 21
62.7096503292
 31
0.0
  0
LINE
  5
118
  8
LEVEL0
 10
50.6986200011
 20
83.8150518395
 30
0.0
 11
50.6986200011
 21
58.7172892437
 31
0.0
  0
LINE
  5
119
  8
LEVEL0
 10
169.7586200011
 20
83.8150518395
 30
0.0
 11
169.7586200011
 21
58.7172892437
 31
0.0
  0
LINE
  5
11A
  8
LEVEL0
 10
50.6986200011
 20
59.7172892437
 30
0.0
 11
169.7586200011
 21
59.7172892437
 31
0.0
  0
TEXT
  5
11B
  8
LEVEL0
 10
106.2936985854
 20
60.454364897
 30
-11.0
 40
2.0
  1
  
 41
0.7
 11
106.2936985854
 21
59.7478447732
 31
-11.0
 73
     1
  0
TEXT
  5
11C
  8
LEVEL0
 10
109.988143131
 20
63.416170453
 30
-11.0
 40
2.0
  1
4.7
 41
0.7
 11
109.988143131
 21
62.7096503292
 31
-11.0
 73
     1
  0
TEXT
  5
11D
  8
LEVEL0
 10
107.7714763105
 20
60.4238091347
 30
-11.0
 40
2.0
  1
119.06
 41
0.7
 11
107.7714763105
 21
59.7172890109
 31
-11.0
 73
     1
  0
TEXT
  5
11E
  8
LEVEL0
 10
115.8992543806
 20
60.454364897
 30
-11.0
 40
2.0
  1
  
 41
0.7
 11
115.8992543806
 21
59.7478447732
 31
-11.0
 73
     1
  0
ENDBLK
  5
10F
  8
0
  0
BLOCK
  8
0
  2
_D_4
 70
     0
 10
0.0
 20
0.0
 30
0.0
  3
_D_4
  1

  0
INSERT
  5
123
  8
LEVEL0
  2
_CLOSED
 10
33.4536490932
 20
88.3150518395
 30
-11.0
 41
2.0
 42
2.0
 50
270.0
  0
INSERT
  5
124
  8
LEVEL0
  2
_CLOSED
 10
33.4536490932
 20
199.9450518395
 30
-11.0
 41
2.0
 42
2.0
 50
90.0
  0
LINE
  5
125
  8
LEVEL0
 10
27.2862880461
 20
147.3389699513
 30
0.0
 11
27.2862880461
 21
146.7295949387
 31
0.0
  0
LINE
  5
126
  8
LEVEL0
 10
27.2862880461
 20
146.7295949387
 30
0.0
 11
30.4612880077
 21
146.7295949387
 31
0.0
  0
LINE
  5
127
  8
LEVEL0
 10
30.4612880077
 20
146.7295949387
 30
0.0
 11
30.4612880077
 21
147.3389699513
 31
0.0
  0
LINE
  5
128
  8
LEVEL0
 10
27.2862880461
 20
151.0334141476
 30
0.0
 11
27.2862880461
 21
151.6427891601
 31
0.0
  0
LINE
  5
129
  8
LEVEL0
 10
27.2862880461
 20
151.6427891601
 30
0.0
 11
30.4612880077
 21
151.6427891601
 31
0.0
  0
LINE
  5
12A
  8
LEVEL0
 10
30.4612880077
 20
151.6427891601
 30
0.0
 11
30.4612880077
 21
151.0334141476
 31
0.0
  0
LINE
  5
12B
  8
LEVEL0
 10
46.1986200011
 20
88.3150518395
 30
0.0
 11
32.4536490932
 21
88.3150518395
 31
0.0
  0
LINE
  5
12C
  8
LEVEL0
 10
46.1986200011
 20
199.9450518395
 30
0.0
 11
32.4536490932
 21
199.9450518395
 31
0.0
  0
LINE
  5
12D
  8
LEVEL0
 10
33.4536490932
 20
88.3150518395
 30
0.0
 11
33.4536490932
 21
199.9450518395
 31
0.0
  0
TEXT
  5
12E
  8
LEVEL0
 10
32.7165734399
 20
143.6445254057
 30
-11.0
 40
2.0
  1
  
 50
90.0
 41
0.7
 11
33.4230935637
 21
143.6445254057
 31
-11.0
 73
     1
  0
TEXT
  5
12F
  8
LEVEL0
 10
29.7547678839
 20
147.3389699513
 30
-11.0
 40
2.0
  1
4.4
 50
90.0
 41
0.7
 11
30.4612880077
 21
147.3389699513
 31
-11.0
 73
     1
  0
TEXT
  5
130
  8
LEVEL0
 10
32.7471292022
 20
145.1223031308
 30
-11.0
 40
2.0
  1
111.63
 50
90.0
 41
0.7
 11
33.4536493261
 21
145.1223031308
 31
-11.0
 73
     1
  0
TEXT
  5
131
  8
LEVEL0
 10
32.7165734399
 20
153.2500812009
 30
-11.0
 40
2.0
  1
  
 50
90.0
 41
0.7
 11
33.4230935637
 21
153.2500812009
 31
-11.0
 73
     1
  0
ENDBLK
  5
122
  8
0
  0
BLOCK
  8
0
  2
_D_5
 70
     0
 10
0.0
 20
0.0
 30
0.0
  3
_D_5
  1

  0
INSERT
  5
136
  8
LEVEL0
  2
_CLOSED
 10
71.402744848
 20
88.3150518395
 30
-11.0
 41
2.0
 42
2.0
 50
270.0
  0
INSERT
  5
137
  8
LEVEL0
  2
_CLOSED
 10
71.402744848
 20
96.7050518395
 30
-11.0
 41
2.0
 42
2.0
 50
90.0
  0
LINE
  5
138
  8
LEVEL0
 10
65.2353838009
 20
79.1384106686
 30
0.0
 11
65.2353838009
 21
78.5290356561
 31
0.0
  0
LINE
  5
139
  8
LEVEL0
 10
65.2353838009
 20
78.5290356561
 30
0.0
 11
68.4103837625
 21
78.5290356561
 31
0.0
  0
LINE
  5
13A
  8
LEVEL0
 10
68.4103837625
 20
78.5290356561
 30
0.0
 11
68.4103837625
 21
79.1384106686
 31
0.0
  0
LINE
  5
13B
  8
LEVEL0
 10
65.2353838009
 20
82.8328548649
 30
0.0
 11
65.2353838009
 21
83.4422298775
 31
0.0
  0
LINE
  5
13C
  8
LEVEL0
 10
65.2353838009
 20
83.4422298775
 30
0.0
 11
68.4103837625
 21
83.4422298775
 31
0.0
  0
LINE
  5
13D
  8
LEVEL0
 10
68.4103837625
 20
83.4422298775
 30
0.0
 11
68.4103837625
 21
82.8328548649
 31
0.0
  0
LINE
  5
13E
  8
LEVEL0
 10
55.1986200011
 20
88.3150518395
 30
0.0
 11
72.402744848
 21
88.3150518395
 31
0.0
  0
LINE
  5
13F
  8
LEVEL0
 10
71.402744848
 20
88.3150518395
 30
0.0
 11
71.402744848
 21
76.4418829184
 31
0.0
  0
LINE
  5
140
  8
LEVEL0
 10
71.402744848
 20
88.3150518395
 30
0.0
 11
71.402744848
 21
96.7050518395
 31
0.0
  0
TEXT
  5
141
  8
LEVEL0
 10
70.6656691947
 20
76.4418829184
 30
-11.0
 40
2.0
  1
  
 50
90.0
 41
0.7
 11
71.3721893185
 21
76.4418829184
 31
-11.0
 73
     1
  0
TEXT
  5
142
  8
LEVEL0
 10
67.7038636387
 20
79.1384106686
 30
-11.0
 40
2.0
  1
0.3
 50
90.0
 41
0.7
 11
68.4103837625
 21
79.1384106686
 31
-11.0
 73
     1
  0
TEXT
  5
143
  8
LEVEL0
 10
70.696224957
 20
78.3995218061
 30
-11.0
 40
2.0
  1
8.39
 50
90.0
 41
0.7
 11
71.4027450809
 21
78.3995218061
 31
-11.0
 73
     1
  0
TEXT
  5
144
  8
LEVEL0
 10
70.6656691947
 20
84.0516051229
 30
-11.0
 40
2.0
  1
  
 50
90.0
 41
0.7
 11
71.3721893185
 21
84.0516051229
 31
-11.0
 73
     1
  0
ENDBLK
  5
135
  8
0
  0
BLOCK
  8
0
  2
_D_6
 70
     0
 10
0.0
 20
0.0
 30
0.0
  3
_D_6
  1

  0
INSERT
  5
149
  8
LEVEL0
  2
_CLOSED
 10
50.6986200011
 20
108.2626110803
 30
-11.0
 41
2.0
 42
2.0
 50
180.0
  0
INSERT
  5
14A
  8
LEVEL0
  2
_CLOSED
 10
59.0786200011
 20
108.2626110803
 30
-11.0
 41
2.0
 42
2.0
 50
0.0
  0
LINE
  5
14B
  8
LEVEL0
 10
38.9789099911
 20
114.4299721275
 30
0.0
 11
38.3695349785
 21
114.4299721275
 31
0.0
  0
LINE
  5
14C
  8
LEVEL0
 10
38.3695349785
 20
114.4299721275
 30
0.0
 11
38.3695349785
 21
111.2549721658
 31
0.0
  0
LINE
  5
14D
  8
LEVEL0
 10
38.3695349785
 20
111.2549721658
 30
0.0
 11
38.9789099911
 21
111.2549721658
 31
0.0
  0
LINE
  5
14E
  8
LEVEL0
 10
42.6733541874
 20
114.4299721275
 30
0.0
 11
43.2827292
 21
114.4299721275
 31
0.0
  0
LINE
  5
14F
  8
LEVEL0
 10
43.2827292
 20
114.4299721275
 30
0.0
 11
43.2827292
 21
111.2549721658
 31
0.0
  0
LINE
  5
150
  8
LEVEL0
 10
43.2827292
 20
111.2549721658
 30
0.0
 11
42.6733541874
 21
111.2549721658
 31
0.0
  0
LINE
  5
151
  8
LEVEL0
 10
50.6986200011
 20
92.8150518395
 30
0.0
 11
50.6986200011
 21
109.2626110803
 31
0.0
  0
LINE
  5
152
  8
LEVEL0
 10
50.6986200011
 20
108.2626110803
 30
0.0
 11
36.2823822408
 21
108.2626110803
 31
0.0
  0
LINE
  5
153
  8
LEVEL0
 10
50.6986200011
 20
108.2626110803
 30
0.0
 11
59.0786200011
 21
108.2626110803
 31
0.0
  0
TEXT
  5
154
  8
LEVEL0
 10
36.2823822408
 20
108.9996867337
 30
-11.0
 40
2.0
  1
  
 41
0.7
 11
36.2823822408
 21
108.2931666099
 31
-11.0
 73
     1
  0
TEXT
  5
155
  8
LEVEL0
 10
38.9789099911
 20
111.9614922897
 30
-11.0
 40
2.0
  1
0.3
 41
0.7
 11
38.9789099911
 21
111.2549721658
 31
-11.0
 73
     1
  0
TEXT
  5
156
  8
LEVEL0
 10
38.2400211285
 20
108.9691309713
 30
-11.0
 40
2.0
  1
8.38
 41
0.7
 11
38.2400211285
 21
108.2626108475
 31
-11.0
 73
     1
  0
TEXT
  5
157
  8
LEVEL0
 10
43.8921044454
 20
108.9996867337
 30
-11.0
 40
2.0
  1
  
 41
0.7
 11
43.8921044454
 21
108.2931666099
 31
-11.0
 73
     1
  0
ENDBLK
  5
148
  8
0
  0
BLOCK
  8
0
  2
SW_NOTE_0_1
 70
     0
 10
0.0
 20
0.0
 30
0.0
  3
SW_NOTE_0_1
  1

  0
TEXT
  5
15B
  8
LEVEL0
 62
     0
 10
-80.1530232163
 20
17.1014073958
 30
0.0
 40
2.0
  1
MARK 4 SCREW POSITIONS
 41
0.6522727273
 11
-80.1530232163
 21
16.394887272
 31
0.0
 73
     1
  0
LINE
  5
15C
  8
LEVEL0
 62
     0
 10
-46.0645844938
 20
18.1671985904
 30
0.0
 11
0.0
 21
0.0
 31
0.0
  0
SOLID
  5
15D
  8
LEVEL0
 62
     0
 10
0.0
 20
0.0
 30
0.0
 11
-1.7476464073
 21
1.020003231
 31
0.0
 12
-1.973420955
 22
0.4475313291
 32
0.0
 13
-1.973420955
 23
0.4475313291
 33
0.0
  0
ENDBLK
  5
15A
  8
0
  0
BLOCK
  8
0
  2
SW_CENTERMARKSYMBOL_0
 70
     0
 10
0.0
 20
0.0
 30
0.0
  3
SW_CENTERMARKSYMBOL_0
  1

  0
LINE
  5
162
  8
LEVEL0
 62
     0
 10
0.0
 20
0.0
 30
0.0
 11
0.0
 21
2.5
 31
0.0
  0
LINE
  5
163
  8
LEVEL0
 62
     0
 10
0.0
 20
0.0
 30
0.0
 11
-2.5
 21
0.0
 31
0.0
  0
LINE
  5
164
  8
LEVEL0
 62
     0
 10
0.0
 20
0.0
 30
0.0
 11
0.0
 21
-2.5
 31
0.0
  0
LINE
  5
165
  8
LEVEL0
 62
     0
 10
0.0
 20
0.0
 30
0.0
 11
2.5
 21
0.0
 31
0.0
  0
LINE
  5
166
  8
LEVEL0
 62
     0
 10
0.0
 20
2.5
 30
0.0
 11
0.0
 21
3.5
 31
0.0
  0
LINE
  5
167
  8
LEVEL0
 62
     0
 10
-2.5
 20
0.0
 30
0.0
 11
-3.5
 21
0.0
 31
0.0
  0
LINE
  5
168
  8
LEVEL0
 62
     0
 10
0.0
 20
-2.5
 30
0.0
 11
0.0
 21
-3.5
 31
0.0
  0
LINE
  5
169
  8
LEVEL0
 62
     0
 10
2.5
 20
0.0
 30
0.0
 11
3.5
 21
0.0
 31
0.0
  0
ENDBLK
  5
161
  8
0
  0
BLOCK
  8
0
  2
SW_CENTERMARKSYMBOL_1
 70
     0
 10
0.0
 20
0.0
 30
0.0
  3
SW_CENTERMARKSYMBOL_1
  1

  0
LINE
  5
16E
  8
LEVEL0
 62
     0
 10
0.0
 20
0.0
 30
0.0
 11
0.0
 21
2.5
 31
0.0
  0
LINE
  5
16F
  8
LEVEL0
 62
     0
 10
0.0
 20
0.0
 30
0.0
 11
-2.5
 21
0.0
 31
0.0
  0
LINE
  5
170
  8
LEVEL0
 62
     0
 10
0.0
 20
0.0
 30
0.0
 11
0.0
 21
-2.5
 31
0.0
  0
LINE
  5
171
  8
LEVEL0
 62
     0
 10
0.0
 20
0.0
 30
0.0
 11
2.5
 21
0.0
 31
0.0
  0
LINE
  5
172
  8
LEVEL0
 62
     0
 10
0.0
 20
2.5
 30
0.0
 11
0.0
 21
3.5
 31
0.0
  0
LINE
  5
173
  8
LEVEL0
 62
     0
 10
-2.5
 20
0.0
 30
0.0
 11
-3.5
 21
0.0
 31
0.0
  0
LINE
  5
174
  8
LEVEL0
 62
     0
 10
0.0
 20
-2.5
 30
0.0
 11
0.0
 21
-3.5
 31
0.0
  0
LINE
  5
175
  8
LEVEL0
 62
     0
 10
2.5
 20
0.0
 30
0.0
 11
3.5
 21
0.0
 31
0.0
  0
ENDBLK
  5
16D
  8
0
  0
BLOCK
  8
0
  2
SW_CENTERMARKSYMBOL_2
 70
     0
 10
0.0
 20
0.0
 30
0.0
  3
SW_CENTERMARKSYMBOL_2
  1

  0
LINE
  5
17A
  8
LEVEL0
 62
     0
 10
0.0
 20
0.0
 30
0.0
 11
0.0
 21
2.5
 31
0.0
  0
LINE
  5
17B
  8
LEVEL0
 62
     0
 10
0.0
 20
0.0
 30
0.0
 11
-2.5
 21
0.0
 31
0.0
  0
LINE
  5
17C
  8
LEVEL0
 62
     0
 10
0.0
 20
0.0
 30
0.0
 11
0.0
 21
-2.5
 31
0.0
  0
LINE
  5
17D
  8
LEVEL0
 62
     0
 10
0.0
 20
0.0
 30
0.0
 11
2.5
 21
0.0
 31
0.0
  0
LINE
  5
17E
  8
LEVEL0
 62
     0
 10
0.0
 20
2.5
 30
0.0
 11
0.0
 21
3.5
 31
0.0
  0
LINE
  5
17F
  8
LEVEL0
 62
     0
 10
-2.5
 20
0.0
 30
0.0
 11
-3.5
 21
0.0
 31
0.0
  0
LINE
  5
180
  8
LEVEL0
 62
     0
 10
0.0
 20
-2.5
 30
0.0
 11
0.0
 21
-3.5
 31
0.0
  0
LINE
  5
181
  8
LEVEL0
 62
     0
 10
2.5
 20
0.0
 30
0.0
 11
3.5
 21
0.0
 31
0.0
  0
ENDBLK
  5
179
  8
0
  0
BLOCK
  8
0
  2
SW_CENTERMARKSYMBOL_3
 70
     0
 10
0.0
 20
0.0
 30
0.0
  3
SW_CENTERMARKSYMBOL_3
  1

  0
LINE
  5
186
  8
LEVEL0
 62
     0
 10
0.0
 20
0.0
 30
0.0
 11
0.0
 21
2.5
 31
0.0
  0
LINE
  5
187
  8
LEVEL0
 62
     0
 10
0.0
 20
0.0
 30
0.0
 11
-2.5
 21
0.0
 31
0.0
  0
LINE
  5
188
  8
LEVEL0
 62
     0
 10
0.0
 20
0.0
 30
0.0
 11
0.0
 21
-2.5
 31
0.0
  0
LINE
  5
189
  8
LEVEL0
 62
     0
 10
0.0
 20
0.0
 30
0.0
 11
2.5
 21
0.0
 31
0.0
  0
LINE
  5
18A
  8
LEVEL0
 62
     0
 10
0.0
 20
2.5
 30
0.0
 11
0.0
 21
3.5
 31
0.0
  0
LINE
  5
18B
  8
LEVEL0
 62
     0
 10
-2.5
 20
0.0
 30
0.0
 11
-3.5
 21
0.0
 31
0.0
  0
LINE
  5
18C
  8
LEVEL0
 62
     0
 10
0.0
 20
-2.5
 30
0.0
 11
0.0
 21
-3.5
 31
0.0
  0
LINE
  5
18D
  8
LEVEL0
 62
     0
 10
2.5
 20
0.0
 30
0.0
 11
3.5
 21
0.0
 31
0.0
  0
ENDBLK
  5
185
  8
0
  0
ENDSEC
  0
SECTION
  2
ENTITIES
  0
INSERT
  5
AD
  8
LEVEL0
  2
SW_NOTE_0
 10
31.6493817249
 20
250.4352645707
 30
0.0
  0
TEXT
  5
AE
  8
LEVEL0
 10
74.7220829309
 20
38.2224102145
 30
0.0
 40
3.7041666667
  1
PRINT THIS PAGE 1:1 SCALE
 41
0.644
 11
74.7220829309
 21
36.9138760685
 31
0.0
 73
     1
  0
LINE
  5
AF
  8
0
  6
CONTINUOUS
 62
     7
 10
159.9786200011
 20
96.7050518395
 30
0.0
 11
60.4786200011
 21
96.7050518395
 31
0.0
  0
ARC
  5
B0
  8
0
  6
CONTINUOUS
 62
     7
 10
159.9786200011
 20
98.1050518395
 30
0.0
 40
1.400000000000034
 50
270.0
 51
0.0
  0
LINE
  5
B1
  8
0
  6
CONTINUOUS
 62
     7
 10
161.3786200011
 20
190.1550518395
 30
0.0
 11
161.3786200011
 21
98.1050518395
 31
0.0
  0
ARC
  5
B2
  8
0
  6
CONTINUOUS
 62
     7
 10
159.9786200011
 20
190.1550518395
 30
0.0
 40
1.400000000000034
 50
0.0
 51
90.0
  0
LINE
  5
B3
  8
0
  6
CONTINUOUS
 62
     7
 10
60.4786200011
 20
191.5550518395
 30
0.0
 11
159.9786200011
 21
191.5550518395
 31
0.0
  0
ARC
  5
B4
  8
0
  6
CONTINUOUS
 62
     7
 10
60.4786200011
 20
190.1550518395
 30
0.0
 40
1.399999999999999
 50
90.0
 51
180.0
  0
LINE
  5
B5
  8
0
  6
CONTINUOUS
 62
     7
 10
59.0786200011
 20
98.1050518395
 30
0.0
 11
59.0786200011
 21
190.1550518395
 31
0.0
  0
ARC
  5
B6
  8
0
  6
CONTINUOUS
 62
     7
 10
60.4786200011
 20
98.1050518395
 30
0.0
 40
1.40000000000002
 50
180.0
 51
270.0
  0
CIRCLE
  5
B7
  8
0
  6
CONTINUOUS
 62
     7
 10
169.7586200011
 20
88.3150518395
 30
0.0
 40
1.0
  0
CIRCLE
  5
B8
  8
0
  6
CONTINUOUS
 62
     7
 10
50.6986200011
 20
199.9450518395
 30
0.0
 40
1.0
  0
CIRCLE
  5
B9
  8
0
  6
CONTINUOUS
 62
     7
 10
169.7586200011
 20
199.9450518395
 30
0.0
 40
1.0
  0
CIRCLE
  5
BA
  8
0
  6
CONTINUOUS
 62
     7
 10
50.6986200011
 20
88.3150518395
 30
0.0
 40
1.0
  0
DIMENSION
  5
BB
  8
LEVEL0
  2
_D
 10
161.3786200011
 20
149.1861922823
 30
0.0
 11
118.8855306758
 21
149.1861922823
 31
0.0
 70
   160
  1
<>
  3
SLDDIMSTYLE0
 13
59.0786200011
 23
190.1550518395
 33
0.0
 14
161.3786200011
 24
190.1550518395
 34
0.0
  0
DIMENSION
  5
DE
  8
LEVEL0
  2
_D_1
 10
101.4134475803
 20
96.7050518395
 30
0.0
 11
101.4134475803
 21
134.0544065555
 31
0.0
 70
   160
  1
<>
  3
SLDDIMSTYLE1
 13
60.4786200011
 23
191.5550518395
 33
0.0
 14
60.4786200011
 24
96.7050518395
 34
0.0
 50
90.0
  0
DIMENSION
  5
FA
  8
LEVEL0
  2
_D_2
 10
60.4786200011
 20
190.1550518395
 30
0.0
 11
70.7381300399
 21
177.8899094365
 31
0.0
 70
   164
  1
<> TYP
  3
SLDDIMSTYLE2
 15
59.5803720119
 25
191.2289003158
 35
0.0
 40
0.0
  0
DIMENSION
  5
10B
  8
LEVEL0
  2
_D_3
 10
169.7586200011
 20
59.7172892437
 30
0.0
 11
111.835365462
 21
59.7172892437
 31
0.0
 70
   160
  1
<>
  3
SLDDIMSTYLE3
 13
50.6986200011
 23
84.8150518395
 33
0.0
 14
169.7586200011
 24
84.8150518395
 34
0.0
 50
0.0
  0
DIMENSION
  5
11F
  8
LEVEL0
  2
_D_4
 10
33.4536490932
 20
199.9450518395
 30
0.0
 11
33.4536490932
 21
149.1861922823
 31
0.0
 70
   160
  1
<>
  3
SLDDIMSTYLE3
 13
47.1986200011
 23
88.3150518395
 33
0.0
 14
47.1986200011
 24
199.9450518395
 34
0.0
 50
90.0
  0
DIMENSION
  5
132
  8
LEVEL0
  2
_D_5
 10
71.402744848
 20
96.7050518395
 30
0.0
 11
71.402744848
 21
80.9856329996
 31
0.0
 70
   160
  1
<>
  3
SLDDIMSTYLE3
 13
54.1986200011
 23
88.3150518395
 33
0.0
 14
60.4786200011
 24
96.7050518395
 34
0.0
 50
90.0
  0
DIMENSION
  5
145
  8
LEVEL0
  2
_D_6
 10
59.0786200011
 20
108.2626110803
 30
0.0
 11
40.8261323221
 21
108.2626110803
 31
0.0
 70
   160
  1
<>
  3
SLDDIMSTYLE3
 13
50.6986200011
 23
91.8150518395
 33
0.0
 14
59.0786200011
 24
98.1050518395
 34
0.0
  0
INSERT
  5
15E
  8
LEVEL0
  2
SW_NOTE_0_1
 10
168.9539733517
 20
200.5388058033
 30
0.0
  0
INSERT
  5
16A
  8
LEVEL0
  2
SW_CENTERMARKSYMBOL_0
 10
169.7586200011
 20
88.3150518395
 30
0.0
  0
INSERT
  5
176
  8
LEVEL0
  2
SW_CENTERMARKSYMBOL_1
 10
50.6986200011
 20
199.9450518395
 30
0.0
  0
INSERT
  5
182
  8
LEVEL0
  2
SW_CENTERMARKSYMBOL_2
 10
169.7586200011
 20
199.9450518395
 30
0.0
  0
INSERT
  5
18E
  8
LEVEL0
  2
SW_CENTERMARKSYMBOL_3
 10
50.6986200011
 20
88.3150518395
 30
0.0
  0
ENDSEC
  0
EOF
