  0
SECTION
  2
HEADER
  9
$ACADVER
  1
AC1009
  9
$DWGCODEPAGE
  3
ansi_1252
  9
$INSBASE
 10
0.0
 20
0.0
 30
0.0
  9
$EXTMIN
 10
0.0
 20
0.0
 30
0.0
  9
$EXTMAX
 10
210.0
 20
297.0
 30
0.0
  9
$LIMMIN
 10
0.0
 20
0.0
  9
$LIMMAX
 10
210.0
 20
297.0
  9
$ORTHOMODE
 70
     0
  9
$REGENMODE
 70
     1
  9
$FILLMODE
 70
     1
  9
$QTEXTMODE
 70
     0
  9
$MIRRTEXT
 70
     1
  9
$DRAGMODE
 70
     2
  9
$LTSCALE
 40
1.0
  9
$OSMODE
 70
    37
  9
$ATTMODE
 70
     1
  9
$TEXTSIZE
 40
2.0
  9
$TRACEWID
 40
1.0
  9
$TEXTSTYLE
  7
STANDARD
  9
$CLAYER
  8
0
  9
$CELTYPE
  6
BYLAYER
  9
$CECOLOR
 62
   256
  9
$DIMSCALE
 40
1.0
  9
$DIMASZ
 40
2.0
  9
$DIMEXO
 40
1.0
  9
$DIMDLI
 40
3.75
  9
$DIMRND
 40
0.0
  9
$DIMDLE
 40
0.0
  9
$DIMEXE
 40
1.0
  9
$DIMTP
 40
0.0
  9
$DIMTM
 40
0.0
  9
$DIMTXT
 40
2.0
  9
$DIMCEN
 40
2.5
  9
$DIMTSZ
 40
0.0
  9
$DIMTOL
 70
     0
  9
$DIMLIM
 70
     0
  9
$DIMTIH
 70
     1
  9
$DIMTOH
 70
     1
  9
$DIMSE1
 70
     0
  9
$DIMSE2
 70
     0
  9
$DIMTAD
 70
     1
  9
$DIMZIN
 70
     0
  9
$DIMBLK
  1

  9
$DIMASO
 70
     1
  9
$DIMSHO
 70
     1
  9
$DIMPOST
  1

  9
$DIMAPOST
  1

  9
$DIMALT
 70
     0
  9
$DIMALTD
 70
     3
  9
$DIMALTF
 40
0.0393700787
  9
$DIMLFAC
 40
1.0
  9
$DIMTOFL
 70
     1
  9
$DIMTVP
 40
0.0
  9
$DIMTIX
 70
     0
  9
$DIMSOXD
 70
     0
  9
$DIMSAH
 70
     0
  9
$DIMBLK1
  1

  9
$DIMBLK2
  1

  9
$DIMSTYLE
  2
ISO-25
  9
$DIMCLRD
 70
     0
  9
$DIMCLRE
 70
     0
  9
$DIMCLRT
 70
     0
  9
$DIMTFAC
 40
1.0
  9
$DIMGAP
 40
1.524
  9
$LUNITS
 70
     2
  9
$LUPREC
 70
     2
  9
$SKETCHINC
 40
1.0
  9
$FILLETRAD
 40
10.0
  9
$AUNITS
 70
     0
  9
$AUPREC
 70
     2
  9
$MENU
  1
.
  9
$ELEVATION
 40
0.0
  9
$PELEVATION
 40
0.0
  9
$THICKNESS
 40
0.0
  9
$LIMCHECK
 70
     0
  9
$CHAMFERA
 40
0.0
  9
$CHAMFERB
 40
0.0
  9
$SKPOLY
 70
     0
  9
$TDCREATE
 40
2459366.706953472
  9
$TDUPDATE
 40
2459366.706958912
  9
$TDINDWG
 40
0.0000000116
  9
$TDUSRTIMER
 40
0.0000000116
  9
$USRTIMER
 70
     1
  9
$ANGBASE
 50
0.0
  9
$ANGDIR
 70
     0
  9
$PDMODE
 70
     0
  9
$PDSIZE
 40
-1.0
  9
$PLINEWID
 40
0.0
  9
$COORDS
 70
     1
  9
$SPLFRAME
 70
     0
  9
$SPLINETYPE
 70
     6
  9
$SPLINESEGS
 70
     8
  9
$ATTDIA
 70
     0
  9
$ATTREQ
 70
     1
  9
$HANDLING
 70
     1
  9
$HANDSEED
  5
197
  9
$SURFTAB1
 70
     6
  9
$SURFTAB2
 70
     6
  9
$SURFTYPE
 70
     6
  9
$SURFU
 70
     6
  9
$SURFV
 70
     6
  9
$UCSNAME
  2

  9
$UCSORG
 10
0.0
 20
0.0
 30
0.0
  9
$UCSXDIR
 10
1.0
 20
0.0
 30
0.0
  9
$UCSYDIR
 10
0.0
 20
1.0
 30
0.0
  9
$PUCSNAME
  2

  9
$PUCSORG
 10
0.0
 20
0.0
 30
0.0
  9
$PUCSXDIR
 10
1.0
 20
0.0
 30
0.0
  9
$PUCSYDIR
 10
0.0
 20
1.0
 30
0.0
  9
$USERI1
 70
     0
  9
$USERI2
 70
     0
  9
$USERI3
 70
     0
  9
$USERI4
 70
     0
  9
$USERI5
 70
     0
  9
$USERR1
 40
0.0
  9
$USERR2
 40
0.0
  9
$USERR3
 40
0.0
  9
$USERR4
 40
0.0
  9
$USERR5
 40
0.0
  9
$WORLDVIEW
 70
     1
  9
$SHADEDGE
 70
     3
  9
$SHADEDIF
 70
    70
  9
$TILEMODE
 70
     1
  9
$MAXACTVP
 70
    64
  9
$PLIMCHECK
 70
     0
  9
$PEXTMIN
 10
1.0000000000E+20
 20
1.0000000000E+20
 30
1.0000000000E+20
  9
$PEXTMAX
 10
-1.0000000000E+20
 20
-1.0000000000E+20
 30
-1.0000000000E+20
  9
$PLIMMIN
 10
0.0
 20
0.0
  9
$PLIMMAX
 10
420.0
 20
297.0
  9
$UNITMODE
 70
     0
  9
$VISRETAIN
 70
     1
  9
$PLINEGEN
 70
     0
  9
$PSLTSCALE
 70
     1
  0
ENDSEC
  0
SECTION
  2
TABLES
  0
TABLE
  2
VPORT
 70
     1
  0
VPORT
  2
*ACTIVE
 70
     0
 10
0.0
 20
0.0
 11
1.0
 21
1.0
 12
105.0
 22
148.5
 13
0.0
 23
0.0
 14
10.0
 24
10.0
 15
10.0
 25
10.0
 16
0.0
 26
0.0
 36
1.0
 17
0.0
 27
0.0
 37
0.0
 40
297.0
 41
0.7070707071
 42
50.0
 43
0.0
 44
0.0
 50
0.0
 51
0.0
 71
     0
 72
  2000
 73
     1
 74
     3
 75
     0
 76
     0
 77
     0
 78
     0
  0
ENDTAB
  0
TABLE
  2
LTYPE
 70
     6
  0
LTYPE
  2
CONTINUOUS
 70
     0
  3
Solid line
 72
    65
 73
     0
 40
0.0
  0
LTYPE
  2
HIDDEN
 70
     0
  3
Hidden __ __ __ __ __ __ __ __ __ __ __ __ __ __
 72
    65
 73
     2
 40
1.905
 49
1.27
 49
-0.635
  0
LTYPE
  2
PHANTOM
 70
     0
  3
Phantom ______  __  __  ______  __  __  ______
 72
    65
 73
     6
 40
12.7
 49
6.35
 49
-1.27
 49
1.27
 49
-1.27
 49
1.27
 49
-1.27
  0
LTYPE
  2
CENTER
 70
     0
  3
Center ____ _ ____ _ ____ _ ____ _ ____ _ ____
 72
    65
 73
     4
 40
10.16
 49
6.35
 49
-1.27
 49
1.27
 49
-1.27
  0
LTYPE
  2
CENTERX2
 70
     0
  3
Center (2x) ________  __  ________  __  _____
 72
    65
 73
     4
 40
20.32
 49
12.7
 49
-2.54
 49
2.54
 49
-2.54
  0
LTYPE
  2
DOT2
 70
     0
  3
Dot (.5x) ........................................
 72
    65
 73
     2
 40
0.635
 49
0.0
 49
-0.635
  0
ENDTAB
  0
TABLE
  2
LAYER
 70
    53
  0
LAYER
  2
0
 70
     0
 62
     7
  6
CONTINUOUS
  0
LAYER
  2
SLD-0
 70
     0
 62
     7
  6
CONTINUOUS
  0
LAYER
  2
LEVEL0
 70
     0
 62
     7
  6
CONTINUOUS
  0
LAYER
  2
1
 70
     0
 62
     7
  6
CONTINUOUS
  0
LAYER
  2
2
 70
     0
 62
     7
  6
CONTINUOUS
  0
LAYER
  2
3
 70
     0
 62
     7
  6
CONTINUOUS
  0
LAYER
  2
4
 70
     0
 62
     7
  6
CONTINUOUS
  0
LAYER
  2
5
 70
     0
 62
     7
  6
CONTINUOUS
  0
LAYER
  2
6
 70
     0
 62
     7
  6
CONTINUOUS
  0
LAYER
  2
7
 70
     0
 62
     7
  6
CONTINUOUS
  0
LAYER
  2
8
 70
     0
 62
     7
  6
CONTINUOUS
  0
LAYER
  2
9
 70
     0
 62
     7
  6
CONTINUOUS
  0
LAYER
  2
10
 70
     0
 62
     7
  6
CONTINUOUS
  0
LAYER
  2
11
 70
     0
 62
     7
  6
CONTINUOUS
  0
LAYER
  2
12
 70
     0
 62
     7
  6
CONTINUOUS
  0
LAYER
  2
13
 70
     0
 62
     7
  6
CONTINUOUS
  0
LAYER
  2
14
 70
     0
 62
     7
  6
CONTINUOUS
  0
LAYER
  2
15
 70
     0
 62
     7
  6
CONTINUOUS
  0
LAYER
  2
16
 70
     0
 62
     7
  6
CONTINUOUS
  0
LAYER
  2
17
 70
     0
 62
     7
  6
CONTINUOUS
  0
LAYER
  2
18
 70
     0
 62
     7
  6
CONTINUOUS
  0
LAYER
  2
19
 70
     0
 62
     7
  6
CONTINUOUS
  0
LAYER
  2
20
 70
     0
 62
     7
  6
CONTINUOUS
  0
LAYER
  2
21
 70
     0
 62
     7
  6
CONTINUOUS
  0
LAYER
  2
22
 70
     0
 62
     7
  6
CONTINUOUS
  0
LAYER
  2
23
 70
     0
 62
     7
  6
CONTINUOUS
  0
LAYER
  2
24
 70
     0
 62
     7
  6
CONTINUOUS
  0
LAYER
  2
25
 70
     0
 62
     7
  6
CONTINUOUS
  0
LAYER
  2
26
 70
     0
 62
     7
  6
CONTINUOUS
  0
LAYER
  2
27
 70
     0
 62
     7
  6
CONTINUOUS
  0
LAYER
  2
28
 70
     0
 62
     7
  6
CONTINUOUS
  0
LAYER
  2
29
 70
     0
 62
     7
  6
CONTINUOUS
  0
LAYER
  2
30
 70
     0
 62
     7
  6
CONTINUOUS
  0
LAYER
  2
31
 70
     0
 62
     7
  6
CONTINUOUS
  0
LAYER
  2
32
 70
     0
 62
     7
  6
CONTINUOUS
  0
LAYER
  2
33
 70
     0
 62
     7
  6
CONTINUOUS
  0
LAYER
  2
34
 70
     0
 62
     7
  6
CONTINUOUS
  0
LAYER
  2
35
 70
     0
 62
     7
  6
CONTINUOUS
  0
LAYER
  2
36
 70
     0
 62
     7
  6
CONTINUOUS
  0
LAYER
  2
37
 70
     0
 62
     7
  6
CONTINUOUS
  0
LAYER
  2
38
 70
     0
 62
     7
  6
CONTINUOUS
  0
LAYER
  2
39
 70
     0
 62
     7
  6
CONTINUOUS
  0
LAYER
  2
40
 70
     0
 62
     7
  6
CONTINUOUS
  0
LAYER
  2
41
 70
     0
 62
     7
  6
CONTINUOUS
  0
LAYER
  2
42
 70
     0
 62
     7
  6
CONTINUOUS
  0
LAYER
  2
43
 70
     0
 62
     7
  6
CONTINUOUS
  0
LAYER
  2
44
 70
     0
 62
     7
  6
CONTINUOUS
  0
LAYER
  2
45
 70
     0
 62
     7
  6
CONTINUOUS
  0
LAYER
  2
46
 70
     0
 62
     7
  6
CONTINUOUS
  0
LAYER
  2
47
 70
     0
 62
     7
  6
CONTINUOUS
  0
LAYER
  2
48
 70
     0
 62
     7
  6
CONTINUOUS
  0
LAYER
  2
49
 70
     0
 62
     7
  6
CONTINUOUS
  0
LAYER
  2
50
 70
     0
 62
     7
  6
CONTINUOUS
  0
ENDTAB
  0
TABLE
  2
STYLE
 70
     1
  0
STYLE
  2
STANDARD
 70
     0
 40
0.0
 41
1.0
 50
0.0
 71
     0
 42
2.0
  3
txt
  4

  0
ENDTAB
  0
TABLE
  2
VIEW
 70
     0
  0
ENDTAB
  0
TABLE
  2
UCS
 70
     0
  0
ENDTAB
  0
TABLE
  2
APPID
 70
     1
  0
APPID
  2
ACAD
 70
     0
  0
ENDTAB
  0
TABLE
  2
DIMSTYLE
 70
     5
  0
DIMSTYLE
  2
ISO-25
 70
     0
  3

  4

  5

  6

  7

 40
1.0
 41
2.5
 42
0.625
 43
3.75
 44
1.25
 45
0.0
 46
0.0
 47
0.0
 48
0.0
140
2.5
141
2.5
142
0.0
143
0.0393700787
144
1.0
145
0.0
146
1.0
147
0.625
 71
     0
 72
     0
 73
     0
 74
     0
 75
     0
 76
     0
 77
     1
 78
     8
170
     0
171
     3
172
     1
173
     0
174
     0
175
     0
176
     0
177
     0
178
     0
  0
DIMSTYLE
  2
SLDDIMSTYLE0
 70
     0
  3

  4

  5

  6
CLOSED
  7
CLOSED
 40
1.0
 41
2.0
 42
0.0625
 43
0.38
 44
0.0
 45
0.000000001
 46
0.0
 47
0.3
 48
0.2
140
2.0
141
0.09
142
0.0
143
0.0393700787
144
1.0
145
0.0
146
1.0
147
0.5
 71
     1
 72
     0
 73
     0
 74
     0
 75
     0
 76
     0
 77
     1
 78
    12
170
     1
171
     2
172
     0
173
     1
174
     0
175
     0
176
     0
177
     0
178
     0
  0
DIMSTYLE
  2
SLDDIMSTYLE1
 70
     0
  3

  4

  5

  6
CLOSED
  7
CLOSED
 40
1.0
 41
2.0
 42
0.0625
 43
0.38
 44
0.0
 45
0.000000001
 46
0.0
 47
0.3
 48
0.2
140
2.0
141
0.09
142
0.0
143
0.0393700787
144
1.0
145
0.0
146
1.0
147
0.5
 71
     1
 72
     0
 73
     0
 74
     0
 75
     0
 76
     0
 77
     1
 78
    12
170
     1
171
     2
172
     0
173
     1
174
     0
175
     0
176
     0
177
     0
178
     0
  0
DIMSTYLE
  2
SLDDIMSTYLE2
 70
     0
  3

  4

  5

  6
CLOSED
  7
CLOSED
 40
1.0
 41
2.0
 42
0.0625
 43
0.38
 44
0.0
 45
0.000000001
 46
0.0
 47
0.0
 48
0.0
140
2.0
141
0.0
142
0.0
143
0.0393700787
144
1.0
145
0.0
146
1.0
147
0.5
 71
     0
 72
     0
 73
     0
 74
     0
 75
     0
 76
     0
 77
     1
 78
     0
170
     1
171
     3
172
     0
173
     1
174
     0
175
     0
176
     0
177
     0
178
     0
  0
DIMSTYLE
  2
SLDDIMSTYLE3
 70
     0
  3

  4

  5

  6
CLOSED
  7
CLOSED
 40
1.0
 41
2.0
 42
0.0625
 43
0.38
 44
0.0
 45
0.000000001
 46
0.0
 47
0.0
 48
0.0
140
2.0
141
0.09
142
0.0
143
0.0393700787
144
1.0
145
0.0
146
1.0
147
0.5
 71
     0
 72
     0
 73
     0
 74
     0
 75
     0
 76
     0
 77
     1
 78
    12
170
     1
171
     2
172
     0
173
     1
174
     0
175
     0
176
     0
177
     0
178
     0
  0
ENDTAB
  0
ENDSEC
  0
SECTION
  2
BLOCKS
  0
BLOCK
  8
0
  2
$MODEL_SPACE
 70
     0
 10
0.0
 20
0.0
 30
0.0
  3
$MODEL_SPACE
  1

  0
ENDBLK
  5
21
  8
0
  0
BLOCK
 67
     1
  8
0
  2
$PAPER_SPACE
 70
     0
 10
0.0
 20
0.0
 30
0.0
  3
$PAPER_SPACE
  1

  0
ENDBLK
  5
1D
 67
     1
  8
0
  0
BLOCK
  8
0
  2
SW_NOTE_0
 70
     0
 10
0.0
 20
0.0
 30
0.0
  3
SW_NOTE_0
  1

  0
TEXT
  5
AA
  8
LEVEL0
 62
     0
 10
0.0
 20
1.308534146
 30
0.0
 40
3.7041666667
  1
CUTOUT ROUTING TEMPLATE FOR GLASS FINISH
 41
0.65625
 11
0.0
 21
0.0
 31
0.0
 73
     1
  0
TEXT
  5
AB
  8
LEVEL0
 62
     0
 10
0.0
 20
-10.5692438402
 30
0.0
 40
3.7041666667
  1
058-1-604
 41
0.7
 11
0.0
 21
-11.8777779862
 31
0.0
 73
     1
  0
TEXT
  5
AC
  8
LEVEL0
 62
     0
 10
0.0
 20
-22.4470218264
 30
0.0
 40
3.7041666667
  1
SCALE 1:1
 41
0.7
 11
0.0
 21
-23.7555559725
 31
0.0
 73
     1
  0
ENDBLK
  5
A9
  8
0
  0
BLOCK
  8
0
  2
_CLOSED
 70
     0
 10
0.0
 20
0.0
 30
0.0
  3
_CLOSED
  1

  0
LINE
  5
C0
  8
0
  6
BYBLOCK
 62
     0
 10
-1.0
 20
0.166667
 30
0.0
 11
0.0
 21
0.0
 31
0.0
  0
LINE
  5
C1
  8
0
  6
BYBLOCK
 62
     0
 10
0.0
 20
0.0
 30
0.0
 11
-1.0
 21
-0.166667
 31
0.0
  0
LINE
  5
C2
  8
0
  6
BYBLOCK
 62
     0
 10
-1.0
 20
0.166667
 30
0.0
 11
-1.0
 21
-0.166667
 31
0.0
  0
LINE
  5
C3
  8
0
  6
BYBLOCK
 62
     0
 10
0.0
 20
0.0
 30
0.0
 11
-1.0
 21
0.0
 31
0.0
  0
ENDBLK
  5
BF
  8
0
  0
BLOCK
  8
0
  2
_D
 70
     0
 10
0.0
 20
0.0
 30
0.0
  3
_D
  1

  0
INSERT
  5
C7
  8
LEVEL0
  2
_CLOSED
 10
158.6245208341
 20
126.9652364759
 30
11.0
 41
2.0
 42
2.0
 50
0.0
  0
INSERT
  5
C8
  8
LEVEL0
  2
_CLOSED
 10
56.3245208341
 20
126.9652364759
 30
11.0
 41
2.0
 42
2.0
 50
180.0
  0
LINE
  5
C9
  8
LEVEL0
 10
118.1189258621
 20
137.715931142
 30
0.0
 11
117.5095508495
 21
137.715931142
 31
0.0
  0
LINE
  5
CA
  8
LEVEL0
 10
117.5095508495
 20
137.715931142
 30
0.0
 11
117.5095508495
 21
132.5437087549
 31
0.0
  0
LINE
  5
CB
  8
LEVEL0
 10
117.5095508495
 20
132.5437087549
 30
0.0
 11
118.1189258621
 21
132.5437087549
 31
0.0
  0
LINE
  5
CC
  8
LEVEL0
 10
130.8189247773
 20
137.715931142
 30
0.0
 11
131.4282997899
 21
137.715931142
 31
0.0
  0
LINE
  5
CD
  8
LEVEL0
 10
131.4282997899
 20
137.715931142
 30
0.0
 11
131.4282997899
 21
132.5437087549
 31
0.0
  0
LINE
  5
CE
  8
LEVEL0
 10
131.4282997899
 20
132.5437087549
 30
0.0
 11
130.8189247773
 21
132.5437087549
 31
0.0
  0
LINE
  5
CF
  8
LEVEL0
 10
158.6245208341
 20
126.9652364759
 30
0.0
 11
56.3245208341
 21
126.9652364759
 31
0.0
  0
TEXT
  5
D0
  8
LEVEL0
 10
115.4223981119
 20
127.7023121293
 30
11.0
 40
2.0
  1
  
 50
0.0
 41
0.7
 11
115.4223981119
 21
126.9957920054
 31
11.0
 73
     1
  0
TEXT
  5
D1
  8
LEVEL0
 10
118.1189258621
 20
133.2807844083
 30
11.0
 40
2.0
  1
4.0
 50
0.0
 41
0.7
 11
118.1189258621
 21
132.5742642844
 31
11.0
 73
     1
  0
TEXT
  5
D2
  8
LEVEL0
 10
121.8133702912
 20
133.2807844083
 30
11.0
 40
2.0
  1
 
 50
0.0
 41
0.7
 11
121.8133702912
 21
132.5742642844
 31
11.0
 73
     1
  0
TEXT
  5
D3
  8
LEVEL0
 10
122.5522588045
 20
135.8363400723
 30
11.0
 40
2.0
  1
+
 50
0.0
 41
0.7
 11
122.5522588045
 21
135.1298199484
 31
11.0
 73
     1
  0
TEXT
  5
D4
  8
LEVEL0
 10
122.9175365859
 20
133.2502288788
 30
11.0
 40
2.0
  1
-
 50
0.0
 41
0.7
 11
122.9175365859
 21
132.5437087549
 31
11.0
 73
     1
  0
TEXT
  5
D5
  8
LEVEL0
 10
124.1689258293
 20
135.8363400723
 30
11.0
 40
2.0
  1
0.012
 50
0.0
 41
0.7
 11
124.1689258293
 21
135.1298199484
 31
11.0
 73
     1
  0
TEXT
  5
D6
  8
LEVEL0
 10
124.1689258293
 20
133.2502288788
 30
11.0
 40
2.0
  1
0.008
 50
0.0
 41
0.7
 11
124.1689258293
 21
132.5437087549
 31
11.0
 73
     1
  0
TEXT
  5
D7
  8
LEVEL0
 10
118.1189255128
 20
127.6717561341
 30
11.0
 40
2.0
  1
102.3
 50
0.0
 41
0.7
 11
118.1189255128
 21
126.9652360102
 31
11.0
 73
     1
  0
TEXT
  5
D8
  8
LEVEL0
 10
124.7689253921
 20
127.6717561341
 30
11.0
 40
2.0
  1
 
 50
0.0
 41
0.7
 11
124.7689253921
 21
126.9652360102
 31
11.0
 73
     1
  0
TEXT
  5
D9
  8
LEVEL0
 10
125.5078143711
 20
130.2578673276
 30
11.0
 40
2.0
  1
+
 50
0.0
 41
0.7
 11
125.5078143711
 21
129.5513472038
 31
11.0
 73
     1
  0
TEXT
  5
DA
  8
LEVEL0
 10
125.8730921525
 20
127.6717561341
 30
11.0
 40
2.0
  1
-
 50
0.0
 41
0.7
 11
125.8730921525
 21
126.9652360102
 31
11.0
 73
     1
  0
TEXT
  5
DB
  8
LEVEL0
 10
127.1244804646
 20
130.2578673276
 30
11.0
 40
2.0
  1
0.3
 50
0.0
 41
0.7
 11
127.1244804646
 21
129.5513472038
 31
11.0
 73
     1
  0
TEXT
  5
DC
  8
LEVEL0
 10
127.1244804646
 20
127.6717561341
 30
11.0
 40
2.0
  1
0.2
 50
0.0
 41
0.7
 11
127.1244804646
 21
126.9652360102
 31
11.0
 73
     1
  0
TEXT
  5
DD
  8
LEVEL0
 10
132.0376752681
 20
127.7023121293
 30
11.0
 40
2.0
  1
  
 50
0.0
 41
0.7
 11
132.0376752681
 21
126.9957920054
 31
11.0
 73
     1
  0
ENDBLK
  5
C6
  8
0
  0
BLOCK
  8
0
  2
_D_1
 70
     0
 10
0.0
 20
0.0
 30
0.0
  3
_D_1
  1

  0
INSERT
  5
E3
  8
LEVEL0
  2
_CLOSED
 10
97.1109092816
 20
187.4268998757
 30
11.0
 41
2.0
 42
2.0
 50
90.0
  0
INSERT
  5
E4
  8
LEVEL0
  2
_CLOSED
 10
97.1109092816
 20
92.5268998757
 30
11.0
 41
2.0
 42
2.0
 50
270.0
  0
LINE
  5
E5
  8
LEVEL0
 10
86.3602146156
 20
147.8756789903
 30
0.0
 11
86.3602146156
 21
147.2663039777
 31
0.0
  0
LINE
  5
E6
  8
LEVEL0
 10
86.3602146156
 20
147.2663039777
 30
0.0
 11
91.5324370026
 21
147.2663039777
 31
0.0
  0
LINE
  5
E7
  8
LEVEL0
 10
91.5324370026
 20
147.2663039777
 30
0.0
 11
91.5324370026
 21
147.8756789903
 31
0.0
  0
LINE
  5
E8
  8
LEVEL0
 10
86.3602146156
 20
160.5756779055
 30
0.0
 11
86.3602146156
 21
161.1850529181
 31
0.0
  0
LINE
  5
E9
  8
LEVEL0
 10
86.3602146156
 20
161.1850529181
 30
0.0
 11
91.5324370026
 21
161.1850529181
 31
0.0
  0
LINE
  5
EA
  8
LEVEL0
 10
91.5324370026
 20
161.1850529181
 30
0.0
 11
91.5324370026
 21
160.5756779055
 31
0.0
  0
LINE
  5
EB
  8
LEVEL0
 10
97.1109092816
 20
187.4268998757
 30
0.0
 11
97.1109092816
 21
92.5268998757
 31
0.0
  0
TEXT
  5
EC
  8
LEVEL0
 10
96.3738336283
 20
145.1791512401
 30
11.0
 40
2.0
  1
  
 50
90.0
 41
0.7
 11
97.0803537521
 21
145.1791512401
 31
11.0
 73
     1
  0
TEXT
  5
ED
  8
LEVEL0
 10
90.7953613492
 20
147.8756789903
 30
11.0
 40
2.0
  1
3.7
 50
90.0
 41
0.7
 11
91.5018814731
 21
147.8756789903
 31
11.0
 73
     1
  0
TEXT
  5
EE
  8
LEVEL0
 10
90.7953613492
 20
151.5701234195
 30
11.0
 40
2.0
  1
 
 50
90.0
 41
0.7
 11
91.5018814731
 21
151.5701234195
 31
11.0
 73
     1
  0
TEXT
  5
EF
  8
LEVEL0
 10
88.2398056852
 20
152.3090119327
 30
11.0
 40
2.0
  1
+
 50
90.0
 41
0.7
 11
88.9463258091
 21
152.3090119327
 31
11.0
 73
     1
  0
TEXT
  5
F0
  8
LEVEL0
 10
90.8259168788
 20
152.6742897141
 30
11.0
 40
2.0
  1
-
 50
90.0
 41
0.7
 11
91.5324370026
 21
152.6742897141
 31
11.0
 73
     1
  0
TEXT
  5
F1
  8
LEVEL0
 10
88.2398056852
 20
153.9256789575
 30
11.0
 40
2.0
  1
0.012
 50
90.0
 41
0.7
 11
88.9463258091
 21
153.9256789575
 31
11.0
 73
     1
  0
TEXT
  5
F2
  8
LEVEL0
 10
90.8259168788
 20
153.9256789575
 30
11.0
 40
2.0
  1
0.008
 50
90.0
 41
0.7
 11
91.5324370026
 21
153.9256789575
 31
11.0
 73
     1
  0
TEXT
  5
F3
  8
LEVEL0
 10
96.4043896234
 20
148.61456762
 30
11.0
 40
2.0
  1
94.9
 50
90.0
 41
0.7
 11
97.1109097473
 21
148.61456762
 31
11.0
 73
     1
  0
TEXT
  5
F4
  8
LEVEL0
 10
96.4043896234
 20
153.7867895414
 30
11.0
 40
2.0
  1
 
 50
90.0
 41
0.7
 11
97.1109097473
 21
153.7867895414
 31
11.0
 73
     1
  0
TEXT
  5
F5
  8
LEVEL0
 10
93.8182784299
 20
154.5256785204
 30
11.0
 40
2.0
  1
+
 50
90.0
 41
0.7
 11
94.5247985537
 21
154.5256785204
 31
11.0
 73
     1
  0
TEXT
  5
F6
  8
LEVEL0
 10
96.4043896234
 20
154.8909563018
 30
11.0
 40
2.0
  1
-
 50
90.0
 41
0.7
 11
97.1109097473
 21
154.8909563018
 31
11.0
 73
     1
  0
TEXT
  5
F7
  8
LEVEL0
 10
93.8182784299
 20
156.1423450795
 30
11.0
 40
2.0
  1
0.3
 50
90.0
 41
0.7
 11
94.5247985537
 21
156.1423450795
 31
11.0
 73
     1
  0
TEXT
  5
F8
  8
LEVEL0
 10
96.4043896234
 20
156.1423450795
 30
11.0
 40
2.0
  1
0.2
 50
90.0
 41
0.7
 11
97.1109097473
 21
156.1423450795
 31
11.0
 73
     1
  0
TEXT
  5
F9
  8
LEVEL0
 10
96.3738336283
 20
161.7944283963
 30
11.0
 40
2.0
  1
  
 50
90.0
 41
0.7
 11
97.0803537521
 21
161.7944283963
 31
11.0
 73
     1
  0
ENDBLK
  5
E2
  8
0
  0
BLOCK
  8
0
  2
_D_2
 70
     0
 10
0.0
 20
0.0
 30
0.0
  3
_D_2
  1

  0
INSERT
  5
FF
  8
LEVEL0
  2
_CLOSED
 10
56.5881247311
 20
187.1632959788
 30
11.0
 41
2.0
 42
2.0
 50
314.9410455137
  0
LINE
  5
100
  8
LEVEL0
 10
73.5847118378
 20
178.8431510315
 30
0.0
 11
73.1538186342
 21
179.2740442352
 31
0.0
  0
LINE
  5
101
  8
LEVEL0
 10
73.1538186342
 20
179.2740442352
 30
0.0
 11
70.908754631
 21
177.028980232
 31
0.0
  0
LINE
  5
102
  8
LEVEL0
 10
70.908754631
 20
177.028980232
 30
0.0
 11
71.3396478347
 21
176.5980870284
 31
0.0
  0
LINE
  5
103
  8
LEVEL0
 10
78.2869718474
 20
174.140891022
 30
0.0
 11
78.7178650511
 21
173.7099978183
 31
0.0
  0
LINE
  5
104
  8
LEVEL0
 10
78.7178650511
 20
173.7099978183
 30
0.0
 11
76.4728010479
 21
171.4649338152
 31
0.0
  0
LINE
  5
105
  8
LEVEL0
 10
76.4728010479
 20
171.4649338152
 30
0.0
 11
76.0419078442
 21
171.8958270188
 31
0.0
  0
LINE
  5
106
  8
LEVEL0
 10
56.5881247311
 20
187.1632959788
 30
0.0
 11
78.6866837506
 21
165.0192134818
 31
0.0
  0
LINE
  5
107
  8
LEVEL0
 10
56.5881247311
 20
187.1632959788
 30
0.0
 11
53.871283079
 21
189.8857343795
 31
0.0
  0
TEXT
  5
108
  8
LEVEL0
 10
71.8392330053
 20
177.097672199
 30
11.0
 40
2.0
  1
0.035
 50
315.0
 41
0.7
 11
71.3396478347
 21
176.5980870284
 31
11.0
 73
     1
  0
TEXT
  5
109
  8
LEVEL0
 10
69.673227188
 20
175.0318400564
 30
11.0
 40
2.0
  1
R0.90
 50
315.0
 41
0.7
 11
69.1736420174
 21
174.5322548858
 31
11.0
 73
     1
  0
TEXT
  5
10A
  8
LEVEL0
 10
75.3089667937
 20
169.4393128243
 30
11.0
 40
2.0
  1
 RYP
 50
315.0
 41
0.7
 11
74.809381623
 21
168.9397276537
 31
11.0
 73
     1
  0
ENDBLK
  5
FE
  8
0
  0
BLOCK
  8
0
  2
_D_3
 70
     0
 10
0.0
 20
0.0
 30
0.0
  3
_D_3
  1

  0
INSERT
  5
110
  8
LEVEL0
  2
_CLOSED
 10
47.9445208341
 20
104.685313812
 30
11.0
 41
2.0
 42
2.0
 50
180.0
  0
INSERT
  5
111
  8
LEVEL0
  2
_CLOSED
 10
56.3245208341
 20
104.685313812
 30
11.0
 41
2.0
 42
2.0
 50
0.0
  0
LINE
  5
112
  8
LEVEL0
 10
39.0880891179
 20
110.8526748591
 30
0.0
 11
38.4787141053
 21
110.8526748591
 31
0.0
  0
LINE
  5
113
  8
LEVEL0
 10
38.4787141053
 20
110.8526748591
 30
0.0
 11
38.4787141053
 21
107.6776748975
 31
0.0
  0
LINE
  5
114
  8
LEVEL0
 10
38.4787141053
 20
107.6776748975
 30
0.0
 11
39.0880891179
 21
107.6776748975
 31
0.0
  0
LINE
  5
115
  8
LEVEL0
 10
42.7825333142
 20
110.8526748591
 30
0.0
 11
43.3919083268
 21
110.8526748591
 31
0.0
  0
LINE
  5
116
  8
LEVEL0
 10
43.3919083268
 20
110.8526748591
 30
0.0
 11
43.3919083268
 21
107.6776748975
 31
0.0
  0
LINE
  5
117
  8
LEVEL0
 10
43.3919083268
 20
107.6776748975
 30
0.0
 11
42.7825333142
 21
107.6776748975
 31
0.0
  0
LINE
  5
118
  8
LEVEL0
 10
47.9445208341
 20
88.6618998757
 30
0.0
 11
47.9445208341
 21
105.685313812
 31
0.0
  0
LINE
  5
119
  8
LEVEL0
 10
47.9445208341
 20
104.685313812
 30
0.0
 11
36.3915613677
 21
104.685313812
 31
0.0
  0
LINE
  5
11A
  8
LEVEL0
 10
47.9445208341
 20
104.685313812
 30
0.0
 11
56.3245208341
 21
104.685313812
 31
0.0
  0
TEXT
  5
11B
  8
LEVEL0
 10
36.3915613677
 20
105.4223894653
 30
11.0
 40
2.0
  1
  
 41
0.7
 11
36.3915613677
 21
104.7158693415
 31
11.0
 73
     1
  0
TEXT
  5
11C
  8
LEVEL0
 10
39.0880891179
 20
108.3841950213
 30
11.0
 40
2.0
  1
0.3
 41
0.7
 11
39.0880891179
 21
107.6776748975
 31
11.0
 73
     1
  0
TEXT
  5
11D
  8
LEVEL0
 10
38.3492002553
 20
105.391833703
 30
11.0
 40
2.0
  1
8.38
 41
0.7
 11
38.3492002553
 21
104.6853135791
 31
11.0
 73
     1
  0
TEXT
  5
11E
  8
LEVEL0
 10
44.0012835722
 20
105.4223894653
 30
11.0
 40
2.0
  1
  
 41
0.7
 11
44.0012835722
 21
104.7158693415
 31
11.0
 73
     1
  0
ENDBLK
  5
10F
  8
0
  0
BLOCK
  8
0
  2
_D_4
 70
     0
 10
0.0
 20
0.0
 30
0.0
  3
_D_4
  1

  0
INSERT
  5
123
  8
LEVEL0
  2
_CLOSED
 10
75.7133393473
 20
84.1618998757
 30
11.0
 41
2.0
 42
2.0
 50
270.0
  0
INSERT
  5
124
  8
LEVEL0
  2
_CLOSED
 10
75.7133393473
 20
92.5268998757
 30
11.0
 41
2.0
 42
2.0
 50
90.0
  0
LINE
  5
125
  8
LEVEL0
 10
69.5459783002
 20
75.9690781111
 30
0.0
 11
69.5459783002
 21
75.3597030985
 31
0.0
  0
LINE
  5
126
  8
LEVEL0
 10
69.5459783002
 20
75.3597030985
 30
0.0
 11
72.7209782618
 21
75.3597030985
 31
0.0
  0
LINE
  5
127
  8
LEVEL0
 10
72.7209782618
 20
75.3597030985
 30
0.0
 11
72.7209782618
 21
75.9690781111
 31
0.0
  0
LINE
  5
128
  8
LEVEL0
 10
69.5459783002
 20
79.6635223074
 30
0.0
 11
69.5459783002
 21
80.2728973199
 31
0.0
  0
LINE
  5
129
  8
LEVEL0
 10
69.5459783002
 20
80.2728973199
 30
0.0
 11
72.7209782618
 21
80.2728973199
 31
0.0
  0
LINE
  5
12A
  8
LEVEL0
 10
72.7209782618
 20
80.2728973199
 30
0.0
 11
72.7209782618
 21
79.6635223074
 31
0.0
  0
LINE
  5
12B
  8
LEVEL0
 10
52.4445208341
 20
84.1618998757
 30
0.0
 11
76.7133393473
 21
84.1618998757
 31
0.0
  0
LINE
  5
12C
  8
LEVEL0
 10
75.7133393473
 20
84.1618998757
 30
0.0
 11
75.7133393473
 21
73.2725503608
 31
0.0
  0
LINE
  5
12D
  8
LEVEL0
 10
75.7133393473
 20
84.1618998757
 30
0.0
 11
75.7133393473
 21
92.5268998757
 31
0.0
  0
TEXT
  5
12E
  8
LEVEL0
 10
74.9762636939
 20
73.2725503608
 30
11.0
 40
2.0
  1
  
 50
90.0
 41
0.7
 11
75.6827838178
 21
73.2725503608
 31
11.0
 73
     1
  0
TEXT
  5
12F
  8
LEVEL0
 10
72.014458138
 20
75.9690781111
 30
11.0
 40
2.0
  1
0.3
 50
90.0
 41
0.7
 11
72.7209782618
 21
75.9690781111
 31
11.0
 73
     1
  0
TEXT
  5
130
  8
LEVEL0
 10
75.0068194563
 20
75.2301892485
 30
11.0
 40
2.0
  1
8.37
 50
90.0
 41
0.7
 11
75.7133395801
 21
75.2301892485
 31
11.0
 73
     1
  0
TEXT
  5
131
  8
LEVEL0
 10
74.9762636939
 20
80.8822725653
 30
11.0
 40
2.0
  1
  
 50
90.0
 41
0.7
 11
75.6827838178
 21
80.8822725653
 31
11.0
 73
     1
  0
ENDBLK
  5
122
  8
0
  0
BLOCK
  8
0
  2
_D_5
 70
     0
 10
0.0
 20
0.0
 30
0.0
  3
_D_5
  1

  0
INSERT
  5
136
  8
LEVEL0
  2
_CLOSED
 10
47.9445208341
 20
66.329923274
 30
11.0
 41
2.0
 42
2.0
 50
180.0
  0
INSERT
  5
137
  8
LEVEL0
  2
_CLOSED
 10
167.0045208341
 20
66.329923274
 30
11.0
 41
2.0
 42
2.0
 50
0.0
  0
LINE
  5
138
  8
LEVEL0
 10
100.2282526233
 20
72.4972843211
 30
0.0
 11
99.6188776107
 21
72.4972843211
 31
0.0
  0
LINE
  5
139
  8
LEVEL0
 10
99.6188776107
 20
72.4972843211
 30
0.0
 11
99.6188776107
 21
69.3222843595
 31
0.0
  0
LINE
  5
13A
  8
LEVEL0
 10
99.6188776107
 20
69.3222843595
 30
0.0
 11
100.2282526233
 21
69.3222843595
 31
0.0
  0
LINE
  5
13B
  8
LEVEL0
 10
103.9226968196
 20
72.4972843211
 30
0.0
 11
104.5320718322
 21
72.4972843211
 31
0.0
  0
LINE
  5
13C
  8
LEVEL0
 10
104.5320718322
 20
72.4972843211
 30
0.0
 11
104.5320718322
 21
69.3222843595
 31
0.0
  0
LINE
  5
13D
  8
LEVEL0
 10
104.5320718322
 20
69.3222843595
 30
0.0
 11
103.9226968196
 21
69.3222843595
 31
0.0
  0
LINE
  5
13E
  8
LEVEL0
 10
47.9445208341
 20
79.6618998757
 30
0.0
 11
47.9445208341
 21
65.329923274
 31
0.0
  0
LINE
  5
13F
  8
LEVEL0
 10
167.0045208341
 20
79.6618998757
 30
0.0
 11
167.0045208341
 21
65.329923274
 31
0.0
  0
LINE
  5
140
  8
LEVEL0
 10
47.9445208341
 20
66.329923274
 30
0.0
 11
167.0045208341
 21
66.329923274
 31
0.0
  0
TEXT
  5
141
  8
LEVEL0
 10
96.5338080778
 20
67.0669989274
 30
11.0
 40
2.0
  1
  
 41
0.7
 11
96.5338080778
 21
66.3604788035
 31
11.0
 73
     1
  0
TEXT
  5
142
  8
LEVEL0
 10
100.2282526233
 20
70.0288044833
 30
11.0
 40
2.0
  1
4.7
 41
0.7
 11
100.2282526233
 21
69.3222843595
 31
11.0
 73
     1
  0
TEXT
  5
143
  8
LEVEL0
 10
98.0115858028
 20
67.036443165
 30
11.0
 40
2.0
  1
119.06
 41
0.7
 11
98.0115858028
 21
66.3299230412
 31
11.0
 73
     1
  0
TEXT
  5
144
  8
LEVEL0
 10
106.1393638729
 20
67.0669989274
 30
11.0
 40
2.0
  1
  
 41
0.7
 11
106.1393638729
 21
66.3604788035
 31
11.0
 73
     1
  0
ENDBLK
  5
135
  8
0
  0
BLOCK
  8
0
  2
_D_6
 70
     0
 10
0.0
 20
0.0
 30
0.0
  3
_D_6
  1

  0
INSERT
  5
149
  8
LEVEL0
  2
_CLOSED
 10
33.1621305536
 20
84.1618998757
 30
11.0
 41
2.0
 42
2.0
 50
270.0
  0
INSERT
  5
14A
  8
LEVEL0
  2
_CLOSED
 10
33.1621305536
 20
195.7918998757
 30
11.0
 41
2.0
 42
2.0
 50
90.0
  0
LINE
  5
14B
  8
LEVEL0
 10
26.9947695064
 20
140.366461086
 30
0.0
 11
26.9947695064
 21
139.7570860734
 31
0.0
  0
LINE
  5
14C
  8
LEVEL0
 10
26.9947695064
 20
139.7570860734
 30
0.0
 11
30.1697694681
 21
139.7570860734
 31
0.0
  0
LINE
  5
14D
  8
LEVEL0
 10
30.1697694681
 20
139.7570860734
 30
0.0
 11
30.1697694681
 21
140.366461086
 31
0.0
  0
LINE
  5
14E
  8
LEVEL0
 10
26.9947695064
 20
144.0609052823
 30
0.0
 11
26.9947695064
 21
144.6702802949
 31
0.0
  0
LINE
  5
14F
  8
LEVEL0
 10
26.9947695064
 20
144.6702802949
 30
0.0
 11
30.1697694681
 21
144.6702802949
 31
0.0
  0
LINE
  5
150
  8
LEVEL0
 10
30.1697694681
 20
144.6702802949
 30
0.0
 11
30.1697694681
 21
144.0609052823
 31
0.0
  0
LINE
  5
151
  8
LEVEL0
 10
43.4445208341
 20
84.1618998757
 30
0.0
 11
32.1621305536
 21
84.1618998757
 31
0.0
  0
LINE
  5
152
  8
LEVEL0
 10
43.4445208341
 20
195.7918998757
 30
0.0
 11
32.1621305536
 21
195.7918998757
 31
0.0
  0
LINE
  5
153
  8
LEVEL0
 10
33.1621305536
 20
84.1618998757
 30
0.0
 11
33.1621305536
 21
195.7918998757
 31
0.0
  0
TEXT
  5
154
  8
LEVEL0
 10
32.4250549002
 20
136.6720165405
 30
11.0
 40
2.0
  1
  
 50
90.0
 41
0.7
 11
33.131575024
 21
136.6720165405
 31
11.0
 73
     1
  0
TEXT
  5
155
  8
LEVEL0
 10
29.4632493442
 20
140.366461086
 30
11.0
 40
2.0
  1
4.4
 50
90.0
 41
0.7
 11
30.1697694681
 21
140.366461086
 31
11.0
 73
     1
  0
TEXT
  5
156
  8
LEVEL0
 10
32.4556106625
 20
138.1497942656
 30
11.0
 40
2.0
  1
111.63
 50
90.0
 41
0.7
 11
33.1621307864
 21
138.1497942656
 31
11.0
 73
     1
  0
TEXT
  5
157
  8
LEVEL0
 10
32.4250549002
 20
146.2775723356
 30
11.0
 40
2.0
  1
  
 50
90.0
 41
0.7
 11
33.131575024
 21
146.2775723356
 31
11.0
 73
     1
  0
ENDBLK
  5
148
  8
0
  0
BLOCK
  8
0
  2
SW_NOTE_0_1
 70
     0
 10
0.0
 20
0.0
 30
0.0
  3
SW_NOTE_0_1
  1

  0
TEXT
  5
15B
  8
LEVEL0
 62
     0
 10
-74.1388555973
 20
17.2031429393
 30
0.0
 40
2.0
  1
MARK 4 SCREW POSITIONS
 41
0.6522727273
 11
-74.1388555973
 21
16.4966228155
 31
0.0
 73
     1
  0
LINE
  5
15C
  8
LEVEL0
 62
     0
 10
-40.0660798383
 20
18.2704836255
 30
0.0
 11
0.0
 21
0.0
 31
0.0
  0
INSERT
  5
162
  8
LEVEL0
 62
     0
  2
_DOT
 10
0.0
 20
0.0
 30
11.0
 41
0.6153846154
 42
0.6153846154
 50
335.4865983989
  0
ENDBLK
  5
15A
  8
0
  0
BLOCK
  8
0
  2
_DOT
 70
     0
 10
0.0
 20
0.0
 30
0.0
  3
_DOT
  1

  0
POLYLINE
  5
160
  8
0
  6
BYBLOCK
 62
     0
 66
     1
 10
0.0
 20
0.0
 30
0.0
 70
     1
 40
0.5
 41
0.5
  0
VERTEX
  5
194
  8
0
  6
BYBLOCK
 62
     0
 10
-0.25
 20
0.0
 30
0.0
 42
1.0
  0
VERTEX
  5
195
  8
0
  6
BYBLOCK
 62
     0
 10
0.25
 20
0.0
 30
0.0
 42
1.0
  0
SEQEND
  5
196
  8
0
  6
BYBLOCK
 62
     0
  0
LINE
  5
161
  8
0
  6
BYBLOCK
 62
     0
 10
-0.5
 20
0.0
 30
0.0
 11
-1.0
 21
0.0
 31
0.0
  0
ENDBLK
  5
15F
  8
0
  0
BLOCK
  8
0
  2
SW_CENTERMARKSYMBOL_0
 70
     0
 10
0.0
 20
0.0
 30
0.0
  3
SW_CENTERMARKSYMBOL_0
  1

  0
LINE
  5
167
  8
LEVEL0
 62
     0
 10
0.0
 20
0.0
 30
0.0
 11
0.0
 21
2.5
 31
0.0
  0
LINE
  5
168
  8
LEVEL0
 62
     0
 10
0.0
 20
0.0
 30
0.0
 11
-2.5
 21
0.0
 31
0.0
  0
LINE
  5
169
  8
LEVEL0
 62
     0
 10
0.0
 20
0.0
 30
0.0
 11
0.0
 21
-2.5
 31
0.0
  0
LINE
  5
16A
  8
LEVEL0
 62
     0
 10
0.0
 20
0.0
 30
0.0
 11
2.5
 21
0.0
 31
0.0
  0
LINE
  5
16B
  8
LEVEL0
 62
     0
 10
0.0
 20
2.5
 30
0.0
 11
0.0
 21
3.5
 31
0.0
  0
LINE
  5
16C
  8
LEVEL0
 62
     0
 10
-2.5
 20
0.0
 30
0.0
 11
-3.5
 21
0.0
 31
0.0
  0
LINE
  5
16D
  8
LEVEL0
 62
     0
 10
0.0
 20
-2.5
 30
0.0
 11
0.0
 21
-3.5
 31
0.0
  0
LINE
  5
16E
  8
LEVEL0
 62
     0
 10
2.5
 20
0.0
 30
0.0
 11
3.5
 21
0.0
 31
0.0
  0
ENDBLK
  5
166
  8
0
  0
BLOCK
  8
0
  2
SW_CENTERMARKSYMBOL_1
 70
     0
 10
0.0
 20
0.0
 30
0.0
  3
SW_CENTERMARKSYMBOL_1
  1

  0
LINE
  5
173
  8
LEVEL0
 62
     0
 10
0.0
 20
0.0
 30
0.0
 11
0.0
 21
2.5
 31
0.0
  0
LINE
  5
174
  8
LEVEL0
 62
     0
 10
0.0
 20
0.0
 30
0.0
 11
-2.5
 21
0.0
 31
0.0
  0
LINE
  5
175
  8
LEVEL0
 62
     0
 10
0.0
 20
0.0
 30
0.0
 11
0.0
 21
-2.5
 31
0.0
  0
LINE
  5
176
  8
LEVEL0
 62
     0
 10
0.0
 20
0.0
 30
0.0
 11
2.5
 21
0.0
 31
0.0
  0
LINE
  5
177
  8
LEVEL0
 62
     0
 10
0.0
 20
2.5
 30
0.0
 11
0.0
 21
3.5
 31
0.0
  0
LINE
  5
178
  8
LEVEL0
 62
     0
 10
-2.5
 20
0.0
 30
0.0
 11
-3.5
 21
0.0
 31
0.0
  0
LINE
  5
179
  8
LEVEL0
 62
     0
 10
0.0
 20
-2.5
 30
0.0
 11
0.0
 21
-3.5
 31
0.0
  0
LINE
  5
17A
  8
LEVEL0
 62
     0
 10
2.5
 20
0.0
 30
0.0
 11
3.5
 21
0.0
 31
0.0
  0
ENDBLK
  5
172
  8
0
  0
BLOCK
  8
0
  2
SW_CENTERMARKSYMBOL_2
 70
     0
 10
0.0
 20
0.0
 30
0.0
  3
SW_CENTERMARKSYMBOL_2
  1

  0
LINE
  5
17F
  8
LEVEL0
 62
     0
 10
0.0
 20
0.0
 30
0.0
 11
0.0
 21
2.5
 31
0.0
  0
LINE
  5
180
  8
LEVEL0
 62
     0
 10
0.0
 20
0.0
 30
0.0
 11
-2.5
 21
0.0
 31
0.0
  0
LINE
  5
181
  8
LEVEL0
 62
     0
 10
0.0
 20
0.0
 30
0.0
 11
0.0
 21
-2.5
 31
0.0
  0
LINE
  5
182
  8
LEVEL0
 62
     0
 10
0.0
 20
0.0
 30
0.0
 11
2.5
 21
0.0
 31
0.0
  0
LINE
  5
183
  8
LEVEL0
 62
     0
 10
0.0
 20
2.5
 30
0.0
 11
0.0
 21
3.5
 31
0.0
  0
LINE
  5
184
  8
LEVEL0
 62
     0
 10
-2.5
 20
0.0
 30
0.0
 11
-3.5
 21
0.0
 31
0.0
  0
LINE
  5
185
  8
LEVEL0
 62
     0
 10
0.0
 20
-2.5
 30
0.0
 11
0.0
 21
-3.5
 31
0.0
  0
LINE
  5
186
  8
LEVEL0
 62
     0
 10
2.5
 20
0.0
 30
0.0
 11
3.5
 21
0.0
 31
0.0
  0
ENDBLK
  5
17E
  8
0
  0
BLOCK
  8
0
  2
SW_CENTERMARKSYMBOL_3
 70
     0
 10
0.0
 20
0.0
 30
0.0
  3
SW_CENTERMARKSYMBOL_3
  1

  0
LINE
  5
18B
  8
LEVEL0
 62
     0
 10
0.0
 20
0.0
 30
0.0
 11
0.0
 21
2.5
 31
0.0
  0
LINE
  5
18C
  8
LEVEL0
 62
     0
 10
0.0
 20
0.0
 30
0.0
 11
-2.5
 21
0.0
 31
0.0
  0
LINE
  5
18D
  8
LEVEL0
 62
     0
 10
0.0
 20
0.0
 30
0.0
 11
0.0
 21
-2.5
 31
0.0
  0
LINE
  5
18E
  8
LEVEL0
 62
     0
 10
0.0
 20
0.0
 30
0.0
 11
2.5
 21
0.0
 31
0.0
  0
LINE
  5
18F
  8
LEVEL0
 62
     0
 10
0.0
 20
2.5
 30
0.0
 11
0.0
 21
3.5
 31
0.0
  0
LINE
  5
190
  8
LEVEL0
 62
     0
 10
-2.5
 20
0.0
 30
0.0
 11
-3.5
 21
0.0
 31
0.0
  0
LINE
  5
191
  8
LEVEL0
 62
     0
 10
0.0
 20
-2.5
 30
0.0
 11
0.0
 21
-3.5
 31
0.0
  0
LINE
  5
192
  8
LEVEL0
 62
     0
 10
2.5
 20
0.0
 30
0.0
 11
3.5
 21
0.0
 31
0.0
  0
ENDBLK
  5
18A
  8
0
  0
ENDSEC
  0
SECTION
  2
ENTITIES
  0
INSERT
  5
AD
  8
LEVEL0
  2
SW_NOTE_0
 10
32.5908680095
 20
249.4716929926
 30
0.0
  0
TEXT
  5
AE
  8
LEVEL0
 10
68.7387458035
 20
30.1449050925
 30
0.0
 40
3.7041666667
  1
PRINT THIS PAGE 1:1 SCALE
 41
0.644
 11
68.7387458035
 21
28.8363709465
 31
0.0
 73
     1
  0
LINE
  5
AF
  8
0
  6
CONTINUOUS
 62
     7
 10
157.7245208341
 20
187.4268998757
 30
0.0
 11
57.2245208341
 21
187.4268998757
 31
0.0
  0
ARC
  5
B0
  8
0
  6
CONTINUOUS
 62
     7
 10
57.2245208341
 20
186.5268998757
 30
0.0
 40
0.8999999999999986
 50
90.0
 51
180.0
  0
LINE
  5
B1
  8
0
  6
CONTINUOUS
 62
     7
 10
56.3245208341
 20
186.5268998757
 30
0.0
 11
56.3245208341
 21
93.4268998757
 31
0.0
  0
ARC
  5
B2
  8
0
  6
CONTINUOUS
 62
     7
 10
57.2245208341
 20
93.4268998757
 30
0.0
 40
0.8999999999999986
 50
180.0
 51
270.0
  0
LINE
  5
B3
  8
0
  6
CONTINUOUS
 62
     7
 10
57.2245208341
 20
92.5268998757
 30
0.0
 11
157.7245208341
 21
92.5268998757
 31
0.0
  0
ARC
  5
B4
  8
0
  6
CONTINUOUS
 62
     7
 10
157.7245208341
 20
93.4268998757
 30
0.0
 40
0.8999999999999915
 50
270.0
 51
0.0
  0
LINE
  5
B5
  8
0
  6
CONTINUOUS
 62
     7
 10
158.6245208341
 20
93.4268998757
 30
0.0
 11
158.6245208341
 21
186.5268998757
 31
0.0
  0
ARC
  5
B6
  8
0
  6
CONTINUOUS
 62
     7
 10
157.7245208341
 20
186.5268998757
 30
0.0
 40
0.9000000000000057
 50
0.0
 51
90.0
  0
CIRCLE
  5
B7
  8
0
  6
CONTINUOUS
 62
     7
 10
47.9445208341
 20
195.7918998757
 30
0.0
 40
1.0
  0
CIRCLE
  5
B8
  8
0
  6
CONTINUOUS
 62
     7
 10
167.0045208341
 20
195.7918998757
 30
0.0
 40
1.0
  0
CIRCLE
  5
B9
  8
0
  6
CONTINUOUS
 62
     7
 10
167.0045208341
 20
84.1618998757
 30
0.0
 40
1.0
  0
CIRCLE
  5
BA
  8
0
  6
CONTINUOUS
 62
     7
 10
47.9445208341
 20
84.1618998757
 30
0.0
 40
1.0
  0
DIMENSION
  5
BB
  8
LEVEL0
  2
_D
 10
56.3245208341
 20
126.9652364759
 30
0.0
 11
124.4689256689
 21
126.9652364759
 31
0.0
 70
   160
  1
<>
  3
SLDDIMSTYLE0
 13
158.6245208341
 23
93.4268998757
 33
0.0
 14
56.3245208341
 24
93.4268998757
 34
0.0
  0
DIMENSION
  5
DE
  8
LEVEL0
  2
_D_1
 10
97.1109092816
 20
92.5268998757
 30
0.0
 11
97.1109092816
 21
154.2256787972
 31
0.0
 70
   160
  1
<>
  3
SLDDIMSTYLE1
 13
57.2245208341
 23
187.4268998757
 33
0.0
 14
57.2245208341
 24
92.5268998757
 34
0.0
 50
90.0
  0
DIMENSION
  5
FA
  8
LEVEL0
  2
_D_2
 10
57.2245208341
 20
186.5268998757
 30
0.0
 11
73.7085240684
 21
170.0429166415
 31
0.0
 70
   164
  1
<> RYP
  3
SLDDIMSTYLE2
 15
56.5881247311
 25
187.1632959788
 35
0.0
 40
0.0
  0
DIMENSION
  5
10B
  8
LEVEL0
  2
_D_3
 10
56.3245208341
 20
104.685313812
 30
0.0
 11
40.9353114489
 21
104.685313812
 31
0.0
 70
   160
  1
<>
  3
SLDDIMSTYLE3
 13
47.9445208341
 23
87.6618998757
 33
0.0
 14
56.3245208341
 24
93.4268998757
 34
0.0
  0
DIMENSION
  5
11F
  8
LEVEL0
  2
_D_4
 10
75.7133393473
 20
92.5268998757
 30
0.0
 11
75.7133393473
 21
77.816300442
 31
0.0
 70
   160
  1
<>
  3
SLDDIMSTYLE3
 13
51.4445208341
 23
84.1618998757
 33
0.0
 14
57.2245208341
 24
92.5268998757
 34
0.0
 50
90.0
  0
DIMENSION
  5
132
  8
LEVEL0
  2
_D_5
 10
167.0045208341
 20
66.329923274
 30
0.0
 11
102.0754749543
 21
66.329923274
 31
0.0
 70
   160
  1
<>
  3
SLDDIMSTYLE3
 13
47.9445208341
 23
80.6618998757
 33
0.0
 14
167.0045208341
 24
80.6618998757
 34
0.0
  0
DIMENSION
  5
145
  8
LEVEL0
  2
_D_6
 10
33.1621305536
 20
195.7918998757
 30
0.0
 11
33.1621305536
 21
142.213683417
 31
0.0
 70
   160
  1
<>
  3
SLDDIMSTYLE3
 13
44.4445208341
 23
84.1618998757
 33
0.0
 14
44.4445208341
 24
195.7918998757
 34
0.0
 50
90.0
  0
INSERT
  5
163
  8
LEVEL0
  2
SW_NOTE_0_1
 10
164.3700497625
 20
195.8653357846
 30
0.0
  0
INSERT
  5
16F
  8
LEVEL0
  2
SW_CENTERMARKSYMBOL_0
 10
47.9445208341
 20
195.7918998757
 30
0.0
  0
INSERT
  5
17B
  8
LEVEL0
  2
SW_CENTERMARKSYMBOL_1
 10
167.0045208341
 20
195.7918998757
 30
0.0
  0
INSERT
  5
187
  8
LEVEL0
  2
SW_CENTERMARKSYMBOL_2
 10
167.0045208341
 20
84.1618998757
 30
0.0
  0
INSERT
  5
193
  8
LEVEL0
  2
SW_CENTERMARKSYMBOL_3
 10
47.9445208341
 20
84.1618998757
 30
0.0
  0
ENDSEC
  0
EOF
