  0
SECTION
  2
HEADER
  9
$ACADVER
  1
AC1009
  9
$DWGCODEPAGE
  3
ansi_1252
  9
$INSBASE
 10
0.0
 20
0.0
 30
0.0
  9
$EXTMIN
 10
0.0
 20
0.0
 30
0.0
  9
$EXTMAX
 10
210.0
 20
297.0
 30
0.0
  9
$LIMMIN
 10
0.0
 20
0.0
  9
$LIMMAX
 10
210.0
 20
297.0
  9
$ORTHOMODE
 70
     0
  9
$REGENMODE
 70
     1
  9
$FILLMODE
 70
     1
  9
$QTEXTMODE
 70
     0
  9
$MIRRTEXT
 70
     1
  9
$DRAGMODE
 70
     2
  9
$LTSCALE
 40
1.0
  9
$OSMODE
 70
    37
  9
$ATTMODE
 70
     1
  9
$TEXTSIZE
 40
2.0
  9
$TRACEWID
 40
1.0
  9
$TEXTSTYLE
  7
STANDARD
  9
$CLAYER
  8
0
  9
$CELTYPE
  6
BYLAYER
  9
$CECOLOR
 62
   256
  9
$DIMSCALE
 40
1.0
  9
$DIMASZ
 40
2.0
  9
$DIMEXO
 40
1.0
  9
$DIMDLI
 40
3.75
  9
$DIMRND
 40
0.0
  9
$DIMDLE
 40
0.0
  9
$DIMEXE
 40
1.0
  9
$DIMTP
 40
0.0
  9
$DIMTM
 40
0.0
  9
$DIMTXT
 40
2.0
  9
$DIMCEN
 40
2.5
  9
$DIMTSZ
 40
0.0
  9
$DIMTOL
 70
     0
  9
$DIMLIM
 70
     0
  9
$DIMTIH
 70
     1
  9
$DIMTOH
 70
     1
  9
$DIMSE1
 70
     0
  9
$DIMSE2
 70
     0
  9
$DIMTAD
 70
     1
  9
$DIMZIN
 70
     0
  9
$DIMBLK
  1

  9
$DIMASO
 70
     1
  9
$DIMSHO
 70
     1
  9
$DIMPOST
  1

  9
$DIMAPOST
  1

  9
$DIMALT
 70
     0
  9
$DIMALTD
 70
     3
  9
$DIMALTF
 40
0.0393700787
  9
$DIMLFAC
 40
1.0
  9
$DIMTOFL
 70
     1
  9
$DIMTVP
 40
0.0
  9
$DIMTIX
 70
     0
  9
$DIMSOXD
 70
     0
  9
$DIMSAH
 70
     0
  9
$DIMBLK1
  1

  9
$DIMBLK2
  1

  9
$DIMSTYLE
  2
ISO-25
  9
$DIMCLRD
 70
     0
  9
$DIMCLRE
 70
     0
  9
$DIMCLRT
 70
     0
  9
$DIMTFAC
 40
1.0
  9
$DIMGAP
 40
1.524
  9
$LUNITS
 70
     2
  9
$LUPREC
 70
     2
  9
$SKETCHINC
 40
1.0
  9
$FILLETRAD
 40
10.0
  9
$AUNITS
 70
     0
  9
$AUPREC
 70
     2
  9
$MENU
  1
.
  9
$ELEVATION
 40
0.0
  9
$PELEVATION
 40
0.0
  9
$THICKNESS
 40
0.0
  9
$LIMCHECK
 70
     0
  9
$CHAMFERA
 40
0.0
  9
$CHAMFERB
 40
0.0
  9
$SKPOLY
 70
     0
  9
$TDCREATE
 40
2459359.584228067
  9
$TDUPDATE
 40
2459359.584231817
  9
$TDINDWG
 40
0.0000000116
  9
$TDUSRTIMER
 40
0.0000000116
  9
$USRTIMER
 70
     1
  9
$ANGBASE
 50
0.0
  9
$ANGDIR
 70
     0
  9
$PDMODE
 70
     0
  9
$PDSIZE
 40
-1.0
  9
$PLINEWID
 40
0.0
  9
$COORDS
 70
     1
  9
$SPLFRAME
 70
     0
  9
$SPLINETYPE
 70
     6
  9
$SPLINESEGS
 70
     8
  9
$ATTDIA
 70
     0
  9
$ATTREQ
 70
     1
  9
$HANDLING
 70
     1
  9
$HANDSEED
  5
190
  9
$SURFTAB1
 70
     6
  9
$SURFTAB2
 70
     6
  9
$SURFTYPE
 70
     6
  9
$SURFU
 70
     6
  9
$SURFV
 70
     6
  9
$UCSNAME
  2

  9
$UCSORG
 10
0.0
 20
0.0
 30
0.0
  9
$UCSXDIR
 10
1.0
 20
0.0
 30
0.0
  9
$UCSYDIR
 10
0.0
 20
1.0
 30
0.0
  9
$PUCSNAME
  2

  9
$PUCSORG
 10
0.0
 20
0.0
 30
0.0
  9
$PUCSXDIR
 10
1.0
 20
0.0
 30
0.0
  9
$PUCSYDIR
 10
0.0
 20
1.0
 30
0.0
  9
$USERI1
 70
     0
  9
$USERI2
 70
     0
  9
$USERI3
 70
     0
  9
$USERI4
 70
     0
  9
$USERI5
 70
     0
  9
$USERR1
 40
0.0
  9
$USERR2
 40
0.0
  9
$USERR3
 40
0.0
  9
$USERR4
 40
0.0
  9
$USERR5
 40
0.0
  9
$WORLDVIEW
 70
     1
  9
$SHADEDGE
 70
     3
  9
$SHADEDIF
 70
    70
  9
$TILEMODE
 70
     1
  9
$MAXACTVP
 70
    64
  9
$PLIMCHECK
 70
     0
  9
$PEXTMIN
 10
1.0000000000E+20
 20
1.0000000000E+20
 30
1.0000000000E+20
  9
$PEXTMAX
 10
-1.0000000000E+20
 20
-1.0000000000E+20
 30
-1.0000000000E+20
  9
$PLIMMIN
 10
0.0
 20
0.0
  9
$PLIMMAX
 10
420.0
 20
297.0
  9
$UNITMODE
 70
     0
  9
$VISRETAIN
 70
     1
  9
$PLINEGEN
 70
     0
  9
$PSLTSCALE
 70
     1
  0
ENDSEC
  0
SECTION
  2
TABLES
  0
TABLE
  2
VPORT
 70
     1
  0
VPORT
  2
*ACTIVE
 70
     0
 10
0.0
 20
0.0
 11
1.0
 21
1.0
 12
105.0
 22
148.5
 13
0.0
 23
0.0
 14
10.0
 24
10.0
 15
10.0
 25
10.0
 16
0.0
 26
0.0
 36
1.0
 17
0.0
 27
0.0
 37
0.0
 40
297.0
 41
0.7070707071
 42
50.0
 43
0.0
 44
0.0
 50
0.0
 51
0.0
 71
     0
 72
  2000
 73
     1
 74
     3
 75
     0
 76
     0
 77
     0
 78
     0
  0
ENDTAB
  0
TABLE
  2
LTYPE
 70
     6
  0
LTYPE
  2
CONTINUOUS
 70
     0
  3
Solid line
 72
    65
 73
     0
 40
0.0
  0
LTYPE
  2
HIDDEN
 70
     0
  3
Hidden __ __ __ __ __ __ __ __ __ __ __ __ __ __
 72
    65
 73
     2
 40
1.905
 49
1.27
 49
-0.635
  0
LTYPE
  2
PHANTOM
 70
     0
  3
Phantom ______  __  __  ______  __  __  ______
 72
    65
 73
     6
 40
12.7
 49
6.35
 49
-1.27
 49
1.27
 49
-1.27
 49
1.27
 49
-1.27
  0
LTYPE
  2
CENTER
 70
     0
  3
Center ____ _ ____ _ ____ _ ____ _ ____ _ ____
 72
    65
 73
     4
 40
10.16
 49
6.35
 49
-1.27
 49
1.27
 49
-1.27
  0
LTYPE
  2
CENTERX2
 70
     0
  3
Center (2x) ________  __  ________  __  _____
 72
    65
 73
     4
 40
20.32
 49
12.7
 49
-2.54
 49
2.54
 49
-2.54
  0
LTYPE
  2
DOT2
 70
     0
  3
Dot (.5x) ........................................
 72
    65
 73
     2
 40
0.635
 49
0.0
 49
-0.635
  0
ENDTAB
  0
TABLE
  2
LAYER
 70
    53
  0
LAYER
  2
0
 70
     0
 62
     7
  6
CONTINUOUS
  0
LAYER
  2
SLD-0
 70
     0
 62
     7
  6
CONTINUOUS
  0
LAYER
  2
LEVEL0
 70
     0
 62
     7
  6
CONTINUOUS
  0
LAYER
  2
1
 70
     0
 62
     7
  6
CONTINUOUS
  0
LAYER
  2
2
 70
     0
 62
     7
  6
CONTINUOUS
  0
LAYER
  2
3
 70
     0
 62
     7
  6
CONTINUOUS
  0
LAYER
  2
4
 70
     0
 62
     7
  6
CONTINUOUS
  0
LAYER
  2
5
 70
     0
 62
     7
  6
CONTINUOUS
  0
LAYER
  2
6
 70
     0
 62
     7
  6
CONTINUOUS
  0
LAYER
  2
7
 70
     0
 62
     7
  6
CONTINUOUS
  0
LAYER
  2
8
 70
     0
 62
     7
  6
CONTINUOUS
  0
LAYER
  2
9
 70
     0
 62
     7
  6
CONTINUOUS
  0
LAYER
  2
10
 70
     0
 62
     7
  6
CONTINUOUS
  0
LAYER
  2
11
 70
     0
 62
     7
  6
CONTINUOUS
  0
LAYER
  2
12
 70
     0
 62
     7
  6
CONTINUOUS
  0
LAYER
  2
13
 70
     0
 62
     7
  6
CONTINUOUS
  0
LAYER
  2
14
 70
     0
 62
     7
  6
CONTINUOUS
  0
LAYER
  2
15
 70
     0
 62
     7
  6
CONTINUOUS
  0
LAYER
  2
16
 70
     0
 62
     7
  6
CONTINUOUS
  0
LAYER
  2
17
 70
     0
 62
     7
  6
CONTINUOUS
  0
LAYER
  2
18
 70
     0
 62
     7
  6
CONTINUOUS
  0
LAYER
  2
19
 70
     0
 62
     7
  6
CONTINUOUS
  0
LAYER
  2
20
 70
     0
 62
     7
  6
CONTINUOUS
  0
LAYER
  2
21
 70
     0
 62
     7
  6
CONTINUOUS
  0
LAYER
  2
22
 70
     0
 62
     7
  6
CONTINUOUS
  0
LAYER
  2
23
 70
     0
 62
     7
  6
CONTINUOUS
  0
LAYER
  2
24
 70
     0
 62
     7
  6
CONTINUOUS
  0
LAYER
  2
25
 70
     0
 62
     7
  6
CONTINUOUS
  0
LAYER
  2
26
 70
     0
 62
     7
  6
CONTINUOUS
  0
LAYER
  2
27
 70
     0
 62
     7
  6
CONTINUOUS
  0
LAYER
  2
28
 70
     0
 62
     7
  6
CONTINUOUS
  0
LAYER
  2
29
 70
     0
 62
     7
  6
CONTINUOUS
  0
LAYER
  2
30
 70
     0
 62
     7
  6
CONTINUOUS
  0
LAYER
  2
31
 70
     0
 62
     7
  6
CONTINUOUS
  0
LAYER
  2
32
 70
     0
 62
     7
  6
CONTINUOUS
  0
LAYER
  2
33
 70
     0
 62
     7
  6
CONTINUOUS
  0
LAYER
  2
34
 70
     0
 62
     7
  6
CONTINUOUS
  0
LAYER
  2
35
 70
     0
 62
     7
  6
CONTINUOUS
  0
LAYER
  2
36
 70
     0
 62
     7
  6
CONTINUOUS
  0
LAYER
  2
37
 70
     0
 62
     7
  6
CONTINUOUS
  0
LAYER
  2
38
 70
     0
 62
     7
  6
CONTINUOUS
  0
LAYER
  2
39
 70
     0
 62
     7
  6
CONTINUOUS
  0
LAYER
  2
40
 70
     0
 62
     7
  6
CONTINUOUS
  0
LAYER
  2
41
 70
     0
 62
     7
  6
CONTINUOUS
  0
LAYER
  2
42
 70
     0
 62
     7
  6
CONTINUOUS
  0
LAYER
  2
43
 70
     0
 62
     7
  6
CONTINUOUS
  0
LAYER
  2
44
 70
     0
 62
     7
  6
CONTINUOUS
  0
LAYER
  2
45
 70
     0
 62
     7
  6
CONTINUOUS
  0
LAYER
  2
46
 70
     0
 62
     7
  6
CONTINUOUS
  0
LAYER
  2
47
 70
     0
 62
     7
  6
CONTINUOUS
  0
LAYER
  2
48
 70
     0
 62
     7
  6
CONTINUOUS
  0
LAYER
  2
49
 70
     0
 62
     7
  6
CONTINUOUS
  0
LAYER
  2
50
 70
     0
 62
     7
  6
CONTINUOUS
  0
ENDTAB
  0
TABLE
  2
STYLE
 70
     1
  0
STYLE
  2
STANDARD
 70
     0
 40
0.0
 41
1.0
 50
0.0
 71
     0
 42
2.0
  3
txt
  4

  0
ENDTAB
  0
TABLE
  2
VIEW
 70
     0
  0
ENDTAB
  0
TABLE
  2
UCS
 70
     0
  0
ENDTAB
  0
TABLE
  2
APPID
 70
     1
  0
APPID
  2
ACAD
 70
     0
  0
ENDTAB
  0
TABLE
  2
DIMSTYLE
 70
     6
  0
DIMSTYLE
  2
ISO-25
 70
     0
  3

  4

  5

  6

  7

 40
1.0
 41
2.5
 42
0.625
 43
3.75
 44
1.25
 45
0.0
 46
0.0
 47
0.0
 48
0.0
140
2.5
141
2.5
142
0.0
143
0.0393700787
144
1.0
145
0.0
146
1.0
147
0.625
 71
     0
 72
     0
 73
     0
 74
     0
 75
     0
 76
     0
 77
     1
 78
     8
170
     0
171
     3
172
     1
173
     0
174
     0
175
     0
176
     0
177
     0
178
     0
  0
DIMSTYLE
  2
SLDDIMSTYLE0
 70
     0
  3

  4

  5

  6
CLOSED
  7
CLOSED
 40
1.0
 41
2.0
 42
0.0625
 43
0.38
 44
0.0
 45
0.000000001
 46
0.0
 47
0.3
 48
0.2
140
2.0
141
0.09
142
0.0
143
0.0393700787
144
1.0
145
0.0
146
1.0
147
0.5
 71
     1
 72
     0
 73
     0
 74
     0
 75
     0
 76
     0
 77
     1
 78
    12
170
     1
171
     3
172
     0
173
     1
174
     0
175
     0
176
     0
177
     0
178
     0
  0
DIMSTYLE
  2
SLDDIMSTYLE1
 70
     0
  3

  4

  5

  6
CLOSED
  7
CLOSED
 40
1.0
 41
2.0
 42
0.0625
 43
0.38
 44
0.0
 45
0.000000001
 46
0.0
 47
0.3
 48
0.2
140
2.0
141
0.09
142
0.0
143
0.0393700787
144
1.0
145
0.0
146
1.0
147
0.5
 71
     1
 72
     0
 73
     0
 74
     0
 75
     0
 76
     0
 77
     1
 78
     4
170
     1
171
     3
172
     0
173
     1
174
     0
175
     0
176
     0
177
     0
178
     0
  0
DIMSTYLE
  2
SLDDIMSTYLE2
 70
     0
  3

  4

  5

  6
CLOSED
  7
CLOSED
 40
1.0
 41
2.0
 42
0.0625
 43
0.38
 44
0.0
 45
0.000000001
 46
0.0
 47
0.0
 48
0.0
140
2.0
141
0.0
142
0.0
143
0.0393700787
144
1.0
145
0.0
146
1.0
147
0.5
 71
     0
 72
     0
 73
     0
 74
     0
 75
     0
 76
     0
 77
     1
 78
    12
170
     1
171
     2
172
     0
173
     1
174
     0
175
     0
176
     0
177
     0
178
     0
  0
DIMSTYLE
  2
SLDDIMSTYLE3
 70
     0
  3

  4

  5

  6
CLOSED
  7
CLOSED
 40
1.0
 41
2.0
 42
0.0625
 43
0.38
 44
0.0
 45
0.000000001
 46
0.0
 47
0.0
 48
0.0
140
2.0
141
0.09
142
0.0
143
0.0393700787
144
1.0
145
0.0
146
1.0
147
0.5
 71
     0
 72
     0
 73
     0
 74
     0
 75
     0
 76
     0
 77
     1
 78
    12
170
     1
171
     2
172
     0
173
     1
174
     0
175
     0
176
     0
177
     0
178
     0
  0
DIMSTYLE
  2
SLDDIMSTYLE4
 70
     0
  3

  4

  5

  6
CLOSED
  7
CLOSED
 40
1.0
 41
2.0
 42
0.0625
 43
0.38
 44
0.0
 45
0.000000001
 46
0.0
 47
0.0
 48
0.0
140
2.0
141
0.09
142
0.0
143
0.0393700787
144
1.0
145
0.0
146
1.0
147
0.5
 71
     0
 72
     0
 73
     0
 74
     0
 75
     0
 76
     0
 77
     1
 78
    12
170
     1
171
     2
172
     1
173
     1
174
     0
175
     0
176
     0
177
     0
178
     0
  0
ENDTAB
  0
ENDSEC
  0
SECTION
  2
BLOCKS
  0
BLOCK
  8
0
  2
$MODEL_SPACE
 70
     0
 10
0.0
 20
0.0
 30
0.0
  3
$MODEL_SPACE
  1

  0
ENDBLK
  5
21
  8
0
  0
BLOCK
 67
     1
  8
0
  2
$PAPER_SPACE
 70
     0
 10
0.0
 20
0.0
 30
0.0
  3
$PAPER_SPACE
  1

  0
ENDBLK
  5
1D
 67
     1
  8
0
  0
BLOCK
  8
0
  2
_CLOSED
 70
     0
 10
0.0
 20
0.0
 30
0.0
  3
_CLOSED
  1

  0
LINE
  5
B8
  8
0
  6
BYBLOCK
 62
     0
 10
-1.0
 20
0.166667
 30
0.0
 11
0.0
 21
0.0
 31
0.0
  0
LINE
  5
B9
  8
0
  6
BYBLOCK
 62
     0
 10
0.0
 20
0.0
 30
0.0
 11
-1.0
 21
-0.166667
 31
0.0
  0
LINE
  5
BA
  8
0
  6
BYBLOCK
 62
     0
 10
-1.0
 20
0.166667
 30
0.0
 11
-1.0
 21
-0.166667
 31
0.0
  0
LINE
  5
BB
  8
0
  6
BYBLOCK
 62
     0
 10
0.0
 20
0.0
 30
0.0
 11
-1.0
 21
0.0
 31
0.0
  0
ENDBLK
  5
B7
  8
0
  0
BLOCK
  8
0
  2
_D
 70
     0
 10
0.0
 20
0.0
 30
0.0
  3
_D
  1

  0
INSERT
  5
BF
  8
LEVEL0
  2
_CLOSED
 10
63.0492778214
 20
150.89781665
 30
-8.5
 41
2.0
 42
2.0
 50
180.0
  0
INSERT
  5
C0
  8
LEVEL0
  2
_CLOSED
 10
159.4492778214
 20
150.89781665
 30
-8.5
 41
2.0
 42
2.0
 50
0.0
  0
LINE
  5
C1
  8
LEVEL0
 10
117.8050123098
 20
161.648511316
 30
0.0
 11
117.1956372972
 21
161.648511316
 31
0.0
  0
LINE
  5
C2
  8
LEVEL0
 10
117.1956372972
 20
161.648511316
 30
0.0
 11
117.1956372972
 21
156.476288929
 31
0.0
  0
LINE
  5
C3
  8
LEVEL0
 10
117.1956372972
 20
156.476288929
 30
0.0
 11
117.8050123098
 21
156.476288929
 31
0.0
  0
LINE
  5
C4
  8
LEVEL0
 10
133.4605671408
 20
161.648511316
 30
0.0
 11
134.0699421534
 21
161.648511316
 31
0.0
  0
LINE
  5
C5
  8
LEVEL0
 10
134.0699421534
 20
161.648511316
 30
0.0
 11
134.0699421534
 21
156.476288929
 31
0.0
  0
LINE
  5
C6
  8
LEVEL0
 10
134.0699421534
 20
156.476288929
 30
0.0
 11
133.4605671408
 21
156.476288929
 31
0.0
  0
LINE
  5
C7
  8
LEVEL0
 10
63.0492778214
 20
150.89781665
 30
0.0
 11
159.4492778214
 21
150.89781665
 31
0.0
  0
TEXT
  5
C8
  8
LEVEL0
 10
115.1084845595
 20
151.6348923033
 30
-8.5
 40
2.0
  1
  
 41
0.7
 11
115.1084845595
 21
150.9283721795
 31
-8.5
 73
     1
  0
TEXT
  5
C9
  8
LEVEL0
 10
117.8050123098
 20
157.2133645823
 30
-8.5
 40
2.0
  1
3.795
 41
0.7
 11
117.8050123098
 21
156.5068444585
 31
-8.5
 73
     1
  0
TEXT
  5
CA
  8
LEVEL0
 10
124.4550121891
 20
157.2133645823
 30
-8.5
 40
2.0
  1
 
 41
0.7
 11
124.4550121891
 21
156.5068444585
 31
-8.5
 73
     1
  0
TEXT
  5
CB
  8
LEVEL0
 10
125.193901168
 20
159.7689202463
 30
-8.5
 40
2.0
  1
+
 41
0.7
 11
125.193901168
 21
159.0624001225
 31
-8.5
 73
     1
  0
TEXT
  5
CC
  8
LEVEL0
 10
125.5591789494
 20
157.1828090528
 30
-8.5
 40
2.0
  1
-
 41
0.7
 11
125.5591789494
 21
156.476288929
 31
-8.5
 73
     1
  0
TEXT
  5
CD
  8
LEVEL0
 10
126.8105672615
 20
159.7689202463
 30
-8.5
 40
2.0
  1
0.012
 41
0.7
 11
126.8105672615
 21
159.0624001225
 31
-8.5
 73
     1
  0
TEXT
  5
CE
  8
LEVEL0
 10
126.8105672615
 20
157.1828090528
 30
-8.5
 40
2.0
  1
0.008
 41
0.7
 11
126.8105672615
 21
156.476288929
 31
-8.5
 73
     1
  0
TEXT
  5
CF
  8
LEVEL0
 10
120.0216788974
 20
151.6043363081
 30
-8.5
 40
2.0
  1
96.4
 41
0.7
 11
120.0216788974
 21
150.8978161843
 31
-8.5
 73
     1
  0
TEXT
  5
D0
  8
LEVEL0
 10
125.1939008188
 20
151.6043363081
 30
-8.5
 40
2.0
  1
 
 41
0.7
 11
125.1939008188
 21
150.8978161843
 31
-8.5
 73
     1
  0
TEXT
  5
D1
  8
LEVEL0
 10
125.9327897977
 20
154.1904475017
 30
-8.5
 40
2.0
  1
+
 41
0.7
 11
125.9327897977
 21
153.4839273778
 31
-8.5
 73
     1
  0
TEXT
  5
D2
  8
LEVEL0
 10
126.2980675791
 20
151.6043363081
 30
-8.5
 40
2.0
  1
-
 41
0.7
 11
126.2980675791
 21
150.8978161843
 31
-8.5
 73
     1
  0
TEXT
  5
D3
  8
LEVEL0
 10
127.5494563569
 20
154.1904475017
 30
-8.5
 40
2.0
  1
0.3
 41
0.7
 11
127.5494563569
 21
153.4839273778
 31
-8.5
 73
     1
  0
TEXT
  5
D4
  8
LEVEL0
 10
127.5494563569
 20
151.6043363081
 30
-8.5
 40
2.0
  1
0.2
 41
0.7
 11
127.5494563569
 21
150.8978161843
 31
-8.5
 73
     1
  0
TEXT
  5
D5
  8
LEVEL0
 10
134.6793176316
 20
151.6348923033
 30
-8.5
 40
2.0
  1
  
 41
0.7
 11
134.6793176316
 21
150.9283721795
 31
-8.5
 73
     1
  0
ENDBLK
  5
BE
  8
0
  0
BLOCK
  8
0
  2
_D_1
 70
     0
 10
0.0
 20
0.0
 30
0.0
  3
_D_1
  1

  0
INSERT
  5
DB
  8
LEVEL0
  2
_CLOSED
 10
99.554109648
 20
97.6363096807
 30
-8.5
 41
2.0
 42
2.0
 50
270.0
  0
INSERT
  5
DC
  8
LEVEL0
  2
_CLOSED
 10
99.554109648
 20
194.0363096807
 30
-8.5
 41
2.0
 42
2.0
 50
90.0
  0
LINE
  5
DD
  8
LEVEL0
 10
88.8034149819
 20
123.3116895423
 30
0.0
 11
88.8034149819
 21
122.7023145297
 31
0.0
  0
LINE
  5
DE
  8
LEVEL0
 10
88.8034149819
 20
122.7023145297
 30
0.0
 11
93.975637369
 21
122.7023145297
 31
0.0
  0
LINE
  5
DF
  8
LEVEL0
 10
93.975637369
 20
122.7023145297
 30
0.0
 11
93.975637369
 21
123.3116895423
 31
0.0
  0
LINE
  5
E0
  8
LEVEL0
 10
88.8034149819
 20
138.9672443733
 30
0.0
 11
88.8034149819
 21
139.5766193859
 31
0.0
  0
LINE
  5
E1
  8
LEVEL0
 10
88.8034149819
 20
139.5766193859
 30
0.0
 11
93.975637369
 21
139.5766193859
 31
0.0
  0
LINE
  5
E2
  8
LEVEL0
 10
93.975637369
 20
139.5766193859
 30
0.0
 11
93.975637369
 21
138.9672443733
 31
0.0
  0
LINE
  5
E3
  8
LEVEL0
 10
99.554109648
 20
97.6363096807
 30
0.0
 11
99.554109648
 21
194.0363096807
 31
0.0
  0
TEXT
  5
E4
  8
LEVEL0
 10
98.8170339946
 20
120.6151617921
 30
-8.5
 40
2.0
  1
  
 50
90.0
 41
0.7
 11
99.5235541185
 21
120.6151617921
 31
-8.5
 73
     1
  0
TEXT
  5
E5
  8
LEVEL0
 10
93.2385617156
 20
123.3116895423
 30
-8.5
 40
2.0
  1
3.795
 50
90.0
 41
0.7
 11
93.9450818395
 21
123.3116895423
 31
-8.5
 73
     1
  0
TEXT
  5
E6
  8
LEVEL0
 10
93.2385617156
 20
129.9616894216
 30
-8.5
 40
2.0
  1
 
 50
90.0
 41
0.7
 11
93.9450818395
 21
129.9616894216
 31
-8.5
 73
     1
  0
TEXT
  5
E7
  8
LEVEL0
 10
90.6830060516
 20
130.7005784005
 30
-8.5
 40
2.0
  1
+
 50
90.0
 41
0.7
 11
91.3895261755
 21
130.7005784005
 31
-8.5
 73
     1
  0
TEXT
  5
E8
  8
LEVEL0
 10
93.2691172451
 20
131.0658561819
 30
-8.5
 40
2.0
  1
-
 50
90.0
 41
0.7
 11
93.975637369
 21
131.0658561819
 31
-8.5
 73
     1
  0
TEXT
  5
E9
  8
LEVEL0
 10
90.6830060516
 20
132.317244494
 30
-8.5
 40
2.0
  1
0.012
 50
90.0
 41
0.7
 11
91.3895261755
 21
132.317244494
 31
-8.5
 73
     1
  0
TEXT
  5
EA
  8
LEVEL0
 10
93.2691172451
 20
132.317244494
 30
-8.5
 40
2.0
  1
0.008
 50
90.0
 41
0.7
 11
93.975637369
 21
132.317244494
 31
-8.5
 73
     1
  0
TEXT
  5
EB
  8
LEVEL0
 10
98.8475899898
 20
124.050578172
 30
-8.5
 40
2.0
  1
96.40
 50
90.0
 41
0.7
 11
99.5541101137
 21
124.050578172
 31
-8.5
 73
     1
  0
TEXT
  5
EC
  8
LEVEL0
 10
98.8475899898
 20
130.7005780513
 30
-8.5
 40
2.0
  1
 
 50
90.0
 41
0.7
 11
99.5541101137
 21
130.7005780513
 31
-8.5
 73
     1
  0
TEXT
  5
ED
  8
LEVEL0
 10
96.2614787963
 20
131.4394670303
 30
-8.5
 40
2.0
  1
+
 50
90.0
 41
0.7
 11
96.9679989201
 21
131.4394670303
 31
-8.5
 73
     1
  0
TEXT
  5
EE
  8
LEVEL0
 10
98.8475899898
 20
131.8047448116
 30
-8.5
 40
2.0
  1
-
 50
90.0
 41
0.7
 11
99.5541101137
 21
131.8047448116
 31
-8.5
 73
     1
  0
TEXT
  5
EF
  8
LEVEL0
 10
96.2614787963
 20
133.0561331237
 30
-8.5
 40
2.0
  1
0.30
 50
90.0
 41
0.7
 11
96.9679989201
 21
133.0561331237
 31
-8.5
 73
     1
  0
TEXT
  5
F0
  8
LEVEL0
 10
98.8475899898
 20
133.0561331237
 30
-8.5
 40
2.0
  1
0.20
 50
90.0
 41
0.7
 11
99.5541101137
 21
133.0561331237
 31
-8.5
 73
     1
  0
TEXT
  5
F1
  8
LEVEL0
 10
98.8170339946
 20
140.1859948641
 30
-8.5
 40
2.0
  1
  
 50
90.0
 41
0.7
 11
99.5235541185
 21
140.1859948641
 31
-8.5
 73
     1
  0
ENDBLK
  5
DA
  8
0
  0
BLOCK
  8
0
  2
_D_2
 70
     0
 10
0.0
 20
0.0
 30
0.0
  3
_D_2
  1

  0
INSERT
  5
F7
  8
LEVEL0
  2
_CLOSED
 10
63.5173788645
 20
193.4776262064
 30
-8.5
 41
2.0
 42
2.0
 50
316.9197608714
  0
LINE
  5
F8
  8
LEVEL0
 10
76.2823211103
 20
189.9359358712
 30
0.0
 11
75.8359455715
 21
190.3507693128
 31
0.0
  0
LINE
  5
F9
  8
LEVEL0
 10
75.8359455715
 20
190.3507693128
 30
0.0
 11
73.6745570439
 21
188.0250383762
 31
0.0
  0
LINE
  5
FA
  8
LEVEL0
 10
73.6745570439
 20
188.0250383762
 30
0.0
 11
74.1209325828
 21
187.6102049346
 31
0.0
  0
LINE
  5
FB
  8
LEVEL0
 10
80.0710444737
 20
186.4149339002
 30
0.0
 11
80.5174200125
 21
186.0001004586
 31
0.0
  0
LINE
  5
FC
  8
LEVEL0
 10
80.5174200125
 20
186.0001004586
 30
0.0
 11
78.356031485
 21
183.674369522
 31
0.0
  0
LINE
  5
FD
  8
LEVEL0
 10
78.356031485
 20
183.674369522
 30
0.0
 11
77.9096559462
 21
184.0892029636
 31
0.0
  0
LINE
  5
FE
  8
LEVEL0
 10
63.5173788645
 20
193.4776262064
 30
0.0
 11
80.4503013826
 21
177.6430281311
 31
0.0
  0
LINE
  5
FF
  8
LEVEL0
 10
63.5173788645
 20
193.4776262064
 30
0.0
 11
60.7081562143
 21
196.1046335361
 31
0.0
  0
TEXT
  5
100
  8
LEVEL0
 10
74.6018977823
 20
188.1277405973
 30
-8.5
 40
2.0
  1
0.07
 50
317.0975415462
 41
0.7
 11
74.1209325828
 21
187.6102049346
 31
-8.5
 73
     1
  0
TEXT
  5
101
  8
LEVEL0
 10
72.5129544342
 20
185.9840150249
 30
-8.5
 40
2.0
  1
R1.8
 50
317.0975415462
 41
0.7
 11
72.0319892346
 21
185.4664793621
 31
-8.5
 73
     1
  0
TEXT
  5
102
  8
LEVEL0
 10
77.2671164485
 20
181.6075084688
 30
-8.5
 40
2.0
  1
 TYP
 50
317.0975415462
 41
0.7
 11
76.7861512489
 21
181.089972806
 31
-8.5
 73
     1
  0
ENDBLK
  5
F6
  8
0
  0
BLOCK
  8
0
  2
_D_3
 70
     0
 10
0.0
 20
0.0
 30
0.0
  3
_D_3
  1

  0
INSERT
  5
108
  8
LEVEL0
  2
_CLOSED
 10
42.1576607718
 20
90.2963096807
 30
-8.5
 41
2.0
 42
2.0
 50
270.0
  0
INSERT
  5
109
  8
LEVEL0
  2
_CLOSED
 10
42.1576607718
 20
201.3763096807
 30
-8.5
 41
2.0
 42
2.0
 50
90.0
  0
LINE
  5
10A
  8
LEVEL0
 10
35.9902997247
 20
152.8945254332
 30
0.0
 11
35.9902997247
 21
152.2851504206
 31
0.0
  0
LINE
  5
10B
  8
LEVEL0
 10
35.9902997247
 20
152.2851504206
 30
0.0
 11
39.1652996863
 21
152.2851504206
 31
0.0
  0
LINE
  5
10C
  8
LEVEL0
 10
39.1652996863
 20
152.2851504206
 30
0.0
 11
39.1652996863
 21
152.8945254332
 31
0.0
  0
LINE
  5
10D
  8
LEVEL0
 10
35.9902997247
 20
158.0667473546
 30
0.0
 11
35.9902997247
 21
158.6761223672
 31
0.0
  0
LINE
  5
10E
  8
LEVEL0
 10
35.9902997247
 20
158.6761223672
 30
0.0
 11
39.1652996863
 21
158.6761223672
 31
0.0
  0
LINE
  5
10F
  8
LEVEL0
 10
39.1652996863
 20
158.6761223672
 30
0.0
 11
39.1652996863
 21
158.0667473546
 31
0.0
  0
LINE
  5
110
  8
LEVEL0
 10
51.1992778214
 20
90.2963096807
 30
0.0
 11
41.1576607718
 21
90.2963096807
 31
0.0
  0
LINE
  5
111
  8
LEVEL0
 10
51.1992778214
 20
201.3763096807
 30
0.0
 11
41.1576607718
 21
201.3763096807
 31
0.0
  0
LINE
  5
112
  8
LEVEL0
 10
42.1576607718
 20
90.2963096807
 30
0.0
 11
42.1576607718
 21
201.3763096807
 31
0.0
  0
TEXT
  5
113
  8
LEVEL0
 10
41.4205851184
 20
150.197997683
 30
-8.5
 40
2.0
  1
  
 50
90.0
 41
0.7
 11
42.1271052423
 21
150.197997683
 31
-8.5
 73
     1
  0
TEXT
  5
114
  8
LEVEL0
 10
38.4587795625
 20
152.8945254332
 30
-8.5
 40
2.0
  1
4.37
 50
90.0
 41
0.7
 11
39.1652996863
 21
152.8945254332
 31
-8.5
 73
     1
  0
TEXT
  5
115
  8
LEVEL0
 10
41.4511408808
 20
152.1556365707
 30
-8.5
 40
2.0
  1
111.1
 50
90.0
 41
0.7
 11
42.1576610046
 21
152.1556365707
 31
-8.5
 73
     1
  0
TEXT
  5
116
  8
LEVEL0
 10
41.4205851184
 20
159.2854978454
 30
-8.5
 40
2.0
  1
  
 50
90.0
 41
0.7
 11
42.1271052423
 21
159.2854978454
 31
-8.5
 73
     1
  0
ENDBLK
  5
107
  8
0
  0
BLOCK
  8
0
  2
_D_4
 70
     0
 10
0.0
 20
0.0
 30
0.0
  3
_D_4
  1

  0
INSERT
  5
11B
  8
LEVEL0
  2
_CLOSED
 10
55.6992778214
 20
67.6109688016
 30
-8.5
 41
2.0
 42
2.0
 50
180.0
  0
INSERT
  5
11C
  8
LEVEL0
  2
_CLOSED
 10
166.7992778214
 20
67.6109688016
 30
-8.5
 41
2.0
 42
2.0
 50
0.0
  0
LINE
  5
11D
  8
LEVEL0
 10
103.2105998904
 20
73.7783298487
 30
0.0
 11
102.6012248778
 21
73.7783298487
 31
0.0
  0
LINE
  5
11E
  8
LEVEL0
 10
102.6012248778
 20
73.7783298487
 30
0.0
 11
102.6012248778
 21
70.6033298871
 31
0.0
  0
LINE
  5
11F
  8
LEVEL0
 10
102.6012248778
 20
70.6033298871
 30
0.0
 11
103.2105998904
 21
70.6033298871
 31
0.0
  0
LINE
  5
120
  8
LEVEL0
 10
108.3828218117
 20
73.7783298487
 30
0.0
 11
108.9921968243
 21
73.7783298487
 31
0.0
  0
LINE
  5
121
  8
LEVEL0
 10
108.9921968243
 20
73.7783298487
 30
0.0
 11
108.9921968243
 21
70.6033298871
 31
0.0
  0
LINE
  5
122
  8
LEVEL0
 10
108.9921968243
 20
70.6033298871
 30
0.0
 11
108.3828218117
 21
70.6033298871
 31
0.0
  0
LINE
  5
123
  8
LEVEL0
 10
55.6992778214
 20
85.7963096807
 30
0.0
 11
55.6992778214
 21
66.6109688016
 31
0.0
  0
LINE
  5
124
  8
LEVEL0
 10
166.7992778214
 20
85.7963096807
 30
0.0
 11
166.7992778214
 21
66.6109688016
 31
0.0
  0
LINE
  5
125
  8
LEVEL0
 10
55.6992778214
 20
67.6109688016
 30
0.0
 11
166.7992778214
 21
67.6109688016
 31
0.0
  0
TEXT
  5
126
  8
LEVEL0
 10
100.5140721401
 20
68.3480444549
 30
-8.5
 40
2.0
  1
  
 41
0.7
 11
100.5140721401
 21
67.6415243311
 31
-8.5
 73
     1
  0
TEXT
  5
127
  8
LEVEL0
 10
103.2105998904
 20
71.3098500109
 30
-8.5
 40
2.0
  1
4.37
 41
0.7
 11
103.2105998904
 21
70.6033298871
 31
-8.5
 73
     1
  0
TEXT
  5
128
  8
LEVEL0
 10
102.4717110278
 20
68.3174886926
 30
-8.5
 40
2.0
  1
111.1
 41
0.7
 11
102.4717110278
 21
67.6109685687
 31
-8.5
 73
     1
  0
TEXT
  5
129
  8
LEVEL0
 10
109.6015723026
 20
68.3480444549
 30
-8.5
 40
2.0
  1
  
 41
0.7
 11
109.6015723026
 21
67.6415243311
 31
-8.5
 73
     1
  0
ENDBLK
  5
11A
  8
0
  0
BLOCK
  8
0
  2
_D_5
 70
     0
 10
0.0
 20
0.0
 30
0.0
  3
_D_5
  1

  0
INSERT
  5
12E
  8
LEVEL0
  2
_CLOSED
 10
73.7987185263
 20
90.2963096807
 30
-8.5
 41
2.0
 42
2.0
 50
270.0
  0
INSERT
  5
12F
  8
LEVEL0
  2
_CLOSED
 10
73.7987185263
 20
97.6363096807
 30
-8.5
 41
2.0
 42
2.0
 50
90.0
  0
LINE
  5
130
  8
LEVEL0
 10
67.6313574791
 20
79.8581229622
 30
0.0
 11
67.6313574791
 21
79.2487479496
 31
0.0
  0
LINE
  5
131
  8
LEVEL0
 10
67.6313574791
 20
79.2487479496
 30
0.0
 11
70.8063574408
 21
79.2487479496
 31
0.0
  0
LINE
  5
132
  8
LEVEL0
 10
70.8063574408
 20
79.2487479496
 30
0.0
 11
70.8063574408
 21
79.8581229622
 31
0.0
  0
LINE
  5
133
  8
LEVEL0
 10
67.6313574791
 20
85.0303448836
 30
0.0
 11
67.6313574791
 21
85.6397198962
 31
0.0
  0
LINE
  5
134
  8
LEVEL0
 10
67.6313574791
 20
85.6397198962
 30
0.0
 11
70.8063574408
 21
85.6397198962
 31
0.0
  0
LINE
  5
135
  8
LEVEL0
 10
70.8063574408
 20
85.6397198962
 30
0.0
 11
70.8063574408
 21
85.0303448836
 31
0.0
  0
LINE
  5
136
  8
LEVEL0
 10
60.1992778214
 20
90.2963096807
 30
0.0
 11
74.7987185263
 21
90.2963096807
 31
0.0
  0
LINE
  5
137
  8
LEVEL0
 10
73.7987185263
 20
90.2963096807
 30
0.0
 11
73.7987185263
 21
77.161595212
 31
0.0
  0
LINE
  5
138
  8
LEVEL0
 10
73.7987185263
 20
90.2963096807
 30
0.0
 11
73.7987185263
 21
97.6363096807
 31
0.0
  0
TEXT
  5
139
  8
LEVEL0
 10
73.0616428729
 20
77.161595212
 30
-8.5
 40
2.0
  1
  
 50
90.0
 41
0.7
 11
73.7681629967
 21
77.161595212
 31
-8.5
 73
     1
  0
TEXT
  5
13A
  8
LEVEL0
 10
70.0998373169
 20
79.8581229622
 30
-8.5
 40
2.0
  1
0.29
 50
90.0
 41
0.7
 11
70.8063574408
 21
79.8581229622
 31
-8.5
 73
     1
  0
TEXT
  5
13B
  8
LEVEL0
 10
73.0921986353
 20
80.5970119412
 30
-8.5
 40
2.0
  1
7.3
 50
90.0
 41
0.7
 11
73.7987187591
 21
80.5970119412
 31
-8.5
 73
     1
  0
TEXT
  5
13C
  8
LEVEL0
 10
73.0616428729
 20
86.2490953744
 30
-8.5
 40
2.0
  1
  
 50
90.0
 41
0.7
 11
73.7681629967
 21
86.2490953744
 31
-8.5
 73
     1
  0
ENDBLK
  5
12D
  8
0
  0
BLOCK
  8
0
  2
_D_6
 70
     0
 10
0.0
 20
0.0
 30
0.0
  3
_D_6
  1

  0
INSERT
  5
142
  8
LEVEL0
  2
_CLOSED
 10
55.6992778214
 20
109.2035711117
 30
-8.5
 41
2.0
 42
2.0
 50
0.0
  0
INSERT
  5
143
  8
LEVEL0
  2
_CLOSED
 10
63.0492778214
 20
109.2035711117
 30
-8.5
 41
2.0
 42
2.0
 50
180.0
  0
LINE
  5
144
  8
LEVEL0
 10
56.319401645
 20
115.3709321588
 30
0.0
 11
55.7100266324
 21
115.3709321588
 31
0.0
  0
LINE
  5
145
  8
LEVEL0
 10
55.7100266324
 20
115.3709321588
 30
0.0
 11
55.7100266324
 21
112.1959321972
 31
0.0
  0
LINE
  5
146
  8
LEVEL0
 10
55.7100266324
 20
112.1959321972
 30
0.0
 11
56.319401645
 21
112.1959321972
 31
0.0
  0
LINE
  5
147
  8
LEVEL0
 10
61.4916235664
 20
115.3709321588
 30
0.0
 11
62.100998579
 21
115.3709321588
 31
0.0
  0
LINE
  5
148
  8
LEVEL0
 10
62.100998579
 20
115.3709321588
 30
0.0
 11
62.100998579
 21
112.1959321972
 31
0.0
  0
LINE
  5
149
  8
LEVEL0
 10
62.100998579
 20
112.1959321972
 30
0.0
 11
61.4916235664
 21
112.1959321972
 31
0.0
  0
LINE
  5
14A
  8
LEVEL0
 10
55.6992778214
 20
94.7963096807
 30
0.0
 11
55.6992778214
 21
110.2035711117
 31
0.0
  0
LINE
  5
14B
  8
LEVEL0
 10
55.6992778214
 20
109.2035711117
 30
0.0
 11
51.8531239752
 21
109.2035711117
 31
0.0
  0
LINE
  5
14C
  8
LEVEL0
 10
55.6992778214
 20
109.2035711117
 30
0.0
 11
63.0492778214
 21
109.2035711117
 31
0.0
  0
LINE
  5
14D
  8
LEVEL0
 10
63.0492778214
 20
109.2035711117
 30
0.0
 11
66.8954316675
 21
109.2035711117
 31
0.0
  0
TEXT
  5
14E
  8
LEVEL0
 10
53.6228738948
 20
109.940646765
 30
-8.5
 40
2.0
  1
  
 50
360.0
 41
0.7
 11
53.6228738948
 21
109.2341266412
 31
-8.5
 73
     1
  0
TEXT
  5
14F
  8
LEVEL0
 10
56.319401645
 20
112.902452321
 30
-8.5
 40
2.0
  1
0.29
 50
360.0
 41
0.7
 11
56.319401645
 21
112.1959321972
 31
-8.5
 73
     1
  0
TEXT
  5
150
  8
LEVEL0
 10
57.058290624
 20
109.9100910027
 30
-8.5
 40
2.0
  1
7.4
 50
360.0
 41
0.7
 11
57.058290624
 21
109.2035708788
 31
-8.5
 73
     1
  0
TEXT
  5
151
  8
LEVEL0
 10
62.7103740572
 20
109.940646765
 30
-8.5
 40
2.0
  1
  
 50
360.0
 41
0.7
 11
62.7103740572
 21
109.2341266412
 31
-8.5
 73
     1
  0
ENDBLK
  5
141
  8
0
  0
BLOCK
  8
0
  2
SW_NOTE_0
 70
     0
 10
0.0
 20
0.0
 30
0.0
  3
SW_NOTE_0
  1

  0
TEXT
  5
155
  8
LEVEL0
 62
     0
 10
10.6330276311
 20
9.1560049171
 30
0.0
 40
2.0
  1
MARK SCREW LOCATIONS
 41
0.665
 11
10.6330276311
 21
8.4494847933
 31
0.0
 73
     1
  0
LINE
  5
156
  8
LEVEL0
 62
     0
 10
10.1092267611
 20
10.2083762732
 30
0.0
 11
0.0
 21
0.0
 31
0.0
  0
SOLID
  5
157
  8
LEVEL0
 62
     0
 10
0.0
 20
0.0
 30
0.0
 11
1.6259259286
 21
1.2045909808
 31
0.0
 12
1.1886650128
 22
1.6376049718
 32
0.0
 13
1.1886650128
 23
1.6376049718
 33
0.0
  0
ENDBLK
  5
154
  8
0
  0
BLOCK
  8
0
  2
SW_NOTE_0_1
 70
     0
 10
0.0
 20
0.0
 30
0.0
  3
SW_NOTE_0_1
  1

  0
TEXT
  5
15D
  8
LEVEL0
 62
     0
 10
0.0
 20
1.308534146
 30
0.0
 40
3.7041666667
  1
METAL FACEPLATE CUTOUT ROUTING TEMPLATE
 41
0.6641025641
 11
0.0
 21
0.0
 31
0.0
 73
     1
  0
TEXT
  5
15E
  8
LEVEL0
 62
     0
 10
0.0
 20
-10.5692438402
 30
0.0
 40
3.7041666667
  1
SCALE 1:1
 41
0.7
 11
0.0
 21
-11.8777779862
 31
0.0
 73
     1
  0
ENDBLK
  5
15C
  8
0
  0
BLOCK
  8
0
  2
SW_CENTERMARKSYMBOL_0
 70
     0
 10
0.0
 20
0.0
 30
0.0
  3
SW_CENTERMARKSYMBOL_0
  1

  0
LINE
  5
163
  8
LEVEL0
 62
     0
 10
0.0
 20
0.0
 30
0.0
 11
0.0
 21
2.5
 31
0.0
  0
LINE
  5
164
  8
LEVEL0
 62
     0
 10
0.0
 20
0.0
 30
0.0
 11
-2.5
 21
0.0
 31
0.0
  0
LINE
  5
165
  8
LEVEL0
 62
     0
 10
0.0
 20
0.0
 30
0.0
 11
0.0
 21
-2.5
 31
0.0
  0
LINE
  5
166
  8
LEVEL0
 62
     0
 10
0.0
 20
0.0
 30
0.0
 11
2.5
 21
0.0
 31
0.0
  0
LINE
  5
167
  8
LEVEL0
 62
     0
 10
0.0
 20
2.5
 30
0.0
 11
0.0
 21
3.5
 31
0.0
  0
LINE
  5
168
  8
LEVEL0
 62
     0
 10
-2.5
 20
0.0
 30
0.0
 11
-3.5
 21
0.0
 31
0.0
  0
LINE
  5
169
  8
LEVEL0
 62
     0
 10
0.0
 20
-2.5
 30
0.0
 11
0.0
 21
-3.5
 31
0.0
  0
LINE
  5
16A
  8
LEVEL0
 62
     0
 10
2.5
 20
0.0
 30
0.0
 11
3.5
 21
0.0
 31
0.0
  0
ENDBLK
  5
162
  8
0
  0
BLOCK
  8
0
  2
SW_CENTERMARKSYMBOL_1
 70
     0
 10
0.0
 20
0.0
 30
0.0
  3
SW_CENTERMARKSYMBOL_1
  1

  0
LINE
  5
16F
  8
LEVEL0
 62
     0
 10
0.0
 20
0.0
 30
0.0
 11
0.0
 21
2.5
 31
0.0
  0
LINE
  5
170
  8
LEVEL0
 62
     0
 10
0.0
 20
0.0
 30
0.0
 11
-2.5
 21
0.0
 31
0.0
  0
LINE
  5
171
  8
LEVEL0
 62
     0
 10
0.0
 20
0.0
 30
0.0
 11
0.0
 21
-2.5
 31
0.0
  0
LINE
  5
172
  8
LEVEL0
 62
     0
 10
0.0
 20
0.0
 30
0.0
 11
2.5
 21
0.0
 31
0.0
  0
LINE
  5
173
  8
LEVEL0
 62
     0
 10
0.0
 20
2.5
 30
0.0
 11
0.0
 21
3.5
 31
0.0
  0
LINE
  5
174
  8
LEVEL0
 62
     0
 10
-2.5
 20
0.0
 30
0.0
 11
-3.5
 21
0.0
 31
0.0
  0
LINE
  5
175
  8
LEVEL0
 62
     0
 10
0.0
 20
-2.5
 30
0.0
 11
0.0
 21
-3.5
 31
0.0
  0
LINE
  5
176
  8
LEVEL0
 62
     0
 10
2.5
 20
0.0
 30
0.0
 11
3.5
 21
0.0
 31
0.0
  0
ENDBLK
  5
16E
  8
0
  0
BLOCK
  8
0
  2
SW_CENTERMARKSYMBOL_2
 70
     0
 10
0.0
 20
0.0
 30
0.0
  3
SW_CENTERMARKSYMBOL_2
  1

  0
LINE
  5
17B
  8
LEVEL0
 62
     0
 10
0.0
 20
0.0
 30
0.0
 11
0.0
 21
2.5
 31
0.0
  0
LINE
  5
17C
  8
LEVEL0
 62
     0
 10
0.0
 20
0.0
 30
0.0
 11
-2.5
 21
0.0
 31
0.0
  0
LINE
  5
17D
  8
LEVEL0
 62
     0
 10
0.0
 20
0.0
 30
0.0
 11
0.0
 21
-2.5
 31
0.0
  0
LINE
  5
17E
  8
LEVEL0
 62
     0
 10
0.0
 20
0.0
 30
0.0
 11
2.5
 21
0.0
 31
0.0
  0
LINE
  5
17F
  8
LEVEL0
 62
     0
 10
0.0
 20
2.5
 30
0.0
 11
0.0
 21
3.5
 31
0.0
  0
LINE
  5
180
  8
LEVEL0
 62
     0
 10
-2.5
 20
0.0
 30
0.0
 11
-3.5
 21
0.0
 31
0.0
  0
LINE
  5
181
  8
LEVEL0
 62
     0
 10
0.0
 20
-2.5
 30
0.0
 11
0.0
 21
-3.5
 31
0.0
  0
LINE
  5
182
  8
LEVEL0
 62
     0
 10
2.5
 20
0.0
 30
0.0
 11
3.5
 21
0.0
 31
0.0
  0
ENDBLK
  5
17A
  8
0
  0
BLOCK
  8
0
  2
SW_CENTERMARKSYMBOL_3
 70
     0
 10
0.0
 20
0.0
 30
0.0
  3
SW_CENTERMARKSYMBOL_3
  1

  0
LINE
  5
187
  8
LEVEL0
 62
     0
 10
0.0
 20
0.0
 30
0.0
 11
0.0
 21
2.5
 31
0.0
  0
LINE
  5
188
  8
LEVEL0
 62
     0
 10
0.0
 20
0.0
 30
0.0
 11
-2.5
 21
0.0
 31
0.0
  0
LINE
  5
189
  8
LEVEL0
 62
     0
 10
0.0
 20
0.0
 30
0.0
 11
0.0
 21
-2.5
 31
0.0
  0
LINE
  5
18A
  8
LEVEL0
 62
     0
 10
0.0
 20
0.0
 30
0.0
 11
2.5
 21
0.0
 31
0.0
  0
LINE
  5
18B
  8
LEVEL0
 62
     0
 10
0.0
 20
2.5
 30
0.0
 11
0.0
 21
3.5
 31
0.0
  0
LINE
  5
18C
  8
LEVEL0
 62
     0
 10
-2.5
 20
0.0
 30
0.0
 11
-3.5
 21
0.0
 31
0.0
  0
LINE
  5
18D
  8
LEVEL0
 62
     0
 10
0.0
 20
-2.5
 30
0.0
 11
0.0
 21
-3.5
 31
0.0
  0
LINE
  5
18E
  8
LEVEL0
 62
     0
 10
2.5
 20
0.0
 30
0.0
 11
3.5
 21
0.0
 31
0.0
  0
ENDBLK
  5
186
  8
0
  0
ENDSEC
  0
SECTION
  2
ENTITIES
  0
ARC
  5
A7
  8
0
  6
CONTINUOUS
 62
     7
 10
64.7992778214
 20
192.2863096807
 30
0.0
 40
1.75
 50
90.0
 51
180.0
  0
LINE
  5
A8
  8
0
  6
CONTINUOUS
 62
     7
 10
63.0492778214
 20
99.3863096807
 30
0.0
 11
63.0492778214
 21
192.2863096807
 31
0.0
  0
ARC
  5
A9
  8
0
  6
CONTINUOUS
 62
     7
 10
64.7992778214
 20
99.3863096807
 30
0.0
 40
1.75
 50
180.0
 51
270.0
  0
LINE
  5
AA
  8
0
  6
CONTINUOUS
 62
     7
 10
157.6992778214
 20
97.6363096807
 30
0.0
 11
64.7992778214
 21
97.6363096807
 31
0.0
  0
ARC
  5
AB
  8
0
  6
CONTINUOUS
 62
     7
 10
157.6992778214
 20
99.3863096807
 30
0.0
 40
1.75
 50
270.0
 51
0.0
  0
LINE
  5
AC
  8
0
  6
CONTINUOUS
 62
     7
 10
159.4492778214
 20
192.2863096807
 30
0.0
 11
159.4492778214
 21
99.3863096807
 31
0.0
  0
ARC
  5
AD
  8
0
  6
CONTINUOUS
 62
     7
 10
157.6992778214
 20
192.2863096807
 30
0.0
 40
1.75
 50
0.0
 51
90.0
  0
LINE
  5
AE
  8
0
  6
CONTINUOUS
 62
     7
 10
64.7992778214
 20
194.0363096807
 30
0.0
 11
157.6992778214
 21
194.0363096807
 31
0.0
  0
CIRCLE
  5
AF
  8
0
  6
CONTINUOUS
 62
     7
 10
55.6992778214
 20
201.3763096807
 30
0.0
 40
1.000000000000007
  0
CIRCLE
  5
B0
  8
0
  6
CONTINUOUS
 62
     7
 10
166.7992778214
 20
201.3763096807
 30
0.0
 40
1.0
  0
CIRCLE
  5
B1
  8
0
  6
CONTINUOUS
 62
     7
 10
166.7992778214
 20
90.2963096807
 30
0.0
 40
1.0
  0
CIRCLE
  5
B2
  8
0
  6
CONTINUOUS
 62
     7
 10
55.6992778214
 20
90.2963096807
 30
0.0
 40
1.000000000000007
  0
DIMENSION
  5
B3
  8
LEVEL0
  2
_D
 10
159.4492778214
 20
150.89781665
 30
0.0
 11
125.6327900745
 21
150.89781665
 31
0.0
 70
   160
  1
<>
  3
SLDDIMSTYLE0
 13
63.0492778214
 23
192.2863096807
 33
0.0
 14
159.4492778214
 24
192.2863096807
 34
0.0
  0
DIMENSION
  5
D6
  8
LEVEL0
  2
_D_1
 10
99.554109648
 20
194.0363096807
 30
0.0
 11
99.554109648
 21
131.1394673071
 31
0.0
 70
   160
  1
<>
  3
SLDDIMSTYLE1
 13
64.7992778214
 23
97.6363096807
 33
0.0
 14
64.7992778214
 24
194.0363096807
 34
0.0
 50
90.0
  0
DIMENSION
  5
F2
  8
LEVEL0
  2
_D_2
 10
64.7992778214
 20
192.2863096807
 30
0.0
 11
76.1173965384
 21
181.7679789949
 31
0.0
 70
   164
  1
<> TYP
  3
SLDDIMSTYLE2
 15
63.5173788645
 25
193.4776262064
 35
0.0
 40
0.0
  0
DIMENSION
  5
103
  8
LEVEL0
  2
_D_3
 10
42.1576607718
 20
201.3763096807
 30
0.0
 11
42.1576607718
 21
155.4806367432
 31
0.0
 70
   160
  1
<>
  3
SLDDIMSTYLE3
 13
52.1992778214
 23
90.2963096807
 33
0.0
 14
52.1992778214
 24
201.3763096807
 34
0.0
 50
90.0
  0
DIMENSION
  5
117
  8
LEVEL0
  2
_D_4
 10
166.7992778214
 20
67.6109688016
 30
0.0
 11
105.7967112003
 21
67.6109688016
 31
0.0
 70
   160
  1
<>
  3
SLDDIMSTYLE3
 13
55.6992778214
 23
86.7963096807
 33
0.0
 14
166.7992778214
 24
86.7963096807
 34
0.0
  0
DIMENSION
  5
12A
  8
LEVEL0
  2
_D_5
 10
73.7987185263
 20
97.6363096807
 30
0.0
 11
73.7987185263
 21
82.4442342722
 31
0.0
 70
   160
  1
<>
  3
SLDDIMSTYLE3
 13
59.1992778214
 23
90.2963096807
 33
0.0
 14
64.7992778214
 24
97.6363096807
 34
0.0
 50
90.0
  0
DIMENSION
  5
13D
  8
LEVEL0
  2
_D_6
 10
63.0492778214
 20
109.2035711117
 30
0.0
 11
58.9055129549
 21
109.2035711117
 31
0.0
 70
   160
  1
<>
  3
SLDDIMSTYLE4
 13
55.6992778214
 23
93.7963096807
 33
0.0
 14
63.0492778214
 24
99.3863096807
 34
0.0
  0
INSERT
  5
158
  8
LEVEL0
  2
SW_NOTE_0
 10
56.093711215
 20
202.2952342141
 30
0.0
  0
TEXT
  5
159
  8
LEVEL0
 10
80.6003567588
 20
54.4235513467
 30
0.0
 40
3.7041666667
  1
PRINT THIS PAGE 1:1 SCALE
 41
0.644
 11
80.6003567588
 21
53.1150172007
 31
0.0
 73
     1
  0
INSERT
  5
15F
  8
LEVEL0
  2
SW_NOTE_0_1
 10
42.1576607718
 20
246.6197068332
 30
0.0
  0
INSERT
  5
16B
  8
LEVEL0
  2
SW_CENTERMARKSYMBOL_0
 10
55.6992778214
 20
201.3763096807
 30
0.0
  0
INSERT
  5
177
  8
LEVEL0
  2
SW_CENTERMARKSYMBOL_1
 10
166.7992778214
 20
201.3763096807
 30
0.0
  0
INSERT
  5
183
  8
LEVEL0
  2
SW_CENTERMARKSYMBOL_2
 10
166.7992778214
 20
90.2963096807
 30
0.0
  0
INSERT
  5
18F
  8
LEVEL0
  2
SW_CENTERMARKSYMBOL_3
 10
55.6992778214
 20
90.2963096807
 30
0.0
  0
ENDSEC
  0
EOF
