  0
SECTION
  2
HEADER
  9
$ACADVER
  1
AC1009
  9
$DWGCODEPAGE
  3
ansi_1252
  9
$INSBASE
 10
0.0
 20
0.0
 30
0.0
  9
$EXTMIN
 10
0.0
 20
0.0
 30
0.0
  9
$EXTMAX
 10
210.0
 20
297.0
 30
0.0
  9
$LIMMIN
 10
0.0
 20
0.0
  9
$LIMMAX
 10
210.0
 20
297.0
  9
$ORTHOMODE
 70
     0
  9
$REGENMODE
 70
     1
  9
$FILLMODE
 70
     1
  9
$QTEXTMODE
 70
     0
  9
$MIRRTEXT
 70
     1
  9
$DRAGMODE
 70
     2
  9
$LTSCALE
 40
1.0
  9
$OSMODE
 70
    37
  9
$ATTMODE
 70
     1
  9
$TEXTSIZE
 40
2.0
  9
$TRACEWID
 40
1.0
  9
$TEXTSTYLE
  7
STANDARD
  9
$CLAYER
  8
0
  9
$CELTYPE
  6
BYLAYER
  9
$CECOLOR
 62
   256
  9
$DIMSCALE
 40
1.0
  9
$DIMASZ
 40
2.0
  9
$DIMEXO
 40
1.0
  9
$DIMDLI
 40
3.75
  9
$DIMRND
 40
0.0
  9
$DIMDLE
 40
0.0
  9
$DIMEXE
 40
1.0
  9
$DIMTP
 40
0.0
  9
$DIMTM
 40
0.0
  9
$DIMTXT
 40
2.0
  9
$DIMCEN
 40
2.5
  9
$DIMTSZ
 40
0.0
  9
$DIMTOL
 70
     0
  9
$DIMLIM
 70
     0
  9
$DIMTIH
 70
     1
  9
$DIMTOH
 70
     1
  9
$DIMSE1
 70
     0
  9
$DIMSE2
 70
     0
  9
$DIMTAD
 70
     1
  9
$DIMZIN
 70
     0
  9
$DIMBLK
  1

  9
$DIMASO
 70
     1
  9
$DIMSHO
 70
     1
  9
$DIMPOST
  1

  9
$DIMAPOST
  1

  9
$DIMALT
 70
     0
  9
$DIMALTD
 70
     3
  9
$DIMALTF
 40
0.0393700787
  9
$DIMLFAC
 40
1.0
  9
$DIMTOFL
 70
     1
  9
$DIMTVP
 40
0.0
  9
$DIMTIX
 70
     0
  9
$DIMSOXD
 70
     0
  9
$DIMSAH
 70
     0
  9
$DIMBLK1
  1

  9
$DIMBLK2
  1

  9
$DIMSTYLE
  2
ISO-25
  9
$DIMCLRD
 70
     0
  9
$DIMCLRE
 70
     0
  9
$DIMCLRT
 70
     0
  9
$DIMTFAC
 40
1.0
  9
$DIMGAP
 40
1.524
  9
$LUNITS
 70
     2
  9
$LUPREC
 70
     2
  9
$SKETCHINC
 40
1.0
  9
$FILLETRAD
 40
10.0
  9
$AUNITS
 70
     0
  9
$AUPREC
 70
     2
  9
$MENU
  1
.
  9
$ELEVATION
 40
0.0
  9
$PELEVATION
 40
0.0
  9
$THICKNESS
 40
0.0
  9
$LIMCHECK
 70
     0
  9
$CHAMFERA
 40
0.0
  9
$CHAMFERB
 40
0.0
  9
$SKPOLY
 70
     0
  9
$TDCREATE
 40
2459359.583639097
  9
$TDUPDATE
 40
2459359.583642569
  9
$TDINDWG
 40
0.0000000116
  9
$TDUSRTIMER
 40
0.0000000116
  9
$USRTIMER
 70
     1
  9
$ANGBASE
 50
0.0
  9
$ANGDIR
 70
     0
  9
$PDMODE
 70
     0
  9
$PDSIZE
 40
-1.0
  9
$PLINEWID
 40
0.0
  9
$COORDS
 70
     1
  9
$SPLFRAME
 70
     0
  9
$SPLINETYPE
 70
     6
  9
$SPLINESEGS
 70
     8
  9
$ATTDIA
 70
     0
  9
$ATTREQ
 70
     1
  9
$HANDLING
 70
     1
  9
$HANDSEED
  5
18D
  9
$SURFTAB1
 70
     6
  9
$SURFTAB2
 70
     6
  9
$SURFTYPE
 70
     6
  9
$SURFU
 70
     6
  9
$SURFV
 70
     6
  9
$UCSNAME
  2

  9
$UCSORG
 10
0.0
 20
0.0
 30
0.0
  9
$UCSXDIR
 10
1.0
 20
0.0
 30
0.0
  9
$UCSYDIR
 10
0.0
 20
1.0
 30
0.0
  9
$PUCSNAME
  2

  9
$PUCSORG
 10
0.0
 20
0.0
 30
0.0
  9
$PUCSXDIR
 10
1.0
 20
0.0
 30
0.0
  9
$PUCSYDIR
 10
0.0
 20
1.0
 30
0.0
  9
$USERI1
 70
     0
  9
$USERI2
 70
     0
  9
$USERI3
 70
     0
  9
$USERI4
 70
     0
  9
$USERI5
 70
     0
  9
$USERR1
 40
0.0
  9
$USERR2
 40
0.0
  9
$USERR3
 40
0.0
  9
$USERR4
 40
0.0
  9
$USERR5
 40
0.0
  9
$WORLDVIEW
 70
     1
  9
$SHADEDGE
 70
     3
  9
$SHADEDIF
 70
    70
  9
$TILEMODE
 70
     1
  9
$MAXACTVP
 70
    64
  9
$PLIMCHECK
 70
     0
  9
$PEXTMIN
 10
1.0000000000E+20
 20
1.0000000000E+20
 30
1.0000000000E+20
  9
$PEXTMAX
 10
-1.0000000000E+20
 20
-1.0000000000E+20
 30
-1.0000000000E+20
  9
$PLIMMIN
 10
0.0
 20
0.0
  9
$PLIMMAX
 10
420.0
 20
297.0
  9
$UNITMODE
 70
     0
  9
$VISRETAIN
 70
     1
  9
$PLINEGEN
 70
     0
  9
$PSLTSCALE
 70
     1
  0
ENDSEC
  0
SECTION
  2
TABLES
  0
TABLE
  2
VPORT
 70
     1
  0
VPORT
  2
*ACTIVE
 70
     0
 10
0.0
 20
0.0
 11
1.0
 21
1.0
 12
105.0
 22
148.5
 13
0.0
 23
0.0
 14
10.0
 24
10.0
 15
10.0
 25
10.0
 16
0.0
 26
0.0
 36
1.0
 17
0.0
 27
0.0
 37
0.0
 40
297.0
 41
0.7070707071
 42
50.0
 43
0.0
 44
0.0
 50
0.0
 51
0.0
 71
     0
 72
  2000
 73
     1
 74
     3
 75
     0
 76
     0
 77
     0
 78
     0
  0
ENDTAB
  0
TABLE
  2
LTYPE
 70
     6
  0
LTYPE
  2
CONTINUOUS
 70
     0
  3
Solid line
 72
    65
 73
     0
 40
0.0
  0
LTYPE
  2
HIDDEN
 70
     0
  3
Hidden __ __ __ __ __ __ __ __ __ __ __ __ __ __
 72
    65
 73
     2
 40
1.905
 49
1.27
 49
-0.635
  0
LTYPE
  2
PHANTOM
 70
     0
  3
Phantom ______  __  __  ______  __  __  ______
 72
    65
 73
     6
 40
12.7
 49
6.35
 49
-1.27
 49
1.27
 49
-1.27
 49
1.27
 49
-1.27
  0
LTYPE
  2
CENTER
 70
     0
  3
Center ____ _ ____ _ ____ _ ____ _ ____ _ ____
 72
    65
 73
     4
 40
10.16
 49
6.35
 49
-1.27
 49
1.27
 49
-1.27
  0
LTYPE
  2
CENTERX2
 70
     0
  3
Center (2x) ________  __  ________  __  _____
 72
    65
 73
     4
 40
20.32
 49
12.7
 49
-2.54
 49
2.54
 49
-2.54
  0
LTYPE
  2
DOT2
 70
     0
  3
Dot (.5x) ........................................
 72
    65
 73
     2
 40
0.635
 49
0.0
 49
-0.635
  0
ENDTAB
  0
TABLE
  2
LAYER
 70
    53
  0
LAYER
  2
0
 70
     0
 62
     7
  6
CONTINUOUS
  0
LAYER
  2
SLD-0
 70
     0
 62
     7
  6
CONTINUOUS
  0
LAYER
  2
LEVEL0
 70
     0
 62
     7
  6
CONTINUOUS
  0
LAYER
  2
1
 70
     0
 62
     7
  6
CONTINUOUS
  0
LAYER
  2
2
 70
     0
 62
     7
  6
CONTINUOUS
  0
LAYER
  2
3
 70
     0
 62
     7
  6
CONTINUOUS
  0
LAYER
  2
4
 70
     0
 62
     7
  6
CONTINUOUS
  0
LAYER
  2
5
 70
     0
 62
     7
  6
CONTINUOUS
  0
LAYER
  2
6
 70
     0
 62
     7
  6
CONTINUOUS
  0
LAYER
  2
7
 70
     0
 62
     7
  6
CONTINUOUS
  0
LAYER
  2
8
 70
     0
 62
     7
  6
CONTINUOUS
  0
LAYER
  2
9
 70
     0
 62
     7
  6
CONTINUOUS
  0
LAYER
  2
10
 70
     0
 62
     7
  6
CONTINUOUS
  0
LAYER
  2
11
 70
     0
 62
     7
  6
CONTINUOUS
  0
LAYER
  2
12
 70
     0
 62
     7
  6
CONTINUOUS
  0
LAYER
  2
13
 70
     0
 62
     7
  6
CONTINUOUS
  0
LAYER
  2
14
 70
     0
 62
     7
  6
CONTINUOUS
  0
LAYER
  2
15
 70
     0
 62
     7
  6
CONTINUOUS
  0
LAYER
  2
16
 70
     0
 62
     7
  6
CONTINUOUS
  0
LAYER
  2
17
 70
     0
 62
     7
  6
CONTINUOUS
  0
LAYER
  2
18
 70
     0
 62
     7
  6
CONTINUOUS
  0
LAYER
  2
19
 70
     0
 62
     7
  6
CONTINUOUS
  0
LAYER
  2
20
 70
     0
 62
     7
  6
CONTINUOUS
  0
LAYER
  2
21
 70
     0
 62
     7
  6
CONTINUOUS
  0
LAYER
  2
22
 70
     0
 62
     7
  6
CONTINUOUS
  0
LAYER
  2
23
 70
     0
 62
     7
  6
CONTINUOUS
  0
LAYER
  2
24
 70
     0
 62
     7
  6
CONTINUOUS
  0
LAYER
  2
25
 70
     0
 62
     7
  6
CONTINUOUS
  0
LAYER
  2
26
 70
     0
 62
     7
  6
CONTINUOUS
  0
LAYER
  2
27
 70
     0
 62
     7
  6
CONTINUOUS
  0
LAYER
  2
28
 70
     0
 62
     7
  6
CONTINUOUS
  0
LAYER
  2
29
 70
     0
 62
     7
  6
CONTINUOUS
  0
LAYER
  2
30
 70
     0
 62
     7
  6
CONTINUOUS
  0
LAYER
  2
31
 70
     0
 62
     7
  6
CONTINUOUS
  0
LAYER
  2
32
 70
     0
 62
     7
  6
CONTINUOUS
  0
LAYER
  2
33
 70
     0
 62
     7
  6
CONTINUOUS
  0
LAYER
  2
34
 70
     0
 62
     7
  6
CONTINUOUS
  0
LAYER
  2
35
 70
     0
 62
     7
  6
CONTINUOUS
  0
LAYER
  2
36
 70
     0
 62
     7
  6
CONTINUOUS
  0
LAYER
  2
37
 70
     0
 62
     7
  6
CONTINUOUS
  0
LAYER
  2
38
 70
     0
 62
     7
  6
CONTINUOUS
  0
LAYER
  2
39
 70
     0
 62
     7
  6
CONTINUOUS
  0
LAYER
  2
40
 70
     0
 62
     7
  6
CONTINUOUS
  0
LAYER
  2
41
 70
     0
 62
     7
  6
CONTINUOUS
  0
LAYER
  2
42
 70
     0
 62
     7
  6
CONTINUOUS
  0
LAYER
  2
43
 70
     0
 62
     7
  6
CONTINUOUS
  0
LAYER
  2
44
 70
     0
 62
     7
  6
CONTINUOUS
  0
LAYER
  2
45
 70
     0
 62
     7
  6
CONTINUOUS
  0
LAYER
  2
46
 70
     0
 62
     7
  6
CONTINUOUS
  0
LAYER
  2
47
 70
     0
 62
     7
  6
CONTINUOUS
  0
LAYER
  2
48
 70
     0
 62
     7
  6
CONTINUOUS
  0
LAYER
  2
49
 70
     0
 62
     7
  6
CONTINUOUS
  0
LAYER
  2
50
 70
     0
 62
     7
  6
CONTINUOUS
  0
ENDTAB
  0
TABLE
  2
STYLE
 70
     1
  0
STYLE
  2
STANDARD
 70
     0
 40
0.0
 41
1.0
 50
0.0
 71
     0
 42
2.0
  3
txt
  4

  0
ENDTAB
  0
TABLE
  2
VIEW
 70
     0
  0
ENDTAB
  0
TABLE
  2
UCS
 70
     0
  0
ENDTAB
  0
TABLE
  2
APPID
 70
     1
  0
APPID
  2
ACAD
 70
     0
  0
ENDTAB
  0
TABLE
  2
DIMSTYLE
 70
     4
  0
DIMSTYLE
  2
ISO-25
 70
     0
  3

  4

  5

  6

  7

 40
1.0
 41
2.5
 42
0.625
 43
3.75
 44
1.25
 45
0.0
 46
0.0
 47
0.0
 48
0.0
140
2.5
141
2.5
142
0.0
143
0.0393700787
144
1.0
145
0.0
146
1.0
147
0.625
 71
     0
 72
     0
 73
     0
 74
     0
 75
     0
 76
     0
 77
     1
 78
     8
170
     0
171
     3
172
     1
173
     0
174
     0
175
     0
176
     0
177
     0
178
     0
  0
DIMSTYLE
  2
SLDDIMSTYLE0
 70
     0
  3

  4

  5

  6
CLOSED
  7
CLOSED
 40
1.0
 41
2.0
 42
0.0625
 43
0.38
 44
0.0
 45
0.000000001
 46
0.0
 47
0.3
 48
0.2
140
2.0
141
0.09
142
0.0
143
0.0393700787
144
1.0
145
0.0
146
1.0
147
0.5
 71
     1
 72
     0
 73
     0
 74
     0
 75
     0
 76
     0
 77
     1
 78
    12
170
     1
171
     3
172
     0
173
     1
174
     0
175
     0
176
     0
177
     0
178
     0
  0
DIMSTYLE
  2
SLDDIMSTYLE1
 70
     0
  3

  4

  5

  6
CLOSED
  7
CLOSED
 40
1.0
 41
2.0
 42
0.0625
 43
0.38
 44
0.0
 45
0.000000001
 46
0.0
 47
0.0
 48
0.0
140
2.0
141
0.09
142
0.0
143
0.0393700787
144
1.0
145
0.0
146
1.0
147
0.5
 71
     0
 72
     0
 73
     0
 74
     0
 75
     0
 76
     0
 77
     1
 78
    12
170
     1
171
     2
172
     0
173
     1
174
     0
175
     0
176
     0
177
     0
178
     0
  0
DIMSTYLE
  2
SLDDIMSTYLE2
 70
     0
  3

  4

  5

  6
CLOSED
  7
CLOSED
 40
1.0
 41
2.0
 42
0.0625
 43
0.38
 44
0.0
 45
0.000000001
 46
0.0
 47
0.0
 48
0.0
140
2.0
141
0.0
142
0.0
143
0.0393700787
144
1.0
145
0.0
146
1.0
147
0.5
 71
     0
 72
     0
 73
     0
 74
     0
 75
     0
 76
     0
 77
     1
 78
    12
170
     1
171
     2
172
     0
173
     1
174
     0
175
     0
176
     0
177
     0
178
     0
  0
ENDTAB
  0
ENDSEC
  0
SECTION
  2
BLOCKS
  0
BLOCK
  8
0
  2
$MODEL_SPACE
 70
     0
 10
0.0
 20
0.0
 30
0.0
  3
$MODEL_SPACE
  1

  0
ENDBLK
  5
21
  8
0
  0
BLOCK
 67
     1
  8
0
  2
$PAPER_SPACE
 70
     0
 10
0.0
 20
0.0
 30
0.0
  3
$PAPER_SPACE
  1

  0
ENDBLK
  5
1D
 67
     1
  8
0
  0
BLOCK
  8
0
  2
_CLOSED
 70
     0
 10
0.0
 20
0.0
 30
0.0
  3
_CLOSED
  1

  0
LINE
  5
B8
  8
0
  6
BYBLOCK
 62
     0
 10
-1.0
 20
0.166667
 30
0.0
 11
0.0
 21
0.0
 31
0.0
  0
LINE
  5
B9
  8
0
  6
BYBLOCK
 62
     0
 10
0.0
 20
0.0
 30
0.0
 11
-1.0
 21
-0.166667
 31
0.0
  0
LINE
  5
BA
  8
0
  6
BYBLOCK
 62
     0
 10
-1.0
 20
0.166667
 30
0.0
 11
-1.0
 21
-0.166667
 31
0.0
  0
LINE
  5
BB
  8
0
  6
BYBLOCK
 62
     0
 10
0.0
 20
0.0
 30
0.0
 11
-1.0
 21
0.0
 31
0.0
  0
ENDBLK
  5
B7
  8
0
  0
BLOCK
  8
0
  2
_D
 70
     0
 10
0.0
 20
0.0
 30
0.0
  3
_D
  1

  0
INSERT
  5
BF
  8
LEVEL0
  2
_CLOSED
 10
63.3118771997
 20
156.3681089309
 30
-8.5
 41
2.0
 42
2.0
 50
180.0
  0
INSERT
  5
C0
  8
LEVEL0
  2
_CLOSED
 10
158.4118771997
 20
156.3681089309
 30
-8.5
 41
2.0
 42
2.0
 50
0.0
  0
LINE
  5
C1
  8
LEVEL0
 10
110.4289851589
 20
167.1188035969
 30
0.0
 11
109.8196101463
 21
167.1188035969
 31
0.0
  0
LINE
  5
C2
  8
LEVEL0
 10
109.8196101463
 20
167.1188035969
 30
0.0
 11
109.8196101463
 21
161.9465812099
 31
0.0
  0
LINE
  5
C3
  8
LEVEL0
 10
109.8196101463
 20
161.9465812099
 30
0.0
 11
110.4289851589
 21
161.9465812099
 31
0.0
  0
LINE
  5
C4
  8
LEVEL0
 10
126.0845399899
 20
167.1188035969
 30
0.0
 11
126.6939150025
 21
167.1188035969
 31
0.0
  0
LINE
  5
C5
  8
LEVEL0
 10
126.6939150025
 20
167.1188035969
 30
0.0
 11
126.6939150025
 21
161.9465812099
 31
0.0
  0
LINE
  5
C6
  8
LEVEL0
 10
126.6939150025
 20
161.9465812099
 30
0.0
 11
126.0845399899
 21
161.9465812099
 31
0.0
  0
LINE
  5
C7
  8
LEVEL0
 10
63.3118771997
 20
156.3681089309
 30
0.0
 11
158.4118771997
 21
156.3681089309
 31
0.0
  0
TEXT
  5
C8
  8
LEVEL0
 10
107.7324574087
 20
157.1051845842
 30
-8.5
 40
2.0
  1
  
 41
0.7
 11
107.7324574087
 21
156.3986644604
 31
-8.5
 73
     1
  0
TEXT
  5
C9
  8
LEVEL0
 10
110.4289851589
 20
162.6836568632
 30
-8.5
 40
2.0
  1
3.744
 41
0.7
 11
110.4289851589
 21
161.9771367394
 31
-8.5
 73
     1
  0
TEXT
  5
CA
  8
LEVEL0
 10
117.0789850382
 20
162.6836568632
 30
-8.5
 40
2.0
  1
 
 41
0.7
 11
117.0789850382
 21
161.9771367394
 31
-8.5
 73
     1
  0
TEXT
  5
CB
  8
LEVEL0
 10
117.8178740172
 20
165.2392125272
 30
-8.5
 40
2.0
  1
+
 41
0.7
 11
117.8178740172
 21
164.5326924034
 31
-8.5
 73
     1
  0
TEXT
  5
CC
  8
LEVEL0
 10
118.1831517986
 20
162.6531013337
 30
-8.5
 40
2.0
  1
-
 41
0.7
 11
118.1831517986
 21
161.9465812099
 31
-8.5
 73
     1
  0
TEXT
  5
CD
  8
LEVEL0
 10
119.4345401106
 20
165.2392125272
 30
-8.5
 40
2.0
  1
0.012
 41
0.7
 11
119.4345401106
 21
164.5326924034
 31
-8.5
 73
     1
  0
TEXT
  5
CE
  8
LEVEL0
 10
119.4345401106
 20
162.6531013337
 30
-8.5
 40
2.0
  1
0.008
 41
0.7
 11
119.4345401106
 21
161.9465812099
 31
-8.5
 73
     1
  0
TEXT
  5
CF
  8
LEVEL0
 10
112.6456517465
 20
157.074628589
 30
-8.5
 40
2.0
  1
95.1
 41
0.7
 11
112.6456517465
 21
156.3681084652
 31
-8.5
 73
     1
  0
TEXT
  5
D0
  8
LEVEL0
 10
117.8178736679
 20
157.074628589
 30
-8.5
 40
2.0
  1
 
 41
0.7
 11
117.8178736679
 21
156.3681084652
 31
-8.5
 73
     1
  0
TEXT
  5
D1
  8
LEVEL0
 10
118.5567626469
 20
159.6607397826
 30
-8.5
 40
2.0
  1
+
 41
0.7
 11
118.5567626469
 21
158.9542196587
 31
-8.5
 73
     1
  0
TEXT
  5
D2
  8
LEVEL0
 10
118.9220404283
 20
157.074628589
 30
-8.5
 40
2.0
  1
-
 41
0.7
 11
118.9220404283
 21
156.3681084652
 31
-8.5
 73
     1
  0
TEXT
  5
D3
  8
LEVEL0
 10
120.173429206
 20
159.6607397826
 30
-8.5
 40
2.0
  1
0.3
 41
0.7
 11
120.173429206
 21
158.9542196587
 31
-8.5
 73
     1
  0
TEXT
  5
D4
  8
LEVEL0
 10
120.173429206
 20
157.074628589
 30
-8.5
 40
2.0
  1
0.2
 41
0.7
 11
120.173429206
 21
156.3681084652
 31
-8.5
 73
     1
  0
TEXT
  5
D5
  8
LEVEL0
 10
127.3032904807
 20
157.1051845842
 30
-8.5
 40
2.0
  1
  
 41
0.7
 11
127.3032904807
 21
156.3986644604
 31
-8.5
 73
     1
  0
ENDBLK
  5
BE
  8
0
  0
BLOCK
  8
0
  2
_D_1
 70
     0
 10
0.0
 20
0.0
 30
0.0
  3
_D_1
  1

  0
INSERT
  5
DA
  8
LEVEL0
  2
_CLOSED
 10
100.7233602173
 20
203.9623728166
 30
-8.5
 41
2.0
 42
2.0
 50
90.0
  0
INSERT
  5
DB
  8
LEVEL0
  2
_CLOSED
 10
100.7233602173
 20
108.8823728166
 30
-8.5
 41
2.0
 42
2.0
 50
270.0
  0
LINE
  5
DC
  8
LEVEL0
 10
89.9726655513
 20
131.5107584045
 30
0.0
 11
89.9726655513
 21
130.9013833919
 31
0.0
  0
LINE
  5
DD
  8
LEVEL0
 10
89.9726655513
 20
130.9013833919
 30
0.0
 11
95.1448879383
 21
130.9013833919
 31
0.0
  0
LINE
  5
DE
  8
LEVEL0
 10
95.1448879383
 20
130.9013833919
 30
0.0
 11
95.1448879383
 21
131.5107584045
 31
0.0
  0
LINE
  5
DF
  8
LEVEL0
 10
89.9726655513
 20
147.1663132355
 30
0.0
 11
89.9726655513
 21
147.7756882481
 31
0.0
  0
LINE
  5
E0
  8
LEVEL0
 10
89.9726655513
 20
147.7756882481
 30
0.0
 11
95.1448879383
 21
147.7756882481
 31
0.0
  0
LINE
  5
E1
  8
LEVEL0
 10
95.1448879383
 20
147.7756882481
 30
0.0
 11
95.1448879383
 21
147.1663132355
 31
0.0
  0
LINE
  5
E2
  8
LEVEL0
 10
100.7233602173
 20
203.9623728166
 30
0.0
 11
100.7233602173
 21
108.8823728166
 31
0.0
  0
TEXT
  5
E3
  8
LEVEL0
 10
99.986284564
 20
128.8142306542
 30
-8.5
 40
2.0
  1
  
 50
90.0
 41
0.7
 11
100.6928046878
 21
128.8142306542
 31
-8.5
 73
     1
  0
TEXT
  5
E4
  8
LEVEL0
 10
94.407812285
 20
131.5107584045
 30
-8.5
 40
2.0
  1
3.743
 50
90.0
 41
0.7
 11
95.1143324088
 21
131.5107584045
 31
-8.5
 73
     1
  0
TEXT
  5
E5
  8
LEVEL0
 10
94.407812285
 20
138.1607582838
 30
-8.5
 40
2.0
  1
 
 50
90.0
 41
0.7
 11
95.1143324088
 21
138.1607582838
 31
-8.5
 73
     1
  0
TEXT
  5
E6
  8
LEVEL0
 10
91.852256621
 20
138.8996472627
 30
-8.5
 40
2.0
  1
+
 50
90.0
 41
0.7
 11
92.5587767448
 21
138.8996472627
 31
-8.5
 73
     1
  0
TEXT
  5
E7
  8
LEVEL0
 10
94.4383678145
 20
139.2649250441
 30
-8.5
 40
2.0
  1
-
 50
90.0
 41
0.7
 11
95.1448879383
 21
139.2649250441
 31
-8.5
 73
     1
  0
TEXT
  5
E8
  8
LEVEL0
 10
91.852256621
 20
140.5163133562
 30
-8.5
 40
2.0
  1
0.012
 50
90.0
 41
0.7
 11
92.5587767448
 21
140.5163133562
 31
-8.5
 73
     1
  0
TEXT
  5
E9
  8
LEVEL0
 10
94.4383678145
 20
140.5163133562
 30
-8.5
 40
2.0
  1
0.008
 50
90.0
 41
0.7
 11
95.1448879383
 21
140.5163133562
 31
-8.5
 73
     1
  0
TEXT
  5
EA
  8
LEVEL0
 10
100.0168405592
 20
133.7274249921
 30
-8.5
 40
2.0
  1
95.1
 50
90.0
 41
0.7
 11
100.723360683
 21
133.7274249921
 31
-8.5
 73
     1
  0
TEXT
  5
EB
  8
LEVEL0
 10
100.0168405592
 20
138.8996469135
 30
-8.5
 40
2.0
  1
 
 50
90.0
 41
0.7
 11
100.723360683
 21
138.8996469135
 31
-8.5
 73
     1
  0
TEXT
  5
EC
  8
LEVEL0
 10
97.4307293656
 20
139.6385358924
 30
-8.5
 40
2.0
  1
+
 50
90.0
 41
0.7
 11
98.1372494895
 21
139.6385358924
 31
-8.5
 73
     1
  0
TEXT
  5
ED
  8
LEVEL0
 10
100.0168405592
 20
140.0038136738
 30
-8.5
 40
2.0
  1
-
 50
90.0
 41
0.7
 11
100.723360683
 21
140.0038136738
 31
-8.5
 73
     1
  0
TEXT
  5
EE
  8
LEVEL0
 10
97.4307293656
 20
141.2552024516
 30
-8.5
 40
2.0
  1
0.3
 50
90.0
 41
0.7
 11
98.1372494895
 21
141.2552024516
 31
-8.5
 73
     1
  0
TEXT
  5
EF
  8
LEVEL0
 10
100.0168405592
 20
141.2552024516
 30
-8.5
 40
2.0
  1
0.2
 50
90.0
 41
0.7
 11
100.723360683
 21
141.2552024516
 31
-8.5
 73
     1
  0
TEXT
  5
F0
  8
LEVEL0
 10
99.986284564
 20
148.3850637263
 30
-8.5
 40
2.0
  1
  
 50
90.0
 41
0.7
 11
100.6928046878
 21
148.3850637263
 31
-8.5
 73
     1
  0
ENDBLK
  5
D9
  8
0
  0
BLOCK
  8
0
  2
_D_2
 70
     0
 10
0.0
 20
0.0
 30
0.0
  3
_D_2
  1

  0
INSERT
  5
F6
  8
LEVEL0
  2
_CLOSED
 10
38.2585671422
 20
100.8823728166
 30
-8.5
 41
2.0
 42
2.0
 50
270.0
  0
INSERT
  5
F7
  8
LEVEL0
  2
_CLOSED
 10
38.2585671422
 20
211.9623728166
 30
-8.5
 41
2.0
 42
2.0
 50
90.0
  0
LINE
  5
F8
  8
LEVEL0
 10
32.0912060951
 20
166.3799366793
 30
0.0
 11
32.0912060951
 21
165.7705616667
 31
0.0
  0
LINE
  5
F9
  8
LEVEL0
 10
32.0912060951
 20
165.7705616667
 30
0.0
 11
35.2662060567
 21
165.7705616667
 31
0.0
  0
LINE
  5
FA
  8
LEVEL0
 10
35.2662060567
 20
165.7705616667
 30
0.0
 11
35.2662060567
 21
166.3799366793
 31
0.0
  0
LINE
  5
FB
  8
LEVEL0
 10
32.0912060951
 20
171.5521586007
 30
0.0
 11
32.0912060951
 21
172.1615336132
 31
0.0
  0
LINE
  5
FC
  8
LEVEL0
 10
32.0912060951
 20
172.1615336132
 30
0.0
 11
35.2662060567
 21
172.1615336132
 31
0.0
  0
LINE
  5
FD
  8
LEVEL0
 10
35.2662060567
 20
172.1615336132
 30
0.0
 11
35.2662060567
 21
171.5521586007
 31
0.0
  0
LINE
  5
FE
  8
LEVEL0
 10
50.8118771997
 20
100.8823728166
 30
0.0
 11
37.2585671422
 21
100.8823728166
 31
0.0
  0
LINE
  5
FF
  8
LEVEL0
 10
50.8118771997
 20
211.9623728166
 30
0.0
 11
37.2585671422
 21
211.9623728166
 31
0.0
  0
LINE
  5
100
  8
LEVEL0
 10
38.2585671422
 20
100.8823728166
 30
0.0
 11
38.2585671422
 21
211.9623728166
 31
0.0
  0
TEXT
  5
101
  8
LEVEL0
 10
37.5214914889
 20
163.683408929
 30
-8.5
 40
2.0
  1
  
 50
90.0
 41
0.7
 11
38.2280116127
 21
163.683408929
 31
-8.5
 73
     1
  0
TEXT
  5
102
  8
LEVEL0
 10
34.5596859329
 20
166.3799366793
 30
-8.5
 40
2.0
  1
4.37
 50
90.0
 41
0.7
 11
35.2662060567
 21
166.3799366793
 31
-8.5
 73
     1
  0
TEXT
  5
103
  8
LEVEL0
 10
37.5520472512
 20
165.6410478167
 30
-8.5
 40
2.0
  1
111.1
 50
90.0
 41
0.7
 11
38.2585673751
 21
165.6410478167
 31
-8.5
 73
     1
  0
TEXT
  5
104
  8
LEVEL0
 10
37.5214914889
 20
172.7709090915
 30
-8.5
 40
2.0
  1
  
 50
90.0
 41
0.7
 11
38.2280116127
 21
172.7709090915
 31
-8.5
 73
     1
  0
ENDBLK
  5
F5
  8
0
  0
BLOCK
  8
0
  2
_D_3
 70
     0
 10
0.0
 20
0.0
 30
0.0
  3
_D_3
  1

  0
INSERT
  5
109
  8
LEVEL0
  2
_CLOSED
 10
55.3118771997
 20
85.1191205297
 30
-8.5
 41
2.0
 42
2.0
 50
180.0
  0
INSERT
  5
10A
  8
LEVEL0
  2
_CLOSED
 10
166.4118771997
 20
85.1191205297
 30
-8.5
 41
2.0
 42
2.0
 50
0.0
  0
LINE
  5
10B
  8
LEVEL0
 10
107.1558953286
 20
91.2864815768
 30
0.0
 11
106.5465203161
 21
91.2864815768
 31
0.0
  0
LINE
  5
10C
  8
LEVEL0
 10
106.5465203161
 20
91.2864815768
 30
0.0
 11
106.5465203161
 21
88.1114816151
 31
0.0
  0
LINE
  5
10D
  8
LEVEL0
 10
106.5465203161
 20
88.1114816151
 30
0.0
 11
107.1558953286
 21
88.1114816151
 31
0.0
  0
LINE
  5
10E
  8
LEVEL0
 10
112.32811725
 20
91.2864815768
 30
0.0
 11
112.9374922626
 21
91.2864815768
 31
0.0
  0
LINE
  5
10F
  8
LEVEL0
 10
112.9374922626
 20
91.2864815768
 30
0.0
 11
112.9374922626
 21
88.1114816151
 31
0.0
  0
LINE
  5
110
  8
LEVEL0
 10
112.9374922626
 20
88.1114816151
 30
0.0
 11
112.32811725
 21
88.1114816151
 31
0.0
  0
LINE
  5
111
  8
LEVEL0
 10
55.3118771997
 20
96.3823728166
 30
0.0
 11
55.3118771997
 21
84.1191205297
 31
0.0
  0
LINE
  5
112
  8
LEVEL0
 10
166.4118771997
 20
96.3823728166
 30
0.0
 11
166.4118771997
 21
84.1191205297
 31
0.0
  0
LINE
  5
113
  8
LEVEL0
 10
55.3118771997
 20
85.1191205297
 30
0.0
 11
166.4118771997
 21
85.1191205297
 31
0.0
  0
TEXT
  5
114
  8
LEVEL0
 10
104.4593675784
 20
85.856196183
 30
-8.5
 40
2.0
  1
  
 41
0.7
 11
104.4593675784
 21
85.1496760592
 31
-8.5
 73
     1
  0
TEXT
  5
115
  8
LEVEL0
 10
107.1558953286
 20
88.818001739
 30
-8.5
 40
2.0
  1
4.37
 41
0.7
 11
107.1558953286
 21
88.1114816151
 31
-8.5
 73
     1
  0
TEXT
  5
116
  8
LEVEL0
 10
106.4170064661
 20
85.8256404207
 30
-8.5
 40
2.0
  1
111.1
 41
0.7
 11
106.4170064661
 21
85.1191202968
 31
-8.5
 73
     1
  0
TEXT
  5
117
  8
LEVEL0
 10
113.5468677408
 20
85.856196183
 30
-8.5
 40
2.0
  1
  
 41
0.7
 11
113.5468677408
 21
85.1496760592
 31
-8.5
 73
     1
  0
ENDBLK
  5
108
  8
0
  0
BLOCK
  8
0
  2
_D_4
 70
     0
 10
0.0
 20
0.0
 30
0.0
  3
_D_4
  1

  0
INSERT
  5
11C
  8
LEVEL0
  2
_CLOSED
 10
82.3175424293
 20
100.8823728166
 30
-8.5
 41
2.0
 42
2.0
 50
270.0
  0
INSERT
  5
11D
  8
LEVEL0
  2
_CLOSED
 10
82.3175424293
 20
108.8823728166
 30
-8.5
 41
2.0
 42
2.0
 50
90.0
  0
LINE
  5
11E
  8
LEVEL0
 10
76.1501813822
 20
92.4237995903
 30
0.0
 11
76.1501813822
 21
91.8144245777
 31
0.0
  0
LINE
  5
11F
  8
LEVEL0
 10
76.1501813822
 20
91.8144245777
 30
0.0
 11
79.3251813438
 21
91.8144245777
 31
0.0
  0
LINE
  5
120
  8
LEVEL0
 10
79.3251813438
 20
91.8144245777
 30
0.0
 11
79.3251813438
 21
92.4237995903
 31
0.0
  0
LINE
  5
121
  8
LEVEL0
 10
76.1501813822
 20
97.5960215117
 30
0.0
 11
76.1501813822
 21
98.2053965242
 31
0.0
  0
LINE
  5
122
  8
LEVEL0
 10
76.1501813822
 20
98.2053965242
 30
0.0
 11
79.3251813438
 21
98.2053965242
 31
0.0
  0
LINE
  5
123
  8
LEVEL0
 10
79.3251813438
 20
98.2053965242
 30
0.0
 11
79.3251813438
 21
97.5960215117
 31
0.0
  0
LINE
  5
124
  8
LEVEL0
 10
59.8118771997
 20
100.8823728166
 30
0.0
 11
83.3175424293
 21
100.8823728166
 31
0.0
  0
LINE
  5
125
  8
LEVEL0
 10
82.3175424293
 20
100.8823728166
 30
0.0
 11
82.3175424293
 21
89.72727184
 31
0.0
  0
LINE
  5
126
  8
LEVEL0
 10
82.3175424293
 20
100.8823728166
 30
0.0
 11
82.3175424293
 21
108.8823728166
 31
0.0
  0
TEXT
  5
127
  8
LEVEL0
 10
81.5804667759
 20
89.72727184
 30
-8.5
 40
2.0
  1
  
 50
90.0
 41
0.7
 11
82.2869868998
 21
89.72727184
 31
-8.5
 73
     1
  0
TEXT
  5
128
  8
LEVEL0
 10
78.61866122
 20
92.4237995903
 30
-8.5
 40
2.0
  1
0.31
 50
90.0
 41
0.7
 11
79.3251813438
 21
92.4237995903
 31
-8.5
 73
     1
  0
TEXT
  5
129
  8
LEVEL0
 10
81.6110225383
 20
94.2710218048
 30
-8.5
 40
2.0
  1
8
 50
90.0
 41
0.7
 11
82.3175426621
 21
94.2710218048
 31
-8.5
 73
     1
  0
TEXT
  5
12A
  8
LEVEL0
 10
81.5804667759
 20
98.8147720025
 30
-8.5
 40
2.0
  1
  
 50
90.0
 41
0.7
 11
82.2869868998
 21
98.8147720025
 31
-8.5
 73
     1
  0
ENDBLK
  5
11B
  8
0
  0
BLOCK
  8
0
  2
_D_5
 70
     0
 10
0.0
 20
0.0
 30
0.0
  3
_D_5
  1

  0
INSERT
  5
12F
  8
LEVEL0
  2
_CLOSED
 10
55.3118771997
 20
120.6360495876
 30
-8.5
 41
2.0
 42
2.0
 50
180.0
  0
INSERT
  5
130
  8
LEVEL0
  2
_CLOSED
 10
63.3118771997
 20
120.6360495876
 30
-8.5
 41
2.0
 42
2.0
 50
0.0
  0
LINE
  5
131
  8
LEVEL0
 10
46.4624089638
 20
126.8034106347
 30
0.0
 11
45.8530339512
 21
126.8034106347
 31
0.0
  0
LINE
  5
132
  8
LEVEL0
 10
45.8530339512
 20
126.8034106347
 30
0.0
 11
45.8530339512
 21
123.6284106731
 31
0.0
  0
LINE
  5
133
  8
LEVEL0
 10
45.8530339512
 20
123.6284106731
 30
0.0
 11
46.4624089638
 21
123.6284106731
 31
0.0
  0
LINE
  5
134
  8
LEVEL0
 10
51.6346308852
 20
126.8034106347
 30
0.0
 11
52.2440058978
 21
126.8034106347
 31
0.0
  0
LINE
  5
135
  8
LEVEL0
 10
52.2440058978
 20
126.8034106347
 30
0.0
 11
52.2440058978
 21
123.6284106731
 31
0.0
  0
LINE
  5
136
  8
LEVEL0
 10
52.2440058978
 20
123.6284106731
 30
0.0
 11
51.6346308852
 21
123.6284106731
 31
0.0
  0
LINE
  5
137
  8
LEVEL0
 10
55.3118771997
 20
105.3823728166
 30
0.0
 11
55.3118771997
 21
121.6360495876
 31
0.0
  0
LINE
  5
138
  8
LEVEL0
 10
55.3118771997
 20
120.6360495876
 30
0.0
 11
43.7658812136
 21
120.6360495876
 31
0.0
  0
LINE
  5
139
  8
LEVEL0
 10
55.3118771997
 20
120.6360495876
 30
0.0
 11
63.3118771997
 21
120.6360495876
 31
0.0
  0
TEXT
  5
13A
  8
LEVEL0
 10
43.7658812136
 20
121.3731252409
 30
-8.5
 40
2.0
  1
  
 50
360.0
 41
0.7
 11
43.7658812136
 21
120.6666051171
 31
-8.5
 73
     1
  0
TEXT
  5
13B
  8
LEVEL0
 10
46.4624089638
 20
124.3349307969
 30
-8.5
 40
2.0
  1
0.31
 50
360.0
 41
0.7
 11
46.4624089638
 21
123.6284106731
 31
-8.5
 73
     1
  0
TEXT
  5
13C
  8
LEVEL0
 10
48.3096311784
 20
121.3425694786
 30
-8.5
 40
2.0
  1
8
 50
360.0
 41
0.7
 11
48.3096311784
 21
120.6360493548
 31
-8.5
 73
     1
  0
TEXT
  5
13D
  8
LEVEL0
 10
52.853381376
 20
121.3731252409
 30
-8.5
 40
2.0
  1
  
 50
360.0
 41
0.7
 11
52.853381376
 21
120.6666051171
 31
-8.5
 73
     1
  0
ENDBLK
  5
12E
  8
0
  0
BLOCK
  8
0
  2
_D_6
 70
     0
 10
0.0
 20
0.0
 30
0.0
  3
_D_6
  1

  0
INSERT
  5
143
  8
LEVEL0
  2
_CLOSED
 10
63.6365902317
 20
203.521916492
 30
-8.5
 41
2.0
 42
2.0
 50
318.4405662991
  0
LINE
  5
144
  8
LEVEL0
 10
76.4768390295
 20
200.3351979312
 30
0.0
 11
76.0196732538
 21
200.7381090374
 31
0.0
  0
LINE
  5
145
  8
LEVEL0
 10
76.0196732538
 20
200.7381090374
 30
0.0
 11
73.9204031487
 21
198.356158202
 31
0.0
  0
LINE
  5
146
  8
LEVEL0
 10
73.9204031487
 20
198.356158202
 30
0.0
 11
74.3775689244
 21
197.9532470958
 31
0.0
  0
LINE
  5
147
  8
LEVEL0
 10
80.3571472107
 20
196.9153897461
 30
0.0
 11
80.8143129864
 21
196.5124786399
 31
0.0
  0
LINE
  5
148
  8
LEVEL0
 10
80.8143129864
 20
196.5124786399
 30
0.0
 11
78.7150428813
 21
194.1305278045
 31
0.0
  0
LINE
  5
149
  8
LEVEL0
 10
78.7150428813
 20
194.1305278045
 30
0.0
 11
78.2578771056
 21
194.5334389107
 31
0.0
  0
LINE
  5
14A
  8
LEVEL0
 10
63.6365902317
 20
203.521916492
 30
0.0
 11
80.9677244641
 21
188.1565449569
 31
0.0
  0
LINE
  5
14B
  8
LEVEL0
 10
63.6365902317
 20
203.521916492
 30
0.0
 11
60.7586364891
 21
206.0734418523
 31
0.0
  0
TEXT
  5
14C
  8
LEVEL0
 10
74.8447111583
 20
198.4832931492
 30
-8.5
 40
2.0
  1
0.05
 50
318.6095030889
 41
0.7
 11
74.3775689244
 21
197.9532470958
 31
-8.5
 73
     1
  0
TEXT
  5
14D
  8
LEVEL0
 10
72.8130586811
 20
196.2851958234
 30
-8.5
 40
2.0
  1
R1.3
 50
318.6095030889
 41
0.7
 11
72.3459164472
 21
195.75514977
 31
-8.5
 73
     1
  0
TEXT
  5
14E
  8
LEVEL0
 10
77.6810424243
 20
192.0356546282
 30
-8.5
 40
2.0
  1
 TYP
 50
318.6095030889
 41
0.7
 11
77.2139001905
 21
191.5056085748
 31
-8.5
 73
     1
  0
ENDBLK
  5
142
  8
0
  0
BLOCK
  8
0
  2
SW_NOTE_0
 70
     0
 10
0.0
 20
0.0
 30
0.0
  3
SW_NOTE_0
  1

  0
TEXT
  5
152
  8
LEVEL0
 62
     0
 10
0.0
 20
1.308534146
 30
0.0
 40
3.7041666667
  1
GLASS FACEPLATE CUTOUT ROUTING TEMPLATE
 41
0.6641025641
 11
0.0
 21
0.0
 31
0.0
 73
     1
  0
TEXT
  5
153
  8
LEVEL0
 62
     0
 10
0.0
 20
-10.5692438402
 30
0.0
 40
3.7041666667
  1
SCALE 1:1
 41
0.7
 11
0.0
 21
-11.8777779862
 31
0.0
 73
     1
  0
ENDBLK
  5
151
  8
0
  0
BLOCK
  8
0
  2
SW_NOTE_0_1
 70
     0
 10
0.0
 20
0.0
 30
0.0
  3
SW_NOTE_0_1
  1

  0
TEXT
  5
159
  8
LEVEL0
 62
     0
 10
18.2110304648
 20
11.1827844194
 30
0.0
 40
2.0
  1
MARK SCREW LOCATIONS
 41
0.665
 11
18.2110304648
 21
10.4762642956
 31
0.0
 73
     1
  0
LINE
  5
15A
  8
LEVEL0
 62
     0
 10
17.6937516628
 20
12.2567449958
 30
0.0
 11
0.0
 21
0.0
 31
0.0
  0
SOLID
  5
15B
  8
LEVEL0
 62
     0
 10
0.0
 20
0.0
 30
0.0
 11
1.8192814936
 21
0.8859398417
 31
0.0
 12
1.4688588132
 22
1.3918075812
 32
0.0
 13
1.4688588132
 23
1.3918075812
 33
0.0
  0
ENDBLK
  5
158
  8
0
  0
BLOCK
  8
0
  2
SW_CENTERMARKSYMBOL_0
 70
     0
 10
0.0
 20
0.0
 30
0.0
  3
SW_CENTERMARKSYMBOL_0
  1

  0
LINE
  5
160
  8
LEVEL0
 62
     0
 10
0.0
 20
0.0
 30
0.0
 11
0.0
 21
2.5
 31
0.0
  0
LINE
  5
161
  8
LEVEL0
 62
     0
 10
0.0
 20
0.0
 30
0.0
 11
-2.5
 21
0.0
 31
0.0
  0
LINE
  5
162
  8
LEVEL0
 62
     0
 10
0.0
 20
0.0
 30
0.0
 11
0.0
 21
-2.5
 31
0.0
  0
LINE
  5
163
  8
LEVEL0
 62
     0
 10
0.0
 20
0.0
 30
0.0
 11
2.5
 21
0.0
 31
0.0
  0
LINE
  5
164
  8
LEVEL0
 62
     0
 10
0.0
 20
2.5
 30
0.0
 11
0.0
 21
3.5
 31
0.0
  0
LINE
  5
165
  8
LEVEL0
 62
     0
 10
-2.5
 20
0.0
 30
0.0
 11
-3.5
 21
0.0
 31
0.0
  0
LINE
  5
166
  8
LEVEL0
 62
     0
 10
0.0
 20
-2.5
 30
0.0
 11
0.0
 21
-3.5
 31
0.0
  0
LINE
  5
167
  8
LEVEL0
 62
     0
 10
2.5
 20
0.0
 30
0.0
 11
3.5
 21
0.0
 31
0.0
  0
ENDBLK
  5
15F
  8
0
  0
BLOCK
  8
0
  2
SW_CENTERMARKSYMBOL_1
 70
     0
 10
0.0
 20
0.0
 30
0.0
  3
SW_CENTERMARKSYMBOL_1
  1

  0
LINE
  5
16C
  8
LEVEL0
 62
     0
 10
0.0
 20
0.0
 30
0.0
 11
0.0
 21
2.5
 31
0.0
  0
LINE
  5
16D
  8
LEVEL0
 62
     0
 10
0.0
 20
0.0
 30
0.0
 11
-2.5
 21
0.0
 31
0.0
  0
LINE
  5
16E
  8
LEVEL0
 62
     0
 10
0.0
 20
0.0
 30
0.0
 11
0.0
 21
-2.5
 31
0.0
  0
LINE
  5
16F
  8
LEVEL0
 62
     0
 10
0.0
 20
0.0
 30
0.0
 11
2.5
 21
0.0
 31
0.0
  0
LINE
  5
170
  8
LEVEL0
 62
     0
 10
0.0
 20
2.5
 30
0.0
 11
0.0
 21
3.5
 31
0.0
  0
LINE
  5
171
  8
LEVEL0
 62
     0
 10
-2.5
 20
0.0
 30
0.0
 11
-3.5
 21
0.0
 31
0.0
  0
LINE
  5
172
  8
LEVEL0
 62
     0
 10
0.0
 20
-2.5
 30
0.0
 11
0.0
 21
-3.5
 31
0.0
  0
LINE
  5
173
  8
LEVEL0
 62
     0
 10
2.5
 20
0.0
 30
0.0
 11
3.5
 21
0.0
 31
0.0
  0
ENDBLK
  5
16B
  8
0
  0
BLOCK
  8
0
  2
SW_CENTERMARKSYMBOL_2
 70
     0
 10
0.0
 20
0.0
 30
0.0
  3
SW_CENTERMARKSYMBOL_2
  1

  0
LINE
  5
178
  8
LEVEL0
 62
     0
 10
0.0
 20
0.0
 30
0.0
 11
0.0
 21
2.5
 31
0.0
  0
LINE
  5
179
  8
LEVEL0
 62
     0
 10
0.0
 20
0.0
 30
0.0
 11
-2.5
 21
0.0
 31
0.0
  0
LINE
  5
17A
  8
LEVEL0
 62
     0
 10
0.0
 20
0.0
 30
0.0
 11
0.0
 21
-2.5
 31
0.0
  0
LINE
  5
17B
  8
LEVEL0
 62
     0
 10
0.0
 20
0.0
 30
0.0
 11
2.5
 21
0.0
 31
0.0
  0
LINE
  5
17C
  8
LEVEL0
 62
     0
 10
0.0
 20
2.5
 30
0.0
 11
0.0
 21
3.5
 31
0.0
  0
LINE
  5
17D
  8
LEVEL0
 62
     0
 10
-2.5
 20
0.0
 30
0.0
 11
-3.5
 21
0.0
 31
0.0
  0
LINE
  5
17E
  8
LEVEL0
 62
     0
 10
0.0
 20
-2.5
 30
0.0
 11
0.0
 21
-3.5
 31
0.0
  0
LINE
  5
17F
  8
LEVEL0
 62
     0
 10
2.5
 20
0.0
 30
0.0
 11
3.5
 21
0.0
 31
0.0
  0
ENDBLK
  5
177
  8
0
  0
BLOCK
  8
0
  2
SW_CENTERMARKSYMBOL_3
 70
     0
 10
0.0
 20
0.0
 30
0.0
  3
SW_CENTERMARKSYMBOL_3
  1

  0
LINE
  5
184
  8
LEVEL0
 62
     0
 10
0.0
 20
0.0
 30
0.0
 11
0.0
 21
2.5
 31
0.0
  0
LINE
  5
185
  8
LEVEL0
 62
     0
 10
0.0
 20
0.0
 30
0.0
 11
-2.5
 21
0.0
 31
0.0
  0
LINE
  5
186
  8
LEVEL0
 62
     0
 10
0.0
 20
0.0
 30
0.0
 11
0.0
 21
-2.5
 31
0.0
  0
LINE
  5
187
  8
LEVEL0
 62
     0
 10
0.0
 20
0.0
 30
0.0
 11
2.5
 21
0.0
 31
0.0
  0
LINE
  5
188
  8
LEVEL0
 62
     0
 10
0.0
 20
2.5
 30
0.0
 11
0.0
 21
3.5
 31
0.0
  0
LINE
  5
189
  8
LEVEL0
 62
     0
 10
-2.5
 20
0.0
 30
0.0
 11
-3.5
 21
0.0
 31
0.0
  0
LINE
  5
18A
  8
LEVEL0
 62
     0
 10
0.0
 20
-2.5
 30
0.0
 11
0.0
 21
-3.5
 31
0.0
  0
LINE
  5
18B
  8
LEVEL0
 62
     0
 10
2.5
 20
0.0
 30
0.0
 11
3.5
 21
0.0
 31
0.0
  0
ENDBLK
  5
183
  8
0
  0
ENDSEC
  0
SECTION
  2
ENTITIES
  0
CIRCLE
  5
A7
  8
0
  6
CONTINUOUS
 62
     7
 10
55.3118771997
 20
211.9623728166
 30
0.0
 40
1.000000000000007
  0
CIRCLE
  5
A8
  8
0
  6
CONTINUOUS
 62
     7
 10
166.4118771997
 20
211.9623728166
 30
0.0
 40
1.0
  0
CIRCLE
  5
A9
  8
0
  6
CONTINUOUS
 62
     7
 10
166.4118771997
 20
100.8823728166
 30
0.0
 40
1.0
  0
CIRCLE
  5
AA
  8
0
  6
CONTINUOUS
 62
     7
 10
55.3118771997
 20
100.8823728166
 30
0.0
 40
1.000000000000007
  0
LINE
  5
AB
  8
0
  6
CONTINUOUS
 62
     7
 10
157.1118771997
 20
108.8823728166
 30
0.0
 11
64.6118771997
 21
108.8823728166
 31
0.0
  0
ARC
  5
AC
  8
0
  6
CONTINUOUS
 62
     7
 10
157.1118771997
 20
110.1823728166
 30
0.0
 40
1.300000000000011
 50
270.0
 51
0.0
  0
LINE
  5
AD
  8
0
  6
CONTINUOUS
 62
     7
 10
158.4118771997
 20
202.6623728166
 30
0.0
 11
158.4118771997
 21
110.1823728166
 31
0.0
  0
ARC
  5
AE
  8
0
  6
CONTINUOUS
 62
     7
 10
157.1118771997
 20
202.6623728166
 30
0.0
 40
1.30000000000004
 50
0.0
 51
90.0
  0
LINE
  5
AF
  8
0
  6
CONTINUOUS
 62
     7
 10
64.6118771997
 20
203.9623728166
 30
0.0
 11
157.1118771997
 21
203.9623728166
 31
0.0
  0
ARC
  5
B0
  8
0
  6
CONTINUOUS
 62
     7
 10
64.6118771997
 20
202.6623728166
 30
0.0
 40
1.30000000000004
 50
90.0
 51
180.0
  0
LINE
  5
B1
  8
0
  6
CONTINUOUS
 62
     7
 10
63.3118771997
 20
110.1823728166
 30
0.0
 11
63.3118771997
 21
202.6623728166
 31
0.0
  0
ARC
  5
B2
  8
0
  6
CONTINUOUS
 62
     7
 10
64.6118771997
 20
110.1823728166
 30
0.0
 40
1.300000000000011
 50
180.0
 51
270.0
  0
DIMENSION
  5
B3
  8
LEVEL0
  2
_D
 10
158.4118771997
 20
156.3681089309
 30
0.0
 11
118.2567629237
 21
156.3681089309
 31
0.0
 70
   160
  1
<>
  3
SLDDIMSTYLE0
 13
63.3118771997
 23
110.1823728166
 33
0.0
 14
158.4118771997
 24
110.1823728166
 34
0.0
  0
DIMENSION
  5
D6
  8
LEVEL0
  2
_D_1
 10
100.7233602173
 20
108.8823728166
 30
0.0
 11
100.7233602173
 21
139.3385361692
 31
0.0
 70
   160
  1
<>
  3
SLDDIMSTYLE0
 13
64.6118771997
 23
203.9623728166
 33
0.0
 14
64.6118771997
 24
108.8823728166
 34
0.0
 50
90.0
  0
DIMENSION
  5
F1
  8
LEVEL0
  2
_D_2
 10
38.2585671422
 20
211.9623728166
 30
0.0
 11
38.2585671422
 21
168.9660479892
 31
0.0
 70
   160
  1
<>
  3
SLDDIMSTYLE1
 13
51.8118771997
 23
100.8823728166
 33
0.0
 14
51.8118771997
 24
211.9623728166
 34
0.0
 50
90.0
  0
DIMENSION
  5
105
  8
LEVEL0
  2
_D_3
 10
166.4118771997
 20
85.1191205297
 30
0.0
 11
109.7420066386
 21
85.1191205297
 31
0.0
 70
   160
  1
<>
  3
SLDDIMSTYLE1
 13
55.3118771997
 23
97.3823728166
 33
0.0
 14
166.4118771997
 24
97.3823728166
 34
0.0
  0
DIMENSION
  5
118
  8
LEVEL0
  2
_D_4
 10
82.3175424293
 20
108.8823728166
 30
0.0
 11
82.3175424293
 21
95.0099109002
 31
0.0
 70
   160
  1
<>
  3
SLDDIMSTYLE1
 13
58.8118771997
 23
100.8823728166
 33
0.0
 14
64.6118771997
 24
108.8823728166
 34
0.0
 50
90.0
  0
DIMENSION
  5
12B
  8
LEVEL0
  2
_D_5
 10
63.3118771997
 20
120.6360495876
 30
0.0
 11
49.0485202737
 21
120.6360495876
 31
0.0
 70
   160
  1
<>
  3
SLDDIMSTYLE1
 13
55.3118771997
 23
104.3823728166
 33
0.0
 14
63.3118771997
 24
110.1823728166
 34
0.0
  0
DIMENSION
  5
13E
  8
LEVEL0
  2
_D_6
 10
64.6118771997
 20
202.6623728166
 30
0.0
 11
76.51878665
 21
192.16854823
 31
0.0
 70
   164
  1
<> TYP
  3
SLDDIMSTYLE2
 15
63.6365902317
 25
203.521916492
 35
0.0
 40
0.0
  0
INSERT
  5
154
  8
LEVEL0
  2
SW_NOTE_0
 10
49.0485202737
 20
252.6071412706
 30
0.0
  0
TEXT
  5
155
  8
LEVEL0
 10
74.252572035
 20
72.033286544
 30
0.0
 40
3.7041666667
  1
PRINT THIS PAGE 1:1 SCALE
 41
0.644
 11
74.252572035
 21
70.724752398
 31
0.0
 73
     1
  0
INSERT
  5
15C
  8
LEVEL0
  2
SW_NOTE_0_1
 10
56.126161286
 20
212.5428393762
 30
0.0
  0
INSERT
  5
168
  8
LEVEL0
  2
SW_CENTERMARKSYMBOL_0
 10
55.3118771997
 20
211.9623728166
 30
0.0
  0
INSERT
  5
174
  8
LEVEL0
  2
SW_CENTERMARKSYMBOL_1
 10
166.4118771997
 20
211.9623728166
 30
0.0
  0
INSERT
  5
180
  8
LEVEL0
  2
SW_CENTERMARKSYMBOL_2
 10
166.4118771997
 20
100.8823728166
 30
0.0
  0
INSERT
  5
18C
  8
LEVEL0
  2
SW_CENTERMARKSYMBOL_3
 10
55.3118771997
 20
100.8823728166
 30
0.0
  0
ENDSEC
  0
EOF
