  0
SECTION
  2
HEADER
  9
$ACADVER
  1
AC1015
  9
$ACADMAINTVER
 70
     6
  9
$DWGCODEPAGE
  3
ANSI_1252
  9
$INSBASE
 10
0.0
 20
0.0
 30
0.0
  9
$EXTMIN
 10
0.0
 20
0.0
 30
0.0
  9
$EXTMAX
 10
210.0
 20
297.0
 30
0.0
  9
$LIMMIN
 10
0.0
 20
0.0
  9
$LIMMAX
 10
210.0
 20
297.0
  9
$ORTHOMODE
 70
     0
  9
$REGENMODE
 70
     1
  9
$FILLMODE
 70
     1
  9
$QTEXTMODE
 70
     0
  9
$MIRRTEXT
 70
     1
  9
$LTSCALE
 40
1.0
  9
$ATTMODE
 70
     1
  9
$TEXTSIZE
 40
2.0
  9
$TRACEWID
 40
1.0
  9
$TEXTSTYLE
  7
Standard
  9
$CLAYER
  8
0
  9
$CELTYPE
  6
ByLayer
  9
$CECOLOR
 62
   256
  9
$CELTSCALE
 40
1.0
  9
$DISPSILH
 70
     0
  9
$DIMSCALE
 40
1.0
  9
$DIMASZ
 40
2.0
  9
$DIMEXO
 40
1.0
  9
$DIMDLI
 40
3.75
  9
$DIMRND
 40
0.0
  9
$DIMDLE
 40
0.0
  9
$DIMEXE
 40
1.0
  9
$DIMTP
 40
0.0
  9
$DIMTM
 40
0.0
  9
$DIMTXT
 40
2.0
  9
$DIMCEN
 40
2.5
  9
$DIMTSZ
 40
0.0
  9
$DIMTOL
 70
     0
  9
$DIMLIM
 70
     0
  9
$DIMTIH
 70
     1
  9
$DIMTOH
 70
     1
  9
$DIMSE1
 70
     0
  9
$DIMSE2
 70
     0
  9
$DIMTAD
 70
     1
  9
$DIMZIN
 70
     0
  9
$DIMBLK
  1

  9
$DIMASO
 70
     1
  9
$DIMSHO
 70
     1
  9
$DIMPOST
  1

  9
$DIMAPOST
  1

  9
$DIMALT
 70
     0
  9
$DIMALTD
 70
     3
  9
$DIMALTF
 40
0.0393700787
  9
$DIMLFAC
 40
1.0
  9
$DIMTOFL
 70
     1
  9
$DIMTVP
 40
0.0
  9
$DIMTIX
 70
     0
  9
$DIMSOXD
 70
     0
  9
$DIMSAH
 70
     0
  9
$DIMBLK1
  1

  9
$DIMBLK2
  1

  9
$DIMSTYLE
  2
ISO-25
  9
$DIMCLRD
 70
     0
  9
$DIMCLRE
 70
     0
  9
$DIMCLRT
 70
     0
  9
$DIMTFAC
 40
1.0
  9
$DIMGAP
 40
1.524
  9
$DIMJUST
 70
     0
  9
$DIMSD1
 70
     0
  9
$DIMSD2
 70
     0
  9
$DIMTOLJ
 70
     0
  9
$DIMTZIN
 70
     0
  9
$DIMALTZ
 70
     0
  9
$DIMALTTZ
 70
     0
  9
$DIMUPT
 70
     0
  9
$DIMDEC
 70
     1
  9
$DIMTDEC
 70
     1
  9
$DIMALTU
 70
     2
  9
$DIMALTTD
 70
     3
  9
$DIMTXSTY
  7
Standard
  9
$DIMAUNIT
 70
     0
  9
$DIMADEC
 70
     1
  9
$DIMALTRND
 40
0.0
  9
$DIMAZIN
 70
     0
  9
$DIMDSEP
 70
    44
  9
$DIMATFIT
 70
     3
  9
$DIMFRAC
 70
     0
  9
$DIMLDRBLK
  1

  9
$DIMLUNIT
 70
     2
  9
$DIMLWD
 70
    -2
  9
$DIMLWE
 70
    -2
  9
$DIMTMOVE
 70
     0
  9
$LUNITS
 70
     2
  9
$LUPREC
 70
     2
  9
$SKETCHINC
 40
1.0
  9
$FILLETRAD
 40
10.0
  9
$AUNITS
 70
     0
  9
$AUPREC
 70
     2
  9
$MENU
  1
.
  9
$ELEVATION
 40
0.0
  9
$PELEVATION
 40
0.0
  9
$THICKNESS
 40
0.0
  9
$LIMCHECK
 70
     0
  9
$CHAMFERA
 40
0.0
  9
$CHAMFERB
 40
0.0
  9
$CHAMFERC
 40
0.0
  9
$CHAMFERD
 40
0.0
  9
$SKPOLY
 70
     0
  9
$TDCREATE
 40
2459125.506241864
  9
$TDUCREATE
 40
2459125.381241864
  9
$TDUPDATE
 40
2459125.506243299
  9
$TDUUPDATE
 40
2459125.381243299
  9
$TDINDWG
 40
0.0000000116
  9
$TDUSRTIMER
 40
0.0000000116
  9
$USRTIMER
 70
     1
  9
$ANGBASE
 50
0.0
  9
$ANGDIR
 70
     0
  9
$PDMODE
 70
     0
  9
$PDSIZE
 40
-1.0
  9
$PLINEWID
 40
0.0
  9
$SPLFRAME
 70
     0
  9
$SPLINETYPE
 70
     6
  9
$SPLINESEGS
 70
     8
  9
$HANDSEED
  5
179
  9
$SURFTAB1
 70
     6
  9
$SURFTAB2
 70
     6
  9
$SURFTYPE
 70
     6
  9
$SURFU
 70
     6
  9
$SURFV
 70
     6
  9
$UCSBASE
  2

  9
$UCSNAME
  2

  9
$UCSORG
 10
0.0
 20
0.0
 30
0.0
  9
$UCSXDIR
 10
1.0
 20
0.0
 30
0.0
  9
$UCSYDIR
 10
0.0
 20
1.0
 30
0.0
  9
$UCSORTHOREF
  2

  9
$UCSORTHOVIEW
 70
     0
  9
$UCSORGTOP
 10
0.0
 20
0.0
 30
0.0
  9
$UCSORGBOTTOM
 10
0.0
 20
0.0
 30
0.0
  9
$UCSORGLEFT
 10
0.0
 20
0.0
 30
0.0
  9
$UCSORGRIGHT
 10
0.0
 20
0.0
 30
0.0
  9
$UCSORGFRONT
 10
0.0
 20
0.0
 30
0.0
  9
$UCSORGBACK
 10
0.0
 20
0.0
 30
0.0
  9
$PUCSBASE
  2

  9
$PUCSNAME
  2

  9
$PUCSORG
 10
0.0
 20
0.0
 30
0.0
  9
$PUCSXDIR
 10
1.0
 20
0.0
 30
0.0
  9
$PUCSYDIR
 10
0.0
 20
1.0
 30
0.0
  9
$PUCSORTHOREF
  2

  9
$PUCSORTHOVIEW
 70
     0
  9
$PUCSORGTOP
 10
0.0
 20
0.0
 30
0.0
  9
$PUCSORGBOTTOM
 10
0.0
 20
0.0
 30
0.0
  9
$PUCSORGLEFT
 10
0.0
 20
0.0
 30
0.0
  9
$PUCSORGRIGHT
 10
0.0
 20
0.0
 30
0.0
  9
$PUCSORGFRONT
 10
0.0
 20
0.0
 30
0.0
  9
$PUCSORGBACK
 10
0.0
 20
0.0
 30
0.0
  9
$USERI1
 70
     0
  9
$USERI2
 70
     0
  9
$USERI3
 70
     0
  9
$USERI4
 70
     0
  9
$USERI5
 70
     0
  9
$USERR1
 40
0.0
  9
$USERR2
 40
0.0
  9
$USERR3
 40
0.0
  9
$USERR4
 40
0.0
  9
$USERR5
 40
0.0
  9
$WORLDVIEW
 70
     1
  9
$SHADEDGE
 70
     3
  9
$SHADEDIF
 70
    70
  9
$TILEMODE
 70
     1
  9
$MAXACTVP
 70
    64
  9
$PINSBASE
 10
0.0
 20
0.0
 30
0.0
  9
$PLIMCHECK
 70
     0
  9
$PEXTMIN
 10
1.0000000000E+20
 20
1.0000000000E+20
 30
1.0000000000E+20
  9
$PEXTMAX
 10
-1.0000000000E+20
 20
-1.0000000000E+20
 30
-1.0000000000E+20
  9
$PLIMMIN
 10
0.0
 20
0.0
  9
$PLIMMAX
 10
420.0
 20
297.0
  9
$UNITMODE
 70
     0
  9
$VISRETAIN
 70
     1
  9
$PLINEGEN
 70
     0
  9
$PSLTSCALE
 70
     1
  9
$TREEDEPTH
 70
  3020
  9
$CMLSTYLE
  2
Standard
  9
$CMLJUST
 70
     0
  9
$CMLSCALE
 40
20.0
  9
$PROXYGRAPHICS
 70
     1
  9
$MEASUREMENT
 70
     1
  9
$CELWEIGHT
370
    -1
  9
$ENDCAPS
280
     0
  9
$JOINSTYLE
280
     0
  9
$LWDISPLAY
290
     1
  9
$INSUNITS
 70
     4
  9
$HYPERLINKBASE
  1

  9
$STYLESHEET
  1

  9
$XEDIT
290
     1
  9
$CEPSNTYPE
380
     0
  9
$PSTYLEMODE
290
     1
  9
$FINGERPRINTGUID
  2
{93ff1515-24f8-422e-bf6d-636d45ab322d}
  9
$VERSIONGUID
  2
{FAEB1C32-E019-11D5-929B-00C0DF256EC4}
  9
$EXTNAMES
290
     1
  9
$PSVPSCALE
 40
0.0
  9
$OLESTARTUP
290
     0
  0
ENDSEC
  0
SECTION
  2
CLASSES
  0
CLASS
  1
ACDBDICTIONARYWDFLT
  2
AcDbDictionaryWithDefault
  3
ObjectDBX Classes
 90
        0
280
     0
281
     0
  0
CLASS
  1
VISUALSTYLE
  2
AcDbVisualStyle
  3
ObjectDBX Classes
 90
     4095
280
     0
281
     0
  0
CLASS
  1
MATERIAL
  2
AcDbMaterial
  3
ObjectDBX Classes
 90
     1153
280
     0
281
     0
  0
CLASS
  1
SCALE
  2
AcDbScale
  3
ObjectDBX Classes
 90
     1153
280
     0
281
     0
  0
CLASS
  1
TABLESTYLE
  2
AcDbTableStyle
  3
ObjectDBX Classes
 90
     4095
280
     0
281
     0
  0
CLASS
  1
MLEADERSTYLE
  2
AcDbMLeaderStyle
  3
ACDB_MLEADERSTYLE_CLASS
 90
     4095
280
     0
281
     0
  0
CLASS
  1
SUN
  2
AcDbSun
  3
SCENEOE
 90
     1153
280
     0
281
     0
  0
CLASS
  1
ACDBPLACEHOLDER
  2
AcDbPlaceHolder
  3
ObjectDBX Classes
 90
        0
280
     0
281
     0
  0
CLASS
  1
LAYOUT
  2
AcDbLayout
  3
ObjectDBX Classes
 90
        0
280
     0
281
     0
  0
ENDSEC
  0
SECTION
  2
TABLES
  0
TABLE
  2
VPORT
  5
8
330
0
100
AcDbSymbolTable
 70
     1
  0
VPORT
  5
29
330
8
100
AcDbSymbolTableRecord
100
AcDbViewportTableRecord
  2
*Active
 70
     0
 10
0.0
 20
0.0
 11
1.0
 21
1.0
 12
105.0
 22
148.5
 13
0.0
 23
0.0
 14
10.0
 24
10.0
 15
10.0
 25
10.0
 16
0.0
 26
0.0
 36
1.0
 17
0.0
 27
0.0
 37
0.0
 40
297.0
 41
0.7070707071
 42
50.0
 43
0.0
 44
0.0
 50
0.0
 51
0.0
 71
     0
 72
  2000
 73
     1
 74
     3
 75
     0
 76
     0
 77
     0
 78
     0
281
     0
 65
     1
110
0.0
120
0.0
130
0.0
111
1.0
121
0.0
131
0.0
112
0.0
122
1.0
132
0.0
 79
     0
146
0.0
  0
ENDTAB
  0
TABLE
  2
LTYPE
  5
5
330
0
100
AcDbSymbolTable
 70
     6
  0
LTYPE
  5
14
330
5
100
AcDbSymbolTableRecord
100
AcDbLinetypeTableRecord
  2
ByBlock
 70
     0
  3

 72
    65
 73
     0
 40
0.0
  0
LTYPE
  5
15
330
5
100
AcDbSymbolTableRecord
100
AcDbLinetypeTableRecord
  2
ByLayer
 70
     0
  3

 72
    65
 73
     0
 40
0.0
  0
LTYPE
  5
16
330
5
100
AcDbSymbolTableRecord
100
AcDbLinetypeTableRecord
  2
Continuous
 70
     0
  3
Solid line
 72
    65
 73
     0
 40
0.0
  0
LTYPE
  5
6E
330
5
100
AcDbSymbolTableRecord
100
AcDbLinetypeTableRecord
  2
HIDDEN
 70
     0
  3
Hidden __ __ __ __ __ __ __ __ __ __ __ __ __ __
 72
    65
 73
     2
 40
1.905
 49
1.27
 74
     0
 49
-0.635
 74
     0
  0
LTYPE
  5
6F
330
5
100
AcDbSymbolTableRecord
100
AcDbLinetypeTableRecord
  2
PHANTOM
 70
     0
  3
Phantom ______  __  __  ______  __  __  ______
 72
    65
 73
     6
 40
12.7
 49
6.35
 74
     0
 49
-1.27
 74
     0
 49
1.27
 74
     0
 49
-1.27
 74
     0
 49
1.27
 74
     0
 49
-1.27
 74
     0
  0
LTYPE
  5
70
330
5
100
AcDbSymbolTableRecord
100
AcDbLinetypeTableRecord
  2
CENTER
 70
     0
  3
Center ____ _ ____ _ ____ _ ____ _ ____ _ ____
 72
    65
 73
     4
 40
10.16
 49
6.35
 74
     0
 49
-1.27
 74
     0
 49
1.27
 74
     0
 49
-1.27
 74
     0
  0
LTYPE
  5
71
330
5
100
AcDbSymbolTableRecord
100
AcDbLinetypeTableRecord
  2
CENTERX2
 70
     0
  3
Center (2x) ________  __  ________  __  _____
 72
    65
 73
     4
 40
20.32
 49
12.7
 74
     0
 49
-2.54
 74
     0
 49
2.54
 74
     0
 49
-2.54
 74
     0
  0
LTYPE
  5
72
330
5
100
AcDbSymbolTableRecord
100
AcDbLinetypeTableRecord
  2
DOT2
 70
     0
  3
Dot (.5x) ........................................
 72
    65
 73
     2
 40
0.635
 49
0.0
 74
     0
 49
-0.635
 74
     0
  0
ENDTAB
  0
TABLE
  2
LAYER
  5
2
330
0
100
AcDbSymbolTable
 70
    53
  0
LAYER
  5
10
330
2
100
AcDbSymbolTableRecord
100
AcDbLayerTableRecord
  2
0
 70
     0
 62
     7
  6
Continuous
370
    -3
390
F
  0
LAYER
  5
73
330
2
100
AcDbSymbolTableRecord
100
AcDbLayerTableRecord
  2
SLD-0
 70
     0
 62
     7
  6
Continuous
370
    -3
390
F
  0
LAYER
  5
74
330
2
100
AcDbSymbolTableRecord
100
AcDbLayerTableRecord
  2
LEVEL0
 70
     0
 62
     7
  6
Continuous
370
    -3
390
F
  0
LAYER
  5
75
330
2
100
AcDbSymbolTableRecord
100
AcDbLayerTableRecord
  2
1
 70
     0
 62
     7
  6
Continuous
370
    -3
390
F
  0
LAYER
  5
76
330
2
100
AcDbSymbolTableRecord
100
AcDbLayerTableRecord
  2
2
 70
     0
 62
     7
  6
Continuous
370
    -3
390
F
  0
LAYER
  5
77
330
2
100
AcDbSymbolTableRecord
100
AcDbLayerTableRecord
  2
3
 70
     0
 62
     7
  6
Continuous
370
    -3
390
F
  0
LAYER
  5
78
330
2
100
AcDbSymbolTableRecord
100
AcDbLayerTableRecord
  2
4
 70
     0
 62
     7
  6
Continuous
370
    -3
390
F
  0
LAYER
  5
79
330
2
100
AcDbSymbolTableRecord
100
AcDbLayerTableRecord
  2
5
 70
     0
 62
     7
  6
Continuous
370
    -3
390
F
  0
LAYER
  5
7A
330
2
100
AcDbSymbolTableRecord
100
AcDbLayerTableRecord
  2
6
 70
     0
 62
     7
  6
Continuous
370
    -3
390
F
  0
LAYER
  5
7B
330
2
100
AcDbSymbolTableRecord
100
AcDbLayerTableRecord
  2
7
 70
     0
 62
     7
  6
Continuous
370
    -3
390
F
  0
LAYER
  5
7C
330
2
100
AcDbSymbolTableRecord
100
AcDbLayerTableRecord
  2
8
 70
     0
 62
     7
  6
Continuous
370
    -3
390
F
  0
LAYER
  5
7D
330
2
100
AcDbSymbolTableRecord
100
AcDbLayerTableRecord
  2
9
 70
     0
 62
     7
  6
Continuous
370
    -3
390
F
  0
LAYER
  5
7E
330
2
100
AcDbSymbolTableRecord
100
AcDbLayerTableRecord
  2
10
 70
     0
 62
     7
  6
Continuous
370
    -3
390
F
  0
LAYER
  5
7F
330
2
100
AcDbSymbolTableRecord
100
AcDbLayerTableRecord
  2
11
 70
     0
 62
     7
  6
Continuous
370
    -3
390
F
  0
LAYER
  5
80
330
2
100
AcDbSymbolTableRecord
100
AcDbLayerTableRecord
  2
12
 70
     0
 62
     7
  6
Continuous
370
    -3
390
F
  0
LAYER
  5
81
330
2
100
AcDbSymbolTableRecord
100
AcDbLayerTableRecord
  2
13
 70
     0
 62
     7
  6
Continuous
370
    -3
390
F
  0
LAYER
  5
82
330
2
100
AcDbSymbolTableRecord
100
AcDbLayerTableRecord
  2
14
 70
     0
 62
     7
  6
Continuous
370
    -3
390
F
  0
LAYER
  5
83
330
2
100
AcDbSymbolTableRecord
100
AcDbLayerTableRecord
  2
15
 70
     0
 62
     7
  6
Continuous
370
    -3
390
F
  0
LAYER
  5
84
330
2
100
AcDbSymbolTableRecord
100
AcDbLayerTableRecord
  2
16
 70
     0
 62
     7
  6
Continuous
370
    -3
390
F
  0
LAYER
  5
85
330
2
100
AcDbSymbolTableRecord
100
AcDbLayerTableRecord
  2
17
 70
     0
 62
     7
  6
Continuous
370
    -3
390
F
  0
LAYER
  5
86
330
2
100
AcDbSymbolTableRecord
100
AcDbLayerTableRecord
  2
18
 70
     0
 62
     7
  6
Continuous
370
    -3
390
F
  0
LAYER
  5
87
330
2
100
AcDbSymbolTableRecord
100
AcDbLayerTableRecord
  2
19
 70
     0
 62
     7
  6
Continuous
370
    -3
390
F
  0
LAYER
  5
88
330
2
100
AcDbSymbolTableRecord
100
AcDbLayerTableRecord
  2
20
 70
     0
 62
     7
  6
Continuous
370
    -3
390
F
  0
LAYER
  5
89
330
2
100
AcDbSymbolTableRecord
100
AcDbLayerTableRecord
  2
21
 70
     0
 62
     7
  6
Continuous
370
    -3
390
F
  0
LAYER
  5
8A
330
2
100
AcDbSymbolTableRecord
100
AcDbLayerTableRecord
  2
22
 70
     0
 62
     7
  6
Continuous
370
    -3
390
F
  0
LAYER
  5
8B
330
2
100
AcDbSymbolTableRecord
100
AcDbLayerTableRecord
  2
23
 70
     0
 62
     7
  6
Continuous
370
    -3
390
F
  0
LAYER
  5
8C
330
2
100
AcDbSymbolTableRecord
100
AcDbLayerTableRecord
  2
24
 70
     0
 62
     7
  6
Continuous
370
    -3
390
F
  0
LAYER
  5
8D
330
2
100
AcDbSymbolTableRecord
100
AcDbLayerTableRecord
  2
25
 70
     0
 62
     7
  6
Continuous
370
    -3
390
F
  0
LAYER
  5
8E
330
2
100
AcDbSymbolTableRecord
100
AcDbLayerTableRecord
  2
26
 70
     0
 62
     7
  6
Continuous
370
    -3
390
F
  0
LAYER
  5
8F
330
2
100
AcDbSymbolTableRecord
100
AcDbLayerTableRecord
  2
27
 70
     0
 62
     7
  6
Continuous
370
    -3
390
F
  0
LAYER
  5
90
330
2
100
AcDbSymbolTableRecord
100
AcDbLayerTableRecord
  2
28
 70
     0
 62
     7
  6
Continuous
370
    -3
390
F
  0
LAYER
  5
91
330
2
100
AcDbSymbolTableRecord
100
AcDbLayerTableRecord
  2
29
 70
     0
 62
     7
  6
Continuous
370
    -3
390
F
  0
LAYER
  5
92
330
2
100
AcDbSymbolTableRecord
100
AcDbLayerTableRecord
  2
30
 70
     0
 62
     7
  6
Continuous
370
    -3
390
F
  0
LAYER
  5
93
330
2
100
AcDbSymbolTableRecord
100
AcDbLayerTableRecord
  2
31
 70
     0
 62
     7
  6
Continuous
370
    -3
390
F
  0
LAYER
  5
94
330
2
100
AcDbSymbolTableRecord
100
AcDbLayerTableRecord
  2
32
 70
     0
 62
     7
  6
Continuous
370
    -3
390
F
  0
LAYER
  5
95
330
2
100
AcDbSymbolTableRecord
100
AcDbLayerTableRecord
  2
33
 70
     0
 62
     7
  6
Continuous
370
    -3
390
F
  0
LAYER
  5
96
330
2
100
AcDbSymbolTableRecord
100
AcDbLayerTableRecord
  2
34
 70
     0
 62
     7
  6
Continuous
370
    -3
390
F
  0
LAYER
  5
97
330
2
100
AcDbSymbolTableRecord
100
AcDbLayerTableRecord
  2
35
 70
     0
 62
     7
  6
Continuous
370
    -3
390
F
  0
LAYER
  5
98
330
2
100
AcDbSymbolTableRecord
100
AcDbLayerTableRecord
  2
36
 70
     0
 62
     7
  6
Continuous
370
    -3
390
F
  0
LAYER
  5
99
330
2
100
AcDbSymbolTableRecord
100
AcDbLayerTableRecord
  2
37
 70
     0
 62
     7
  6
Continuous
370
    -3
390
F
  0
LAYER
  5
9A
330
2
100
AcDbSymbolTableRecord
100
AcDbLayerTableRecord
  2
38
 70
     0
 62
     7
  6
Continuous
370
    -3
390
F
  0
LAYER
  5
9B
330
2
100
AcDbSymbolTableRecord
100
AcDbLayerTableRecord
  2
39
 70
     0
 62
     7
  6
Continuous
370
    -3
390
F
  0
LAYER
  5
9C
330
2
100
AcDbSymbolTableRecord
100
AcDbLayerTableRecord
  2
40
 70
     0
 62
     7
  6
Continuous
370
    -3
390
F
  0
LAYER
  5
9D
330
2
100
AcDbSymbolTableRecord
100
AcDbLayerTableRecord
  2
41
 70
     0
 62
     7
  6
Continuous
370
    -3
390
F
  0
LAYER
  5
9E
330
2
100
AcDbSymbolTableRecord
100
AcDbLayerTableRecord
  2
42
 70
     0
 62
     7
  6
Continuous
370
    -3
390
F
  0
LAYER
  5
9F
330
2
100
AcDbSymbolTableRecord
100
AcDbLayerTableRecord
  2
43
 70
     0
 62
     7
  6
Continuous
370
    -3
390
F
  0
LAYER
  5
A0
330
2
100
AcDbSymbolTableRecord
100
AcDbLayerTableRecord
  2
44
 70
     0
 62
     7
  6
Continuous
370
    -3
390
F
  0
LAYER
  5
A1
330
2
100
AcDbSymbolTableRecord
100
AcDbLayerTableRecord
  2
45
 70
     0
 62
     7
  6
Continuous
370
    -3
390
F
  0
LAYER
  5
A2
330
2
100
AcDbSymbolTableRecord
100
AcDbLayerTableRecord
  2
46
 70
     0
 62
     7
  6
Continuous
370
    -3
390
F
  0
LAYER
  5
A3
330
2
100
AcDbSymbolTableRecord
100
AcDbLayerTableRecord
  2
47
 70
     0
 62
     7
  6
Continuous
370
    -3
390
F
  0
LAYER
  5
A4
330
2
100
AcDbSymbolTableRecord
100
AcDbLayerTableRecord
  2
48
 70
     0
 62
     7
  6
Continuous
370
    -3
390
F
  0
LAYER
  5
A5
330
2
100
AcDbSymbolTableRecord
100
AcDbLayerTableRecord
  2
49
 70
     0
 62
     7
  6
Continuous
370
    -3
390
F
  0
LAYER
  5
A6
330
2
100
AcDbSymbolTableRecord
100
AcDbLayerTableRecord
  2
50
 70
     0
 62
     7
  6
Continuous
370
    -3
390
F
  0
ENDTAB
  0
TABLE
  2
STYLE
  5
3
330
0
100
AcDbSymbolTable
 70
     2
  0
STYLE
  5
11
330
3
100
AcDbSymbolTableRecord
100
AcDbTextStyleTableRecord
  2
Standard
 70
     0
 40
0.0
 41
1.0
 50
0.0
 71
     0
 42
2.0
  3
txt
  4

  0
STYLE
  5
B4
330
3
100
AcDbSymbolTableRecord
100
AcDbTextStyleTableRecord
  2
SLDTEXTSTYLE0
 70
     0
 40
0.0
 41
0.75
 50
0.0
 71
     0
 42
2.0
  3
TXT
  4

  0
ENDTAB
  0
TABLE
  2
VIEW
  5
6
330
0
100
AcDbSymbolTable
 70
     0
  0
ENDTAB
  0
TABLE
  2
UCS
  5
7
330
0
100
AcDbSymbolTable
 70
     0
  0
ENDTAB
  0
TABLE
  2
APPID
  5
9
330
0
100
AcDbSymbolTable
 70
     1
  0
APPID
  5
12
330
9
100
AcDbSymbolTableRecord
100
AcDbRegAppTableRecord
  2
ACAD
 70
     0
  0
ENDTAB
  0
TABLE
  2
DIMSTYLE
  5
A
330
0
100
AcDbSymbolTable
 70
     5
100
AcDbDimStyleTable
  0
DIMSTYLE
105
27
330
A
100
AcDbSymbolTableRecord
100
AcDbDimStyleTableRecord
  2
ISO-25
 70
     0
 41
2.5
 42
0.625
 43
3.75
 44
1.25
 73
     0
 74
     0
 77
     1
 78
     8
140
2.5
141
2.5
143
0.0393700787
147
0.625
171
     3
172
     1
178
     0
271
     2
272
     2
274
     3
278
    44
283
     0
284
     8
340
11
  0
DIMSTYLE
105
B5
102
{ACAD_REACTORS
330
B3
330
D6
102
}
330
A
100
AcDbSymbolTableRecord
100
AcDbDimStyleTableRecord
  2
SLDDIMSTYLE0
 70
     0
 41
2.0
 44
0.0
 45
0.000000001
 47
0.3
 48
0.1
 71
     1
 73
     0
 74
     0
 77
     1
 78
    12
 79
     3
140
2.0
143
0.0393700787
147
0.5
148
0.000000001
170
     1
171
     3
173
     1
178
     0
271
     1
272
     1
274
     3
276
     2
284
     8
340
B4
341
B6
343
B6
344
B6
  0
DIMSTYLE
105
F1
102
{ACAD_REACTORS
330
F0
330
104
102
}
330
A
100
AcDbSymbolTableRecord
100
AcDbDimStyleTableRecord
  2
SLDDIMSTYLE1
 70
     0
 41
2.0
 44
0.0
 45
0.000000001
 73
     0
 74
     0
 77
     1
 78
    12
 79
     3
140
2.0
143
0.0393700787
147
0.5
148
0.000000001
170
     1
173
     1
178
     0
271
     1
272
     1
276
     2
284
    12
340
B4
341
B6
343
B6
344
B6
  0
DIMSTYLE
105
118
102
{ACAD_REACTORS
330
117
330
12C
102
}
330
A
100
AcDbSymbolTableRecord
100
AcDbDimStyleTableRecord
  2
SLDDIMSTYLE2
 70
     0
 41
2.0
 44
0.0
 45
0.000000001
 73
     0
 74
     0
 77
     1
 78
    12
 79
     3
140
2.0
143
0.0393700787
147
0.5
148
0.000000001
170
     1
172
     1
173
     1
178
     0
271
     1
272
     1
276
     2
284
    12
289
     0
340
B4
341
B6
343
B6
344
B6
  0
DIMSTYLE
105
146
330
A
100
AcDbSymbolTableRecord
100
AcDbDimStyleTableRecord
  2
SLDDIMSTYLE3
 70
     0
 41
2.0
 44
0.0
 45
0.000000001
146
2.0
147
0.0
173
     1
178
     0
271
     0
272
     0
276
     2
340
11
  0
ENDTAB
  0
TABLE
  2
BLOCK_RECORD
  5
1
330
0
100
AcDbSymbolTable
 70
    13
  0
BLOCK_RECORD
  5
1F
330
1
100
AcDbSymbolTableRecord
100
AcDbBlockTableRecord
  2
*Model_Space
340
22
  0
BLOCK_RECORD
  5
1B
330
1
100
AcDbSymbolTableRecord
100
AcDbBlockTableRecord
  2
*Paper_Space
340
1E
  0
BLOCK_RECORD
  5
23
330
1
100
AcDbSymbolTableRecord
100
AcDbBlockTableRecord
  2
*Paper_Space0
340
26
  0
BLOCK_RECORD
  5
B6
330
1
100
AcDbSymbolTableRecord
100
AcDbBlockTableRecord
  2
_Closed
340
0
102
{BLKREFS
331
C0
331
C1
331
DA
331
DB
331
F5
331
F6
331
108
331
109
331
11C
331
11D
331
130
331
131
102
}
  0
BLOCK_RECORD
  5
BD
330
1
100
AcDbSymbolTableRecord
100
AcDbBlockTableRecord
  2
_D
340
0
  0
BLOCK_RECORD
  5
D7
330
1
100
AcDbSymbolTableRecord
100
AcDbBlockTableRecord
  2
_D_1
340
0
  0
BLOCK_RECORD
  5
F2
330
1
100
AcDbSymbolTableRecord
100
AcDbBlockTableRecord
  2
_D_2
340
0
  0
BLOCK_RECORD
  5
105
330
1
100
AcDbSymbolTableRecord
100
AcDbBlockTableRecord
  2
_D_3
340
0
  0
BLOCK_RECORD
  5
119
330
1
100
AcDbSymbolTableRecord
100
AcDbBlockTableRecord
  2
_D_4
340
0
  0
BLOCK_RECORD
  5
12D
330
1
100
AcDbSymbolTableRecord
100
AcDbBlockTableRecord
  2
_D_5
340
0
  0
BLOCK_RECORD
  5
141
330
1
100
AcDbSymbolTableRecord
100
AcDbBlockTableRecord
  2
SW_NOTE_0
340
0
102
{BLKREFS
331
145
102
}
  0
BLOCK_RECORD
  5
149
330
1
100
AcDbSymbolTableRecord
100
AcDbBlockTableRecord
  2
SW_CENTERMARKSYMBOL_0
340
0
102
{BLKREFS
331
154
102
}
  0
BLOCK_RECORD
  5
155
330
1
100
AcDbSymbolTableRecord
100
AcDbBlockTableRecord
  2
SW_CENTERMARKSYMBOL_1
340
0
102
{BLKREFS
331
160
102
}
  0
BLOCK_RECORD
  5
161
330
1
100
AcDbSymbolTableRecord
100
AcDbBlockTableRecord
  2
SW_CENTERMARKSYMBOL_2
340
0
102
{BLKREFS
331
16C
102
}
  0
BLOCK_RECORD
  5
16D
330
1
100
AcDbSymbolTableRecord
100
AcDbBlockTableRecord
  2
SW_CENTERMARKSYMBOL_3
340
0
102
{BLKREFS
331
178
102
}
  0
ENDTAB
  0
ENDSEC
  0
SECTION
  2
BLOCKS
  0
BLOCK
  5
20
330
1F
100
AcDbEntity
  8
0
100
AcDbBlockBegin
  2
*Model_Space
 70
     0
 10
0.0
 20
0.0
 30
0.0
  3
*Model_Space
  1

  0
ENDBLK
  5
21
330
1F
100
AcDbEntity
  8
0
100
AcDbBlockEnd
  0
BLOCK
  5
1C
330
1B
100
AcDbEntity
 67
     1
  8
0
100
AcDbBlockBegin
  2
*Paper_Space
 70
     0
 10
0.0
 20
0.0
 30
0.0
  3
*Paper_Space
  1

  0
ENDBLK
  5
1D
330
1B
100
AcDbEntity
 67
     1
  8
0
100
AcDbBlockEnd
  0
BLOCK
  5
24
330
23
100
AcDbEntity
  8
0
100
AcDbBlockBegin
  2
*Paper_Space0
 70
     0
 10
0.0
 20
0.0
 30
0.0
  3
*Paper_Space0
  1

  0
ENDBLK
  5
25
330
23
100
AcDbEntity
  8
0
100
AcDbBlockEnd
  0
BLOCK
  5
B7
330
B6
100
AcDbEntity
  8
0
100
AcDbBlockBegin
  2
_Closed
 70
     0
 10
0.0
 20
0.0
 30
0.0
  3
_Closed
  1

  0
LINE
  5
B9
330
B6
100
AcDbEntity
  8
0
  6
ByBlock
 62
     0
370
    -2
100
AcDbLine
 10
-1.0
 20
0.166667
 30
0.0
 11
0.0
 21
0.0
 31
0.0
  0
LINE
  5
BA
330
B6
100
AcDbEntity
  8
0
  6
ByBlock
 62
     0
370
    -2
100
AcDbLine
 10
0.0
 20
0.0
 30
0.0
 11
-1.0
 21
-0.166667
 31
0.0
  0
LINE
  5
BB
330
B6
100
AcDbEntity
  8
0
  6
ByBlock
 62
     0
370
    -2
100
AcDbLine
 10
-1.0
 20
0.166667
 30
0.0
 11
-1.0
 21
-0.166667
 31
0.0
  0
LINE
  5
BC
330
B6
100
AcDbEntity
  8
0
  6
ByBlock
 62
     0
370
    -2
100
AcDbLine
 10
0.0
 20
0.0
 30
0.0
 11
-1.0
 21
0.0
 31
0.0
  0
ENDBLK
  5
B8
330
B6
100
AcDbEntity
  8
0
100
AcDbBlockEnd
  0
BLOCK
  5
BE
330
BD
100
AcDbEntity
  8
0
100
AcDbBlockBegin
  2
_D
 70
     0
 10
0.0
 20
0.0
 30
0.0
  3
_D
  1

  0
INSERT
  5
C0
330
BD
100
AcDbEntity
  8
LEVEL0
100
AcDbBlockReference
  2
_Closed
 10
63.210251344
 20
171.2063952221
 30
10.0
 41
2.0
 42
2.0
 50
180.0
  0
INSERT
  5
C1
330
BD
100
AcDbEntity
  8
LEVEL0
100
AcDbBlockReference
  2
_Closed
 10
138.1738228244
 20
171.2063952221
 30
10.0
 41
2.0
 42
2.0
 50
0.0
  0
LINE
  5
C2
330
BD
100
AcDbEntity
  8
LEVEL0
100
AcDbLine
 10
80.1947953462
 20
185.132089617
 30
0.0
 11
79.5854203336
 21
185.132089617
 31
0.0
  0
LINE
  5
C3
330
BD
100
AcDbEntity
  8
LEVEL0
100
AcDbLine
 10
79.5854203336
 20
185.132089617
 30
0.0
 11
79.5854203336
 21
179.9598672299
 31
0.0
  0
LINE
  5
C4
330
BD
100
AcDbEntity
  8
LEVEL0
100
AcDbLine
 10
79.5854203336
 20
179.9598672299
 30
0.0
 11
80.1947953462
 21
179.9598672299
 31
0.0
  0
LINE
  5
C5
330
BD
100
AcDbEntity
  8
LEVEL0
100
AcDbLine
 10
95.8503501772
 20
185.132089617
 30
0.0
 11
96.4597251898
 21
185.132089617
 31
0.0
  0
LINE
  5
C6
330
BD
100
AcDbEntity
  8
LEVEL0
100
AcDbLine
 10
96.4597251898
 20
185.132089617
 30
0.0
 11
96.4597251898
 21
179.9598672299
 31
0.0
  0
LINE
  5
C7
330
BD
100
AcDbEntity
  8
LEVEL0
100
AcDbLine
 10
96.4597251898
 20
179.9598672299
 30
0.0
 11
95.8503501772
 21
179.9598672299
 31
0.0
  0
LINE
  5
C8
330
BD
100
AcDbEntity
  8
LEVEL0
100
AcDbLine
 10
63.210251344
 20
171.2063952221
 30
0.0
 11
138.1738228244
 21
171.2063952221
 31
0.0
  0
MTEXT
  5
C9
330
BD
100
AcDbEntity
  8
LEVEL0
100
AcDbMText
 10
80.1947953462
 20
182.568558239
 30
0.0
 40
2.0
 41
0.0
 71
     1
 72
     1
  1
2.951
  7
SLDTEXTSTYLE0
 73
     1
 44
1.0
  0
MTEXT
  5
CA
330
BD
100
AcDbEntity
  8
LEVEL0
100
AcDbMText
 10
87.5947952255
 20
182.568558239
 30
0.0
 40
2.0
 41
0.0
 71
     1
 72
     1
  1

  7
SLDTEXTSTYLE0
 73
     1
 44
1.0
  0
MTEXT
  5
CB
330
BD
100
AcDbEntity
  8
LEVEL0
100
AcDbMText
 10
87.5836842044
 20
185.124113903
 30
0.0
 40
2.0
 41
0.0
 71
     1
 72
     1
  1
+
  7
SLDTEXTSTYLE0
 73
     1
 44
1.0
  0
MTEXT
  5
CC
330
BD
100
AcDbEntity
  8
LEVEL0
100
AcDbMText
 10
87.9489619858
 20
182.5380027095
 30
0.0
 40
2.0
 41
0.0
 71
     1
 72
     1
  1
-
  7
SLDTEXTSTYLE0
 73
     1
 44
1.0
  0
MTEXT
  5
CD
330
BD
100
AcDbEntity
  8
LEVEL0
100
AcDbMText
 10
89.2003502979
 20
185.124113903
 30
0.0
 40
2.0
 41
0.0
 71
     1
 72
     1
  1
0.012
  7
SLDTEXTSTYLE0
 73
     1
 44
1.0
  0
MTEXT
  5
CE
330
BD
100
AcDbEntity
  8
LEVEL0
100
AcDbMText
 10
89.2003502979
 20
182.5380027095
 30
0.0
 40
2.0
 41
0.0
 71
     1
 72
     1
  1
0.004
  7
SLDTEXTSTYLE0
 73
     1
 44
1.0
  0
MTEXT
  5
CF
330
BD
100
AcDbEntity
  8
LEVEL0
100
AcDbMText
 10
88.0635454834
 20
176.9595299648
 30
0.0
 40
2.0
 41
0.0
 71
     1
 72
     1
  1
75
  7
SLDTEXTSTYLE0
 73
     1
 44
1.0
  0
MTEXT
  5
D0
330
BD
100
AcDbEntity
  8
LEVEL0
100
AcDbMText
 10
91.7691009336
 20
176.9595299648
 30
0.0
 40
2.0
 41
0.0
 71
     1
 72
     1
  1

  7
SLDTEXTSTYLE0
 73
     1
 44
1.0
  0
MTEXT
  5
D1
330
BD
100
AcDbEntity
  8
LEVEL0
100
AcDbMText
 10
91.7579899126
 20
179.5456411583
 30
0.0
 40
2.0
 41
0.0
 71
     1
 72
     1
  1
+
  7
SLDTEXTSTYLE0
 73
     1
 44
1.0
  0
MTEXT
  5
D2
330
BD
100
AcDbEntity
  8
LEVEL0
100
AcDbMText
 10
92.123267694
 20
176.9595299648
 30
0.0
 40
2.0
 41
0.0
 71
     1
 72
     1
  1
-
  7
SLDTEXTSTYLE0
 73
     1
 44
1.0
  0
MTEXT
  5
D3
330
BD
100
AcDbEntity
  8
LEVEL0
100
AcDbMText
 10
93.3746564717
 20
179.5456411583
 30
0.0
 40
2.0
 41
0.0
 71
     1
 72
     1
  1
0.3
  7
SLDTEXTSTYLE0
 73
     1
 44
1.0
  0
MTEXT
  5
D4
330
BD
100
AcDbEntity
  8
LEVEL0
100
AcDbMText
 10
93.3746564717
 20
176.9595299648
 30
0.0
 40
2.0
 41
0.0
 71
     1
 72
     1
  1
0.1
  7
SLDTEXTSTYLE0
 73
     1
 44
1.0
  0
MTEXT
  5
D5
330
BD
100
AcDbEntity
  8
LEVEL0
100
AcDbMText
 10
81.7552115352
 20
173.7845304688
 30
0.0
 40
2.0
 41
0.0
 71
     1
 72
     1
  1
ROUTE THRU
  7
SLDTEXTSTYLE0
 73
     1
 44
1.0
  0
ENDBLK
  5
BF
330
BD
100
AcDbEntity
  8
0
100
AcDbBlockEnd
  0
BLOCK
  5
D8
330
D7
100
AcDbEntity
  8
0
100
AcDbBlockBegin
  2
_D_1
 70
     0
 10
0.0
 20
0.0
 30
0.0
  3
_D_1
  1

  0
INSERT
  5
DA
330
D7
100
AcDbEntity
  8
LEVEL0
100
AcDbBlockReference
  2
_Closed
 10
104.5661445912
 20
218.1311889279
 30
10.0
 41
2.0
 42
2.0
 50
90.0
  0
INSERT
  5
DB
330
D7
100
AcDbEntity
  8
LEVEL0
100
AcDbBlockReference
  2
_Closed
 10
104.5661445912
 20
98.7676174474
 30
10.0
 41
2.0
 42
2.0
 50
270.0
  0
LINE
  5
DC
330
D7
100
AcDbEntity
  8
LEVEL0
100
AcDbLine
 10
90.6404501963
 20
143.8210569018
 30
0.0
 11
90.6404501963
 21
143.2116818893
 31
0.0
  0
LINE
  5
DD
330
D7
100
AcDbEntity
  8
LEVEL0
100
AcDbLine
 10
90.6404501963
 20
143.2116818893
 30
0.0
 11
95.8126725834
 21
143.2116818893
 31
0.0
  0
LINE
  5
DE
330
D7
100
AcDbEntity
  8
LEVEL0
100
AcDbLine
 10
95.8126725834
 20
143.2116818893
 30
0.0
 11
95.8126725834
 21
143.8210569018
 31
0.0
  0
LINE
  5
DF
330
D7
100
AcDbEntity
  8
LEVEL0
100
AcDbLine
 10
90.6404501963
 20
159.4766117329
 30
0.0
 11
90.6404501963
 21
160.0859867454
 31
0.0
  0
LINE
  5
E0
330
D7
100
AcDbEntity
  8
LEVEL0
100
AcDbLine
 10
90.6404501963
 20
160.0859867454
 30
0.0
 11
95.8126725834
 21
160.0859867454
 31
0.0
  0
LINE
  5
E1
330
D7
100
AcDbEntity
  8
LEVEL0
100
AcDbLine
 10
95.8126725834
 20
160.0859867454
 30
0.0
 11
95.8126725834
 21
159.4766117329
 31
0.0
  0
LINE
  5
E2
330
D7
100
AcDbEntity
  8
LEVEL0
100
AcDbLine
 10
104.5661445912
 20
218.1311889279
 30
0.0
 11
104.5661445912
 21
98.7676174474
 31
0.0
  0
MTEXT
  5
E3
330
D7
100
AcDbEntity
  8
LEVEL0
100
AcDbMText
 10
93.2039815743
 20
143.8210569018
 30
0.0
 40
2.0
 41
0.0
 71
     1
 72
     1
  1
4.699
  7
SLDTEXTSTYLE0
 11
-7.044195017643634E-15
 21
1.0
 31
0.0
 73
     1
 44
1.0
  0
MTEXT
  5
E4
330
D7
100
AcDbEntity
  8
LEVEL0
100
AcDbMText
 10
93.2039815743
 20
151.2210567811
 30
0.0
 40
2.0
 41
0.0
 71
     1
 72
     1
  1

  7
SLDTEXTSTYLE0
 11
-7.044195017643634E-15
 21
1.0
 31
0.0
 73
     1
 44
1.0
  0
MTEXT
  5
E5
330
D7
100
AcDbEntity
  8
LEVEL0
100
AcDbMText
 10
90.6484259103
 20
151.2099457601
 30
0.0
 40
2.0
 41
0.0
 71
     1
 72
     1
  1
+
  7
SLDTEXTSTYLE0
 11
-7.044195017643634E-15
 21
1.0
 31
0.0
 73
     1
 44
1.0
  0
MTEXT
  5
E6
330
D7
100
AcDbEntity
  8
LEVEL0
100
AcDbMText
 10
93.2345371038
 20
151.5752235415
 30
0.0
 40
2.0
 41
0.0
 71
     1
 72
     1
  1
-
  7
SLDTEXTSTYLE0
 11
-7.044195017643634E-15
 21
1.0
 31
0.0
 73
     1
 44
1.0
  0
MTEXT
  5
E7
330
D7
100
AcDbEntity
  8
LEVEL0
100
AcDbMText
 10
90.6484259103
 20
152.8266118536
 30
0.0
 40
2.0
 41
0.0
 71
     1
 72
     1
  1
0.012
  7
SLDTEXTSTYLE0
 11
-7.044195017643634E-15
 21
1.0
 31
0.0
 73
     1
 44
1.0
  0
MTEXT
  5
E8
330
D7
100
AcDbEntity
  8
LEVEL0
100
AcDbMText
 10
93.2345371038
 20
152.8266118536
 30
0.0
 40
2.0
 41
0.0
 71
     1
 72
     1
  1
0.004
  7
SLDTEXTSTYLE0
 11
-7.044195017643634E-15
 21
1.0
 31
0.0
 73
     1
 44
1.0
  0
MTEXT
  5
E9
330
D7
100
AcDbEntity
  8
LEVEL0
100
AcDbMText
 10
98.8130098485
 20
147.9953621443
 30
0.0
 40
2.0
 41
0.0
 71
     1
 72
     1
  1
119.4
  7
SLDTEXTSTYLE0
 11
-7.044195017643634E-15
 21
1.0
 31
0.0
 73
     1
 44
1.0
  0
MTEXT
  5
EA
330
D7
100
AcDbEntity
  8
LEVEL0
100
AcDbMText
 10
98.8130098485
 20
155.3953620236
 30
0.0
 40
2.0
 41
0.0
 71
     1
 72
     1
  1

  7
SLDTEXTSTYLE0
 11
-7.044195017643634E-15
 21
1.0
 31
0.0
 73
     1
 44
1.0
  0
MTEXT
  5
EB
330
D7
100
AcDbEntity
  8
LEVEL0
100
AcDbMText
 10
96.226898655
 20
155.3842510026
 30
0.0
 40
2.0
 41
0.0
 71
     1
 72
     1
  1
+
  7
SLDTEXTSTYLE0
 11
-7.044195017643634E-15
 21
1.0
 31
0.0
 73
     1
 44
1.0
  0
MTEXT
  5
EC
330
D7
100
AcDbEntity
  8
LEVEL0
100
AcDbMText
 10
98.8130098485
 20
155.749528784
 30
0.0
 40
2.0
 41
0.0
 71
     1
 72
     1
  1
-
  7
SLDTEXTSTYLE0
 11
-7.044195017643634E-15
 21
1.0
 31
0.0
 73
     1
 44
1.0
  0
MTEXT
  5
ED
330
D7
100
AcDbEntity
  8
LEVEL0
100
AcDbMText
 10
96.226898655
 20
157.0009170961
 30
0.0
 40
2.0
 41
0.0
 71
     1
 72
     1
  1
0.3
  7
SLDTEXTSTYLE0
 11
-7.044195017643634E-15
 21
1.0
 31
0.0
 73
     1
 44
1.0
  0
MTEXT
  5
EE
330
D7
100
AcDbEntity
  8
LEVEL0
100
AcDbMText
 10
98.8130098485
 20
157.0009170961
 30
0.0
 40
2.0
 41
0.0
 71
     1
 72
     1
  1
0.1
  7
SLDTEXTSTYLE0
 11
-7.044195017643634E-15
 21
1.0
 31
0.0
 73
     1
 44
1.0
  0
MTEXT
  5
EF
330
D7
100
AcDbEntity
  8
LEVEL0
100
AcDbMText
 10
101.9880093445
 20
145.3814730909
 30
0.0
 40
2.0
 41
0.0
 71
     1
 72
     1
  1
ROUTE THRU
  7
SLDTEXTSTYLE0
 11
-7.044195017643634E-15
 21
1.0
 31
0.0
 73
     1
 44
1.0
  0
ENDBLK
  5
D9
330
D7
100
AcDbEntity
  8
0
100
AcDbBlockEnd
  0
BLOCK
  5
F3
330
F2
100
AcDbEntity
  8
0
100
AcDbBlockBegin
  2
_D_2
 70
     0
 10
0.0
 20
0.0
 30
0.0
  3
_D_2
  1

  0
INSERT
  5
F5
330
F2
100
AcDbEntity
  8
LEVEL0
100
AcDbBlockReference
  2
_Closed
 10
169.7284709363
 20
226.1311889279
 30
10.0
 41
2.0
 42
2.0
 50
90.0
  0
INSERT
  5
F6
330
F2
100
AcDbEntity
  8
LEVEL0
100
AcDbBlockReference
  2
_Closed
 10
169.7284709363
 20
90.7676174474
 30
10.0
 41
2.0
 42
2.0
 50
270.0
  0
LINE
  5
F7
330
F2
100
AcDbEntity
  8
LEVEL0
100
AcDbLine
 10
163.5611098892
 20
158.8189026187
 30
0.0
 11
163.5611098892
 21
158.2095276061
 31
0.0
  0
LINE
  5
F8
330
F2
100
AcDbEntity
  8
LEVEL0
100
AcDbLine
 10
163.5611098892
 20
158.2095276061
 30
0.0
 11
166.7361098509
 21
158.2095276061
 31
0.0
  0
LINE
  5
F9
330
F2
100
AcDbEntity
  8
LEVEL0
100
AcDbLine
 10
166.7361098509
 20
158.2095276061
 30
0.0
 11
166.7361098509
 21
158.8189026187
 31
0.0
  0
LINE
  5
FA
330
F2
100
AcDbEntity
  8
LEVEL0
100
AcDbLine
 10
163.5611098892
 20
163.9911245401
 30
0.0
 11
163.5611098892
 21
164.6004995527
 31
0.0
  0
LINE
  5
FB
330
F2
100
AcDbEntity
  8
LEVEL0
100
AcDbLine
 10
163.5611098892
 20
164.6004995527
 30
0.0
 11
166.7361098509
 21
164.6004995527
 31
0.0
  0
LINE
  5
FC
330
F2
100
AcDbEntity
  8
LEVEL0
100
AcDbLine
 10
166.7361098509
 20
164.6004995527
 30
0.0
 11
166.7361098509
 21
163.9911245401
 31
0.0
  0
LINE
  5
FD
330
F2
100
AcDbEntity
  8
LEVEL0
100
AcDbLine
 10
150.6738228244
 20
226.1311889279
 30
0.0
 11
170.7284709363
 21
226.1311889279
 31
0.0
  0
LINE
  5
FE
330
F2
100
AcDbEntity
  8
LEVEL0
100
AcDbLine
 10
150.6738228244
 20
90.7676174474
 30
0.0
 11
170.7284709363
 21
90.7676174474
 31
0.0
  0
LINE
  5
FF
330
F2
100
AcDbEntity
  8
LEVEL0
100
AcDbLine
 10
169.7284709363
 20
226.1311889279
 30
0.0
 11
169.7284709363
 21
90.7676174474
 31
0.0
  0
MTEXT
  5
100
330
F2
100
AcDbEntity
  8
LEVEL0
100
AcDbMText
 10
167.1197799273
 20
157.6223748685
 30
0.0
 40
2.0
 41
0.0
 71
     1
 72
     1
  1

  7
SLDTEXTSTYLE0
 11
-7.044195017643634E-15
 21
1.0
 31
0.0
 73
     1
 44
1.0
  0
MTEXT
  5
101
330
F2
100
AcDbEntity
  8
LEVEL0
100
AcDbMText
 10
164.1579743713
 20
158.8189026187
 30
0.0
 40
2.0
 41
0.0
 71
     1
 72
     1
  1
5.33
  7
SLDTEXTSTYLE0
 11
-7.044195017643634E-15
 21
1.0
 31
0.0
 73
     1
 44
1.0
  0
MTEXT
  5
102
330
F2
100
AcDbEntity
  8
LEVEL0
100
AcDbMText
 10
167.1503356896
 20
158.0800137562
 30
0.0
 40
2.0
 41
0.0
 71
     1
 72
     1
  1
135.4
  7
SLDTEXTSTYLE0
 11
-7.044195017643634E-15
 21
1.0
 31
0.0
 73
     1
 44
1.0
  0
MTEXT
  5
103
330
F2
100
AcDbEntity
  8
LEVEL0
100
AcDbMText
 10
167.1197799273
 20
166.7098750309
 30
0.0
 40
2.0
 41
0.0
 71
     1
 72
     1
  1

  7
SLDTEXTSTYLE0
 11
-7.044195017643634E-15
 21
1.0
 31
0.0
 73
     1
 44
1.0
  0
ENDBLK
  5
F4
330
F2
100
AcDbEntity
  8
0
100
AcDbBlockEnd
  0
BLOCK
  5
106
330
105
100
AcDbEntity
  8
0
100
AcDbBlockBegin
  2
_D_3
 70
     0
 10
0.0
 20
0.0
 30
0.0
  3
_D_3
  1

  0
INSERT
  5
108
330
105
100
AcDbEntity
  8
LEVEL0
100
AcDbBlockReference
  2
_Closed
 10
55.210251344
 20
73.119833821
 30
10.0
 41
2.0
 42
2.0
 50
180.0
  0
INSERT
  5
109
330
105
100
AcDbEntity
  8
LEVEL0
100
AcDbBlockReference
  2
_Closed
 10
146.1738228244
 20
73.119833821
 30
10.0
 41
2.0
 42
2.0
 50
0.0
  0
LINE
  5
10A
330
105
100
AcDbEntity
  8
LEVEL0
100
AcDbLine
 10
96.2583164675
 20
79.2871948681
 30
0.0
 11
95.6489414549
 21
79.2871948681
 31
0.0
  0
LINE
  5
10B
330
105
100
AcDbEntity
  8
LEVEL0
100
AcDbLine
 10
95.6489414549
 20
79.2871948681
 30
0.0
 11
95.6489414549
 21
76.1121949065
 31
0.0
  0
LINE
  5
10C
330
105
100
AcDbEntity
  8
LEVEL0
100
AcDbLine
 10
95.6489414549
 20
76.1121949065
 30
0.0
 11
96.2583164675
 21
76.1121949065
 31
0.0
  0
LINE
  5
10D
330
105
100
AcDbEntity
  8
LEVEL0
100
AcDbLine
 10
101.4305383889
 20
79.2871948681
 30
0.0
 11
102.0399134014
 21
79.2871948681
 31
0.0
  0
LINE
  5
10E
330
105
100
AcDbEntity
  8
LEVEL0
100
AcDbLine
 10
102.0399134014
 20
79.2871948681
 30
0.0
 11
102.0399134014
 21
76.1121949065
 31
0.0
  0
LINE
  5
10F
330
105
100
AcDbEntity
  8
LEVEL0
100
AcDbLine
 10
102.0399134014
 20
76.1121949065
 30
0.0
 11
101.4305383889
 21
76.1121949065
 31
0.0
  0
LINE
  5
110
330
105
100
AcDbEntity
  8
LEVEL0
100
AcDbLine
 10
55.210251344
 20
86.2676174474
 30
0.0
 11
55.210251344
 21
72.119833821
 31
0.0
  0
LINE
  5
111
330
105
100
AcDbEntity
  8
LEVEL0
100
AcDbLine
 10
146.1738228244
 20
86.2676174474
 30
0.0
 11
146.1738228244
 21
72.119833821
 31
0.0
  0
LINE
  5
112
330
105
100
AcDbEntity
  8
LEVEL0
100
AcDbLine
 10
55.210251344
 20
73.119833821
 30
0.0
 11
146.1738228244
 21
73.119833821
 31
0.0
  0
MTEXT
  5
113
330
105
100
AcDbEntity
  8
LEVEL0
100
AcDbMText
 10
95.0617887173
 20
75.72852483
 30
0.0
 40
2.0
 41
0.0
 71
     1
 72
     1
  1

  7
SLDTEXTSTYLE0
 73
     1
 44
1.0
  0
MTEXT
  5
114
330
105
100
AcDbEntity
  8
LEVEL0
100
AcDbMText
 10
96.2583164675
 20
78.690330386
 30
0.0
 40
2.0
 41
0.0
 71
     1
 72
     1
  1
3.58
  7
SLDTEXTSTYLE0
 73
     1
 44
1.0
  0
MTEXT
  5
115
330
105
100
AcDbEntity
  8
LEVEL0
100
AcDbMText
 10
97.3666498195
 20
75.6979690677
 30
0.0
 40
2.0
 41
0.0
 71
     1
 72
     1
  1
91
  7
SLDTEXTSTYLE0
 73
     1
 44
1.0
  0
MTEXT
  5
116
330
105
100
AcDbEntity
  8
LEVEL0
100
AcDbMText
 10
104.1492888797
 20
75.72852483
 30
0.0
 40
2.0
 41
0.0
 71
     1
 72
     1
  1

  7
SLDTEXTSTYLE0
 73
     1
 44
1.0
  0
ENDBLK
  5
107
330
105
100
AcDbEntity
  8
0
100
AcDbBlockEnd
  0
BLOCK
  5
11A
330
119
100
AcDbEntity
  8
0
100
AcDbBlockBegin
  2
_D_4
 70
     0
 10
0.0
 20
0.0
 30
0.0
  3
_D_4
  1

  0
INSERT
  5
11C
330
119
100
AcDbEntity
  8
LEVEL0
100
AcDbBlockReference
  2
_Closed
 10
55.210251344
 20
116.6529533653
 30
10.0
 41
2.0
 42
2.0
 50
0.0
  0
INSERT
  5
11D
330
119
100
AcDbEntity
  8
LEVEL0
100
AcDbBlockReference
  2
_Closed
 10
63.210251344
 20
116.6529533653
 30
10.0
 41
2.0
 42
2.0
 50
180.0
  0
LINE
  5
11E
330
119
100
AcDbEntity
  8
LEVEL0
100
AcDbLine
 10
56.133945624
 20
122.8203144124
 30
0.0
 11
55.5245706115
 21
122.8203144124
 31
0.0
  0
LINE
  5
11F
330
119
100
AcDbEntity
  8
LEVEL0
100
AcDbLine
 10
55.5245706115
 20
122.8203144124
 30
0.0
 11
55.5245706115
 21
119.6453144508
 31
0.0
  0
LINE
  5
120
330
119
100
AcDbEntity
  8
LEVEL0
100
AcDbLine
 10
55.5245706115
 20
119.6453144508
 30
0.0
 11
56.133945624
 21
119.6453144508
 31
0.0
  0
LINE
  5
121
330
119
100
AcDbEntity
  8
LEVEL0
100
AcDbLine
 10
61.3061675454
 20
122.8203144124
 30
0.0
 11
61.915542558
 21
122.8203144124
 31
0.0
  0
LINE
  5
122
330
119
100
AcDbEntity
  8
LEVEL0
100
AcDbLine
 10
61.915542558
 20
122.8203144124
 30
0.0
 11
61.915542558
 21
119.6453144508
 31
0.0
  0
LINE
  5
123
330
119
100
AcDbEntity
  8
LEVEL0
100
AcDbLine
 10
61.915542558
 20
119.6453144508
 30
0.0
 11
61.3061675454
 21
119.6453144508
 31
0.0
  0
LINE
  5
124
330
119
100
AcDbEntity
  8
LEVEL0
100
AcDbLine
 10
55.210251344
 20
95.2676174474
 30
0.0
 11
55.210251344
 21
117.6529533653
 31
0.0
  0
LINE
  5
125
330
119
100
AcDbEntity
  8
LEVEL0
100
AcDbLine
 10
55.210251344
 20
116.6529533653
 30
0.0
 11
51.3640974978
 21
116.6529533653
 31
0.0
  0
LINE
  5
126
330
119
100
AcDbEntity
  8
LEVEL0
100
AcDbLine
 10
55.210251344
 20
116.6529533653
 30
0.0
 11
63.210251344
 21
116.6529533653
 31
0.0
  0
LINE
  5
127
330
119
100
AcDbEntity
  8
LEVEL0
100
AcDbLine
 10
63.210251344
 20
116.6529533653
 30
0.0
 11
67.0564051901
 21
116.6529533653
 31
0.0
  0
MTEXT
  5
128
330
119
100
AcDbEntity
  8
LEVEL0
100
AcDbMText
 10
54.9374178738
 20
119.2616443744
 30
0.0
 40
2.0
 41
0.0
 71
     1
 72
     1
  1

  7
SLDTEXTSTYLE0
 73
     1
 44
1.0
  0
MTEXT
  5
129
330
119
100
AcDbEntity
  8
LEVEL0
100
AcDbMText
 10
56.133945624
 20
122.2234499303
 30
0.0
 40
2.0
 41
0.0
 71
     1
 72
     1
  1
0.31
  7
SLDTEXTSTYLE0
 73
     1
 44
1.0
  0
MTEXT
  5
12A
330
119
100
AcDbEntity
  8
LEVEL0
100
AcDbMText
 10
57.9811678386
 20
119.231088612
 30
0.0
 40
2.0
 41
0.0
 71
     1
 72
     1
  1
8
  7
SLDTEXTSTYLE0
 73
     1
 44
1.0
  0
MTEXT
  5
12B
330
119
100
AcDbEntity
  8
LEVEL0
100
AcDbMText
 10
64.0249180362
 20
119.2616443744
 30
0.0
 40
2.0
 41
0.0
 71
     1
 72
     1
  1

  7
SLDTEXTSTYLE0
 73
     1
 44
1.0
  0
ENDBLK
  5
11B
330
119
100
AcDbEntity
  8
0
100
AcDbBlockEnd
  0
BLOCK
  5
12E
330
12D
100
AcDbEntity
  8
0
100
AcDbBlockBegin
  2
_D_5
 70
     0
 10
0.0
 20
0.0
 30
0.0
  3
_D_5
  1

  0
INSERT
  5
130
330
12D
100
AcDbEntity
  8
LEVEL0
100
AcDbBlockReference
  2
_Closed
 10
39.1900579049
 20
90.7676174474
 30
10.0
 41
2.0
 42
2.0
 50
90.0
  0
INSERT
  5
131
330
12D
100
AcDbEntity
  8
LEVEL0
100
AcDbBlockReference
  2
_Closed
 10
39.1900579049
 20
98.7676174474
 30
10.0
 41
2.0
 42
2.0
 50
270.0
  0
LINE
  5
132
330
12D
100
AcDbEntity
  8
LEVEL0
100
AcDbLine
 10
33.0226968578
 20
92.3097378739
 30
0.0
 11
33.0226968578
 21
91.7003628613
 31
0.0
  0
LINE
  5
133
330
12D
100
AcDbEntity
  8
LEVEL0
100
AcDbLine
 10
33.0226968578
 20
91.7003628613
 30
0.0
 11
36.1976968194
 21
91.7003628613
 31
0.0
  0
LINE
  5
134
330
12D
100
AcDbEntity
  8
LEVEL0
100
AcDbLine
 10
36.1976968194
 20
91.7003628613
 30
0.0
 11
36.1976968194
 21
92.3097378739
 31
0.0
  0
LINE
  5
135
330
12D
100
AcDbEntity
  8
LEVEL0
100
AcDbLine
 10
33.0226968578
 20
97.4819597952
 30
0.0
 11
33.0226968578
 21
98.0913348078
 31
0.0
  0
LINE
  5
136
330
12D
100
AcDbEntity
  8
LEVEL0
100
AcDbLine
 10
33.0226968578
 20
98.0913348078
 30
0.0
 11
36.1976968194
 21
98.0913348078
 31
0.0
  0
LINE
  5
137
330
12D
100
AcDbEntity
  8
LEVEL0
100
AcDbLine
 10
36.1976968194
 20
98.0913348078
 30
0.0
 11
36.1976968194
 21
97.4819597952
 31
0.0
  0
LINE
  5
138
330
12D
100
AcDbEntity
  8
LEVEL0
100
AcDbLine
 10
50.710251344
 20
90.7676174474
 30
0.0
 11
38.1900579049
 21
90.7676174474
 31
0.0
  0
LINE
  5
139
330
12D
100
AcDbEntity
  8
LEVEL0
100
AcDbLine
 10
65.6097944294
 20
98.7676174474
 30
0.0
 11
38.1900579049
 21
98.7676174474
 31
0.0
  0
LINE
  5
13A
330
12D
100
AcDbEntity
  8
LEVEL0
100
AcDbLine
 10
39.1900579049
 20
90.7676174474
 30
0.0
 11
39.1900579049
 21
86.9214636013
 31
0.0
  0
LINE
  5
13B
330
12D
100
AcDbEntity
  8
LEVEL0
100
AcDbLine
 10
39.1900579049
 20
90.7676174474
 30
0.0
 11
39.1900579049
 21
98.7676174474
 31
0.0
  0
LINE
  5
13C
330
12D
100
AcDbEntity
  8
LEVEL0
100
AcDbLine
 10
39.1900579049
 20
98.7676174474
 30
0.0
 11
39.1900579049
 21
102.6137712936
 31
0.0
  0
MTEXT
  5
13D
330
12D
100
AcDbEntity
  8
LEVEL0
100
AcDbMText
 10
36.5813668958
 20
91.1132101236
 30
0.0
 40
2.0
 41
0.0
 71
     1
 72
     1
  1

  7
SLDTEXTSTYLE0
 11
2.832769448823990E-16
 21
1.0
 31
0.0
 73
     1
 44
1.0
  0
MTEXT
  5
13E
330
12D
100
AcDbEntity
  8
LEVEL0
100
AcDbMText
 10
33.6195613399
 20
92.3097378739
 30
0.0
 40
2.0
 41
0.0
 71
     1
 72
     1
  1
0.31
  7
SLDTEXTSTYLE0
 11
2.832769448823990E-16
 21
1.0
 31
0.0
 73
     1
 44
1.0
  0
MTEXT
  5
13F
330
12D
100
AcDbEntity
  8
LEVEL0
100
AcDbMText
 10
36.6119226582
 20
94.1569600884
 30
0.0
 40
2.0
 41
0.0
 71
     1
 72
     1
  1
8
  7
SLDTEXTSTYLE0
 11
2.832769448823990E-16
 21
1.0
 31
0.0
 73
     1
 44
1.0
  0
MTEXT
  5
140
330
12D
100
AcDbEntity
  8
LEVEL0
100
AcDbMText
 10
36.5813668958
 20
100.200710286
 30
0.0
 40
2.0
 41
0.0
 71
     1
 72
     1
  1

  7
SLDTEXTSTYLE0
 11
2.832769448823990E-16
 21
1.0
 31
0.0
 73
     1
 44
1.0
  0
ENDBLK
  5
12F
330
12D
100
AcDbEntity
  8
0
100
AcDbBlockEnd
  0
BLOCK
  5
142
330
141
100
AcDbEntity
  8
0
100
AcDbBlockBegin
  2
SW_NOTE_0
 70
     0
 10
0.0
 20
0.0
 30
0.0
  3
SW_NOTE_0
  1

  0
MTEXT
  5
144
330
141
100
AcDbEntity
  8
LEVEL0
 62
     0
100
AcDbMText
 10
-33.664964011
 20
0.7918027893
 30
0.0
 40
2.0
 41
0.0
 71
     1
 72
     1
  1
MARK SCREW LOCATIONS
  7
SLDTEXTSTYLE0
 73
     1
 44
1.0
  0
ENDBLK
  5
143
330
141
100
AcDbEntity
  8
0
100
AcDbBlockEnd
  0
BLOCK
  5
14A
330
149
100
AcDbEntity
  8
0
100
AcDbBlockBegin
  2
SW_CENTERMARKSYMBOL_0
 70
     0
 10
0.0
 20
0.0
 30
0.0
  3
SW_CENTERMARKSYMBOL_0
  1

  0
LINE
  5
14C
330
149
100
AcDbEntity
  8
LEVEL0
 62
     0
100
AcDbLine
 10
0.0
 20
0.0
 30
0.0
 11
0.0
 21
2.5
 31
0.0
  0
LINE
  5
14D
330
149
100
AcDbEntity
  8
LEVEL0
 62
     0
100
AcDbLine
 10
0.0
 20
0.0
 30
0.0
 11
-2.5
 21
0.0
 31
0.0
  0
LINE
  5
14E
330
149
100
AcDbEntity
  8
LEVEL0
 62
     0
100
AcDbLine
 10
0.0
 20
0.0
 30
0.0
 11
0.0
 21
-2.5
 31
0.0
  0
LINE
  5
14F
330
149
100
AcDbEntity
  8
LEVEL0
 62
     0
100
AcDbLine
 10
0.0
 20
0.0
 30
0.0
 11
2.5
 21
0.0
 31
0.0
  0
LINE
  5
150
330
149
100
AcDbEntity
  8
LEVEL0
 62
     0
100
AcDbLine
 10
0.0
 20
2.5
 30
0.0
 11
0.0
 21
3.5
 31
0.0
  0
LINE
  5
151
330
149
100
AcDbEntity
  8
LEVEL0
 62
     0
100
AcDbLine
 10
-2.5
 20
0.0
 30
0.0
 11
-3.5
 21
0.0
 31
0.0
  0
LINE
  5
152
330
149
100
AcDbEntity
  8
LEVEL0
 62
     0
100
AcDbLine
 10
0.0
 20
-2.5
 30
0.0
 11
0.0
 21
-3.5
 31
0.0
  0
LINE
  5
153
330
149
100
AcDbEntity
  8
LEVEL0
 62
     0
100
AcDbLine
 10
2.5
 20
0.0
 30
0.0
 11
3.5
 21
0.0
 31
0.0
  0
ENDBLK
  5
14B
330
149
100
AcDbEntity
  8
0
100
AcDbBlockEnd
  0
BLOCK
  5
156
330
155
100
AcDbEntity
  8
0
100
AcDbBlockBegin
  2
SW_CENTERMARKSYMBOL_1
 70
     0
 10
0.0
 20
0.0
 30
0.0
  3
SW_CENTERMARKSYMBOL_1
  1

  0
LINE
  5
158
330
155
100
AcDbEntity
  8
LEVEL0
 62
     0
100
AcDbLine
 10
0.0
 20
0.0
 30
0.0
 11
0.0
 21
2.5
 31
0.0
  0
LINE
  5
159
330
155
100
AcDbEntity
  8
LEVEL0
 62
     0
100
AcDbLine
 10
0.0
 20
0.0
 30
0.0
 11
-2.5
 21
0.0
 31
0.0
  0
LINE
  5
15A
330
155
100
AcDbEntity
  8
LEVEL0
 62
     0
100
AcDbLine
 10
0.0
 20
0.0
 30
0.0
 11
0.0
 21
-2.5
 31
0.0
  0
LINE
  5
15B
330
155
100
AcDbEntity
  8
LEVEL0
 62
     0
100
AcDbLine
 10
0.0
 20
0.0
 30
0.0
 11
2.5
 21
0.0
 31
0.0
  0
LINE
  5
15C
330
155
100
AcDbEntity
  8
LEVEL0
 62
     0
100
AcDbLine
 10
0.0
 20
2.5
 30
0.0
 11
0.0
 21
3.5
 31
0.0
  0
LINE
  5
15D
330
155
100
AcDbEntity
  8
LEVEL0
 62
     0
100
AcDbLine
 10
-2.5
 20
0.0
 30
0.0
 11
-3.5
 21
0.0
 31
0.0
  0
LINE
  5
15E
330
155
100
AcDbEntity
  8
LEVEL0
 62
     0
100
AcDbLine
 10
0.0
 20
-2.5
 30
0.0
 11
0.0
 21
-3.5
 31
0.0
  0
LINE
  5
15F
330
155
100
AcDbEntity
  8
LEVEL0
 62
     0
100
AcDbLine
 10
2.5
 20
0.0
 30
0.0
 11
3.5
 21
0.0
 31
0.0
  0
ENDBLK
  5
157
330
155
100
AcDbEntity
  8
0
100
AcDbBlockEnd
  0
BLOCK
  5
162
330
161
100
AcDbEntity
  8
0
100
AcDbBlockBegin
  2
SW_CENTERMARKSYMBOL_2
 70
     0
 10
0.0
 20
0.0
 30
0.0
  3
SW_CENTERMARKSYMBOL_2
  1

  0
LINE
  5
164
330
161
100
AcDbEntity
  8
LEVEL0
 62
     0
100
AcDbLine
 10
0.0
 20
0.0
 30
0.0
 11
0.0
 21
2.5
 31
0.0
  0
LINE
  5
165
330
161
100
AcDbEntity
  8
LEVEL0
 62
     0
100
AcDbLine
 10
0.0
 20
0.0
 30
0.0
 11
-2.5
 21
0.0
 31
0.0
  0
LINE
  5
166
330
161
100
AcDbEntity
  8
LEVEL0
 62
     0
100
AcDbLine
 10
0.0
 20
0.0
 30
0.0
 11
0.0
 21
-2.5
 31
0.0
  0
LINE
  5
167
330
161
100
AcDbEntity
  8
LEVEL0
 62
     0
100
AcDbLine
 10
0.0
 20
0.0
 30
0.0
 11
2.5
 21
0.0
 31
0.0
  0
LINE
  5
168
330
161
100
AcDbEntity
  8
LEVEL0
 62
     0
100
AcDbLine
 10
0.0
 20
2.5
 30
0.0
 11
0.0
 21
3.5
 31
0.0
  0
LINE
  5
169
330
161
100
AcDbEntity
  8
LEVEL0
 62
     0
100
AcDbLine
 10
-2.5
 20
0.0
 30
0.0
 11
-3.5
 21
0.0
 31
0.0
  0
LINE
  5
16A
330
161
100
AcDbEntity
  8
LEVEL0
 62
     0
100
AcDbLine
 10
0.0
 20
-2.5
 30
0.0
 11
0.0
 21
-3.5
 31
0.0
  0
LINE
  5
16B
330
161
100
AcDbEntity
  8
LEVEL0
 62
     0
100
AcDbLine
 10
2.5
 20
0.0
 30
0.0
 11
3.5
 21
0.0
 31
0.0
  0
ENDBLK
  5
163
330
161
100
AcDbEntity
  8
0
100
AcDbBlockEnd
  0
BLOCK
  5
16E
330
16D
100
AcDbEntity
  8
0
100
AcDbBlockBegin
  2
SW_CENTERMARKSYMBOL_3
 70
     0
 10
0.0
 20
0.0
 30
0.0
  3
SW_CENTERMARKSYMBOL_3
  1

  0
LINE
  5
170
330
16D
100
AcDbEntity
  8
LEVEL0
 62
     0
100
AcDbLine
 10
0.0
 20
0.0
 30
0.0
 11
0.0
 21
2.5
 31
0.0
  0
LINE
  5
171
330
16D
100
AcDbEntity
  8
LEVEL0
 62
     0
100
AcDbLine
 10
0.0
 20
0.0
 30
0.0
 11
-2.5
 21
0.0
 31
0.0
  0
LINE
  5
172
330
16D
100
AcDbEntity
  8
LEVEL0
 62
     0
100
AcDbLine
 10
0.0
 20
0.0
 30
0.0
 11
0.0
 21
-2.5
 31
0.0
  0
LINE
  5
173
330
16D
100
AcDbEntity
  8
LEVEL0
 62
     0
100
AcDbLine
 10
0.0
 20
0.0
 30
0.0
 11
2.5
 21
0.0
 31
0.0
  0
LINE
  5
174
330
16D
100
AcDbEntity
  8
LEVEL0
 62
     0
100
AcDbLine
 10
0.0
 20
2.5
 30
0.0
 11
0.0
 21
3.5
 31
0.0
  0
LINE
  5
175
330
16D
100
AcDbEntity
  8
LEVEL0
 62
     0
100
AcDbLine
 10
-2.5
 20
0.0
 30
0.0
 11
-3.5
 21
0.0
 31
0.0
  0
LINE
  5
176
330
16D
100
AcDbEntity
  8
LEVEL0
 62
     0
100
AcDbLine
 10
0.0
 20
-2.5
 30
0.0
 11
0.0
 21
-3.5
 31
0.0
  0
LINE
  5
177
330
16D
100
AcDbEntity
  8
LEVEL0
 62
     0
100
AcDbLine
 10
2.5
 20
0.0
 30
0.0
 11
3.5
 21
0.0
 31
0.0
  0
ENDBLK
  5
16F
330
16D
100
AcDbEntity
  8
0
100
AcDbBlockEnd
  0
ENDSEC
  0
SECTION
  2
ENTITIES
  0
SPLINE
  5
A7
330
1F
100
AcDbEntity
  8
0
  6
Continuous
 62
     7
370
    25
100
AcDbSpline
210
0.0
220
0.0
230
1.0
 70
     8
 71
     3
 72
    22
 73
    18
 74
     0
 42
0.000000001
 43
0.00000001
 40
0.0
 40
0.0
 40
0.0
 40
0.0
 40
0.0358946929984619
 40
0.071512190773842
 40
0.1069637682739557
 40
0.1423622651891531
 40
0.1778210279651439
 40
0.2134528279266163
 40
0.2493688064949938
 40
0.3743410025884106
 40
0.4994129212150978
 40
0.6242700470968103
 40
0.7492344648297876
 40
0.8122120602573191
 40
0.8745880647325467
 40
0.9369787608000129
 40
0.9999999999999999
 40
0.9999999999999999
 40
0.9999999999999999
 40
0.9999999999999999
 10
63.21025134397706
 20
214.7316458423934
 30
0.0
 10
63.21125141410491
 20
214.7954937693828
 30
0.0
 10
63.21324383136202
 20
214.9226965604912
 30
0.0
 10
63.22955545367222
 20
215.1123827780733
 30
0.0
 10
63.25565433852459
 20
215.300010346516
 30
0.0
 10
63.29247644459365
 20
215.4855751672255
 30
0.0
 10
63.33976580756563
 20
215.6690670322866
 30
0.0
 10
63.39760859308442
 20
215.8504971824307
 30
0.0
 10
63.5220406101083
 20
216.1771943274223
 30
0.0
 10
63.76163985452173
 20
216.6300873487789
 30
0.0
 10
64.1882233475243
 20
217.14795217477
 30
0.0
 10
64.70521739708757
 20
217.5756888321753
 30
0.0
 10
65.19989902363545
 20
217.8386818258318
 30
0.0
 10
65.61922758010888
 20
217.9899866053392
 30
0.0
 10
65.94357630779419
 20
218.0712713347453
 30
0.0
 10
66.27451771772263
 20
218.1219680599033
 30
0.0
 10
66.49766155312318
 20
218.1281050201222
 30
0.0
 10
66.60979442944625
 20
218.1311889278626
 30
0.0
  0
LINE
  5
A8
330
1F
100
AcDbEntity
  8
0
  6
Continuous
 62
     7
370
    25
100
AcDbLine
 10
63.210251344
 20
102.1671605329
 30
0.0
 11
63.210251344
 21
214.7316458424
 31
0.0
  0
SPLINE
  5
A9
330
1F
100
AcDbEntity
  8
0
  6
Continuous
 62
     7
370
    25
100
AcDbSpline
210
0.0
220
0.0
230
1.0
 70
     8
 71
     3
 72
    22
 73
    18
 74
     0
 42
0.000000001
 43
0.00000001
 40
0.0
 40
0.0
 40
0.0
 40
0.0
 40
0.0358946929993265
 40
0.0715121907752911
 40
0.1069637682757001
 40
0.1423622651908948
 40
0.1778210279666036
 40
0.2134528279275143
 40
0.2493688064950855
 40
0.3743410025894632
 40
0.4994129212150931
 40
0.6242700470986183
 40
0.7492344648299092
 40
0.8122120602592384
 40
0.8745880647350823
 40
0.9369787608019197
 40
1.0
 40
1.0
 40
1.0
 40
1.0
 10
66.60979442944625
 20
98.7676174474465
 30
0.0
 10
66.54594650245528
 20
98.76861751757431
 30
0.0
 10
66.41874371134435
 20
98.77060993483141
 30
0.0
 10
66.2290574937592
 20
98.78692155714155
 30
0.0
 10
66.04142992531483
 20
98.81302044199391
 30
0.0
 10
65.85586510460537
 20
98.84984254806291
 30
0.0
 10
65.67237323954579
 20
98.89713191103489
 30
0.0
 10
65.49094308940472
 20
98.95497469655356
 30
0.0
 10
65.1642459444151
 20
99.07940671358054
 30
0.0
 10
64.71135292306124
 20
99.31900595799516
 30
0.0
 10
64.19348809706642
 20
99.74558945099731
 30
0.0
 10
63.7657514396584
 20
100.2625835005568
 30
0.0
 10
63.5027584460039
 20
100.7572651271101
 30
0.0
 10
63.35145366650163
 20
101.1765936835867
 30
0.0
 10
63.27016893709494
 20
101.500942411275
 30
0.0
 10
63.2194722119366
 20
101.8318838212
 30
0.0
 10
63.21333525171757
 20
102.055027656596
 30
0.0
 10
63.21025134397708
 20
102.1671605329157
 30
0.0
  0
LINE
  5
AA
330
1F
100
AcDbEntity
  8
0
  6
Continuous
 62
     7
370
    25
100
AcDbLine
 10
134.7742797389
 20
98.7676174474
 30
0.0
 11
66.6097944294
 21
98.7676174474
 31
0.0
  0
LINE
  5
AB
330
1F
100
AcDbEntity
  8
0
  6
Continuous
 62
     7
370
    25
100
AcDbLine
 10
138.1738228244
 20
214.7316458424
 30
0.0
 11
138.1738228244
 21
102.1671605329
 31
0.0
  0
SPLINE
  5
AC
330
1F
100
AcDbEntity
  8
0
  6
Continuous
 62
     7
370
    25
100
AcDbSpline
210
0.0
220
0.0
230
1.0
 70
     8
 71
     3
 72
    22
 73
    18
 74
     0
 42
0.000000001
 43
0.00000001
 40
0.0
 40
0.0
 40
0.0
 40
0.0
 40
0.0358946929989378
 40
0.0715121907746453
 40
0.10696376827492
 40
0.1423622651901162
 40
0.1778210279659533
 40
0.2134528279271105
 40
0.2493688064950461
 40
0.3743410025879097
 40
0.499412921215062
 40
0.6242700470977065
 40
0.7492344648298987
 40
0.8122120602591101
 40
0.8745880647349159
 40
0.9369787608017945
 40
1.0
 40
1.0
 40
1.0
 40
1.0
 10
134.774279738924
 20
218.1311889278626
 30
0.0
 10
134.8381276659143
 20
218.1301888577348
 30
0.0
 10
134.9653304570241
 20
218.1281964404777
 30
0.0
 10
135.1550166746078
 20
218.1118848181675
 30
0.0
 10
135.3426442430515
 20
218.0857859333151
 30
0.0
 10
135.5282090637609
 20
218.0489638272461
 30
0.0
 10
135.7117009288212
 20
218.0016744642741
 30
0.0
 10
135.8931310789636
 20
217.9438316787554
 30
0.0
 10
136.2198282239524
 20
217.8193996617306
 30
0.0
 10
136.6727212453067
 20
217.5798004173153
 30
0.0
 10
137.1905860713007
 20
217.1532169243147
 30
0.0
 10
137.6183227287119
 20
216.6362228747542
 30
0.0
 10
137.8813157223655
 20
216.1415412482005
 30
0.0
 10
138.0326205018687
 20
215.7222126917229
 30
0.0
 10
138.1139052312753
 20
215.3978639640348
 30
0.0
 10
138.1646019564336
 20
215.0669225541096
 30
0.0
 10
138.1707389166527
 20
214.8437787187133
 30
0.0
 10
138.1738228243932
 20
214.7316458423934
 30
0.0
  0
LINE
  5
AD
330
1F
100
AcDbEntity
  8
0
  6
Continuous
 62
     7
370
    25
100
AcDbLine
 10
66.6097944294
 20
218.1311889279
 30
0.0
 11
134.7742797389
 21
218.1311889279
 31
0.0
  0
CIRCLE
  5
AE
330
1F
100
AcDbEntity
  8
0
  6
Continuous
 62
     7
370
    25
100
AcDbCircle
 10
55.210251344
 20
226.1311889279
 30
0.0
 40
1.0
  0
CIRCLE
  5
AF
330
1F
100
AcDbEntity
  8
0
  6
Continuous
 62
     7
370
    25
100
AcDbCircle
 10
146.1738228244
 20
90.7676174474
 30
0.0
 40
1.0
  0
CIRCLE
  5
B0
330
1F
100
AcDbEntity
  8
0
  6
Continuous
 62
     7
370
    25
100
AcDbCircle
 10
55.210251344
 20
90.7676174474
 30
0.0
 40
1.0
  0
CIRCLE
  5
B1
330
1F
100
AcDbEntity
  8
0
  6
Continuous
 62
     7
370
    25
100
AcDbCircle
 10
146.1738228244
 20
226.1311889279
 30
0.0
 40
1.0
  0
SPLINE
  5
B2
330
1F
100
AcDbEntity
  8
0
  6
Continuous
 62
     7
370
    25
100
AcDbSpline
210
0.0
220
0.0
230
1.0
 70
     8
 71
     3
 72
    22
 73
    18
 74
     0
 42
0.000000001
 43
0.00000001
 40
0.0
 40
0.0
 40
0.0
 40
0.0
 40
0.0358946929979793
 40
0.0715121907730522
 40
0.1069637682730155
 40
0.1423622651882091
 40
0.1778210279643555
 40
0.2134528279261238
 40
0.2493688064949534
 40
0.3743410025859633
 40
0.4994129212150495
 40
0.6242700470976937
 40
0.7492344648298936
 40
0.8122120602591022
 40
0.8745880647349107
 40
0.9369787608017907
 40
1.0
 40
1.0
 40
1.0
 40
1.0
 10
138.1738228243932
 20
102.1671605329157
 30
0.0
 10
138.1728227542654
 20
102.1033126059271
 30
0.0
 10
138.1708303370082
 20
101.9761098148201
 30
0.0
 10
138.154518714698
 20
101.7864235972398
 30
0.0
 10
138.1284198298455
 20
101.5987960287978
 30
0.0
 10
138.0915977237765
 20
101.4132312080884
 30
0.0
 10
138.0443083608045
 20
101.2297393430265
 30
0.0
 10
137.9864655752856
 20
101.0483091928808
 30
0.0
 10
137.8620335582649
 20
100.7216120478912
 30
0.0
 10
137.6224343138501
 20
100.2687190265342
 30
0.0
 10
137.1958508208474
 20
99.75085420054167
 30
0.0
 10
136.678856771285
 20
99.32311754312768
 30
0.0
 10
136.1841751447311
 20
99.06012454947418
 30
0.0
 10
135.7648465882536
 20
98.90881976997089
 30
0.0
 10
135.4404978605654
 20
98.82753504056433
 30
0.0
 10
135.1095564506402
 20
98.776838315406
 30
0.0
 10
134.8864126152439
 20
98.77070135518699
 30
0.0
 10
134.774279738924
 20
98.76761744744648
 30
0.0
  0
DIMENSION
  5
B3
330
1F
100
AcDbEntity
  8
LEVEL0
100
AcDbDimension
  2
_D
 10
138.1738228244
 20
171.2063952221
 30
0.0
 11
88.0225728781
 21
171.2063952221
 31
0.0
 70
   160
  1
<>\PROUTE THRU
 71
     3
 42
-1.0
  3
SLDDIMSTYLE0
100
AcDbAlignedDimension
 13
63.210251344
 23
214.7316458424
 33
0.0
 14
138.1738228244
 24
214.7316458424
 34
0.0
100
AcDbRotatedDimension
  0
DIMENSION
  5
D6
330
1F
100
AcDbEntity
  8
LEVEL0
100
AcDbDimension
  2
_D_1
 10
104.5661445912
 20
98.7676174474
 30
0.0
 11
104.5661445912
 21
151.6488344338
 31
0.0
 70
   160
  1
<>\PROUTE THRU
 71
     3
 42
-1.0
  3
SLDDIMSTYLE0
100
AcDbAlignedDimension
 13
134.7742797389
 23
218.1311889279
 33
0.0
 14
134.7742797389
 24
98.7676174474
 34
0.0
 50
90.0
100
AcDbRotatedDimension
  0
DIMENSION
  5
F0
330
1F
100
AcDbEntity
  8
LEVEL0
100
AcDbDimension
  2
_D_2
 10
169.7284709363
 20
90.7676174474
 30
0.0
 11
169.7284709363
 21
161.4050139286
 31
0.0
 70
   160
  1
<>
 71
     2
 42
-1.0
  3
SLDDIMSTYLE1
100
AcDbAlignedDimension
 13
149.6738228244
 23
226.1311889279
 33
0.0
 14
149.6738228244
 24
90.7676174474
 34
0.0
 50
90.0
100
AcDbRotatedDimension
  0
DIMENSION
  5
104
330
1F
100
AcDbEntity
  8
LEVEL0
100
AcDbDimension
  2
_D_3
 10
146.1738228244
 20
73.119833821
 30
0.0
 11
98.8444277774
 21
73.119833821
 31
0.0
 70
   160
  1
<>
 71
     2
 42
-1.0
  3
SLDDIMSTYLE1
100
AcDbAlignedDimension
 13
55.210251344
 23
87.2676174474
 33
0.0
 14
146.1738228244
 24
87.2676174474
 34
0.0
100
AcDbRotatedDimension
  0
DIMENSION
  5
117
330
1F
100
AcDbEntity
  8
LEVEL0
100
AcDbDimension
  2
_D_4
 10
63.210251344
 20
116.6529533653
 30
0.0
 11
58.720056934
 21
116.6529533653
 31
0.0
 70
   160
  1
<>
 71
     2
 42
-1.0
  3
SLDDIMSTYLE2
100
AcDbAlignedDimension
 13
55.210251344
 23
94.2676174474
 33
0.0
 14
63.210251344
 24
102.1671605329
 34
0.0
100
AcDbRotatedDimension
  0
DIMENSION
  5
12C
330
1F
100
AcDbEntity
  8
LEVEL0
100
AcDbDimension
  2
_D_5
 10
39.1900579049
 20
98.7676174474
 30
0.0
 11
39.1900579049
 21
94.8958491838
 31
0.0
 70
   160
  1
<>
 71
     2
 42
-1.0
  3
SLDDIMSTYLE2
100
AcDbAlignedDimension
 13
51.710251344
 23
90.7676174474
 33
0.0
 14
66.6097944294
 24
98.7676174474
 34
0.0
 50
90.0
100
AcDbRotatedDimension
  0
INSERT
  5
145
330
1F
100
AcDbEntity
  8
LEVEL0
100
AcDbBlockReference
  2
SW_NOTE_0
 10
137.9176134013
 20
234.8732337099
 30
0.0
  0
LEADER
  5
147
330
1F
100
AcDbEntity
  8
LEVEL0
100
AcDbLeader
  3
SLDDIMSTYLE3
 76
     2
 10
145.8154609383
 20
227.0647716819
 30
0.0
 10
137.9176134013
 20
234.8732337099
 30
0.0
  0
MTEXT
  5
148
330
1F
100
AcDbEntity
  8
LEVEL0
100
AcDbMText
 10
82.566247216
 20
265.3495190303
 30
0.0
 40
4.7625
 41
0.0
 71
     1
 72
     1
  1
for 028-1-856
  7
SLDTEXTSTYLE0
 73
     1
 44
1.0
  0
INSERT
  5
154
330
1F
100
AcDbEntity
  8
LEVEL0
100
AcDbBlockReference
  2
SW_CENTERMARKSYMBOL_0
 10
55.210251344
 20
226.1311889279
 30
0.0
  0
INSERT
  5
160
330
1F
100
AcDbEntity
  8
LEVEL0
100
AcDbBlockReference
  2
SW_CENTERMARKSYMBOL_1
 10
146.1738228244
 20
226.1311889279
 30
0.0
  0
INSERT
  5
16C
330
1F
100
AcDbEntity
  8
LEVEL0
100
AcDbBlockReference
  2
SW_CENTERMARKSYMBOL_2
 10
146.1738228244
 20
90.7676174474
 30
0.0
  0
INSERT
  5
178
330
1F
100
AcDbEntity
  8
LEVEL0
100
AcDbBlockReference
  2
SW_CENTERMARKSYMBOL_3
 10
55.210251344
 20
90.7676174474
 30
0.0
  0
ENDSEC
  0
SECTION
  2
OBJECTS
  0
DICTIONARY
  5
C
330
0
100
AcDbDictionary
281
     1
  3
ACAD_GROUP
350
D
  3
ACAD_LAYOUT
350
1A
  3
ACAD_MLINESTYLE
350
17
  3
ACAD_PLOTSETTINGS
350
19
  3
ACAD_PLOTSTYLENAME
350
E
  3
ACAD_SCALELIST
350
47
  0
DICTIONARY
  5
D
102
{ACAD_REACTORS
330
C
102
}
330
C
100
AcDbDictionary
281
     1
  0
DICTIONARY
  5
1A
102
{ACAD_REACTORS
330
C
102
}
330
C
100
AcDbDictionary
281
     1
  3
Layout1
350
1E
  3
Layout2
350
26
  3
Model
350
22
  0
DICTIONARY
  5
17
102
{ACAD_REACTORS
330
C
102
}
330
C
100
AcDbDictionary
281
     1
  3
Standard
350
18
  0
DICTIONARY
  5
19
102
{ACAD_REACTORS
330
C
102
}
330
C
100
AcDbDictionary
281
     1
  0
ACDBDICTIONARYWDFLT
  5
E
102
{ACAD_REACTORS
330
C
102
}
330
C
100
AcDbDictionary
281
     1
  3
Normal
350
F
100
AcDbDictionaryWithDefault
340
F
  0
DICTIONARY
  5
47
102
{ACAD_REACTORS
330
C
102
}
330
C
100
AcDbDictionary
281
     1
  3
A0
350
48
  3
A1
350
49
  3
A2
350
4A
  3
A3
350
4B
  3
A4
350
4C
  3
A5
350
4D
  3
A6
350
4E
  3
A7
350
4F
  3
A8
350
50
  3
A9
350
51
  3
B0
350
52
  3
B1
350
53
  3
B2
350
54
  3
B3
350
55
  3
B4
350
56
  3
B5
350
57
  3
B6
350
58
  3
B7
350
59
  3
B8
350
5A
  3
B9
350
5B
  3
C0
350
5C
  3
C1
350
5D
  3
C2
350
5E
  3
C3
350
5F
  3
C4
350
60
  3
C5
350
61
  3
C6
350
62
  3
C7
350
63
  3
C8
350
64
  3
C9
350
65
  3
D0
350
66
  3
D1
350
67
  3
D2
350
68
  0
LAYOUT
  5
1E
102
{ACAD_REACTORS
330
1A
102
}
330
1A
100
AcDbPlotSettings
  1

  2
none_device
  4

  6

 40
0.0
 41
0.0
 42
0.0
 43
0.0
 44
0.0
 45
0.0
 46
0.0
 47
0.0
 48
0.0
 49
0.0
140
0.0
141
0.0
142
1.0
143
1.0
 70
   688
 72
     1
 73
     0
 74
     5
  7

 75
    16
147
1.0
148
0.0
149
0.0
100
AcDbLayout
  1
Layout1
 70
     1
 71
     1
 10
0.0
 20
0.0
 11
420.0
 21
297.0
 12
0.0
 22
0.0
 32
0.0
 14
1.0000000000E+20
 24
1.0000000000E+20
 34
1.0000000000E+20
 15
-1.0000000000E+20
 25
-1.0000000000E+20
 35
-1.0000000000E+20
146
0.0
 13
0.0
 23
0.0
 33
0.0
 16
1.0
 26
0.0
 36
0.0
 17
0.0
 27
1.0
 37
0.0
 76
     0
330
1B
  0
LAYOUT
  5
26
102
{ACAD_REACTORS
330
1A
102
}
330
1A
100
AcDbPlotSettings
  1

  2
none_device
  4

  6

 40
0.0
 41
0.0
 42
0.0
 43
0.0
 44
0.0
 45
0.0
 46
0.0
 47
0.0
 48
0.0
 49
0.0
140
0.0
141
0.0
142
1.0
143
1.0
 70
   688
 72
     1
 73
     0
 74
     5
  7

 75
    16
147
1.0
148
0.0
149
0.0
100
AcDbLayout
  1
Layout2
 70
     1
 71
     2
 10
0.0
 20
0.0
 11
0.0
 21
0.0
 12
0.0
 22
0.0
 32
0.0
 14
0.0
 24
0.0
 34
0.0
 15
0.0
 25
0.0
 35
0.0
146
0.0
 13
0.0
 23
0.0
 33
0.0
 16
1.0
 26
0.0
 36
0.0
 17
0.0
 27
1.0
 37
0.0
 76
     0
330
23
  0
LAYOUT
  5
22
102
{ACAD_REACTORS
330
1A
102
}
330
1A
100
AcDbPlotSettings
  1

  2
none_device
  4
Letter_(8.50_x_11.00_Inches)
  6

 40
6.35
 41
6.35
 42
6.35000508
 43
6.35000508
 44
215.9
 45
279.4
 46
0.0
 47
0.0
 48
0.0
 49
0.0
140
0.0
141
0.0
142
1.0
143
1.0
 70
  1712
 72
     1
 73
     0
 74
     0
  7

 75
     0
147
1.0
148
0.0
149
0.0
100
AcDbLayout
  1
Model
 70
     1
 71
     0
 10
0.0
 20
0.0
 11
210.0
 21
297.0
 12
0.0
 22
0.0
 32
0.0
 14
0.0
 24
0.0
 34
0.0
 15
210.0
 25
297.0
 35
0.0
146
0.0
 13
0.0
 23
0.0
 33
0.0
 16
1.0
 26
0.0
 36
0.0
 17
0.0
 27
1.0
 37
0.0
 76
     0
330
1F
331
29
  0
MLINESTYLE
  5
18
102
{ACAD_REACTORS
330
17
102
}
330
17
100
AcDbMlineStyle
  2
Standard
 70
     0
  3

 62
   256
 51
90.0
 52
90.0
 71
     2
 49
0.5
 62
   256
  6
BYLAYER
 49
-0.5
 62
   256
  6
BYLAYER
  0
ACDBPLACEHOLDER
  5
F
102
{ACAD_REACTORS
330
E
102
}
330
E
  0
SCALE
  5
48
102
{ACAD_REACTORS
330
47
102
}
330
47
100
AcDbScale
 70
     0
300
1:1
140
1.0
141
1.0
290
     1
  0
SCALE
  5
49
102
{ACAD_REACTORS
330
47
102
}
330
47
100
AcDbScale
 70
     0
300
1:2
140
1.0
141
2.0
290
     0
  0
SCALE
  5
4A
102
{ACAD_REACTORS
330
47
102
}
330
47
100
AcDbScale
 70
     0
300
1:4
140
1.0
141
4.0
290
     0
  0
SCALE
  5
4B
102
{ACAD_REACTORS
330
47
102
}
330
47
100
AcDbScale
 70
     0
300
1:5
140
1.0
141
5.0
290
     0
  0
SCALE
  5
4C
102
{ACAD_REACTORS
330
47
102
}
330
47
100
AcDbScale
 70
     0
300
1:8
140
1.0
141
8.0
290
     0
  0
SCALE
  5
4D
102
{ACAD_REACTORS
330
47
102
}
330
47
100
AcDbScale
 70
     0
300
1:10
140
1.0
141
10.0
290
     0
  0
SCALE
  5
4E
102
{ACAD_REACTORS
330
47
102
}
330
47
100
AcDbScale
 70
     0
300
1:16
140
1.0
141
16.0
290
     0
  0
SCALE
  5
4F
102
{ACAD_REACTORS
330
47
102
}
330
47
100
AcDbScale
 70
     0
300
1:20
140
1.0
141
20.0
290
     0
  0
SCALE
  5
50
102
{ACAD_REACTORS
330
47
102
}
330
47
100
AcDbScale
 70
     0
300
1:30
140
1.0
141
30.0
290
     0
  0
SCALE
  5
51
102
{ACAD_REACTORS
330
47
102
}
330
47
100
AcDbScale
 70
     0
300
1:40
140
1.0
141
40.0
290
     0
  0
SCALE
  5
52
102
{ACAD_REACTORS
330
47
102
}
330
47
100
AcDbScale
 70
     0
300
1:50
140
1.0
141
50.0
290
     0
  0
SCALE
  5
53
102
{ACAD_REACTORS
330
47
102
}
330
47
100
AcDbScale
 70
     0
300
1:100
140
1.0
141
100.0
290
     0
  0
SCALE
  5
54
102
{ACAD_REACTORS
330
47
102
}
330
47
100
AcDbScale
 70
     0
300
2:1
140
2.0
141
1.0
290
     0
  0
SCALE
  5
55
102
{ACAD_REACTORS
330
47
102
}
330
47
100
AcDbScale
 70
     0
300
4:1
140
4.0
141
1.0
290
     0
  0
SCALE
  5
56
102
{ACAD_REACTORS
330
47
102
}
330
47
100
AcDbScale
 70
     0
300
8:1
140
8.0
141
1.0
290
     0
  0
SCALE
  5
57
102
{ACAD_REACTORS
330
47
102
}
330
47
100
AcDbScale
 70
     0
300
10:1
140
10.0
141
1.0
290
     0
  0
SCALE
  5
58
102
{ACAD_REACTORS
330
47
102
}
330
47
100
AcDbScale
 70
     0
300
100:1
140
100.0
141
1.0
290
     0
  0
SCALE
  5
59
102
{ACAD_REACTORS
330
47
102
}
330
47
100
AcDbScale
 70
     0
300
1/128" = 1'-0"
140
0.0078125
141
12.0
290
     0
  0
SCALE
  5
5A
102
{ACAD_REACTORS
330
47
102
}
330
47
100
AcDbScale
 70
     0
300
1/64" = 1'-0"
140
0.015625
141
12.0
290
     0
  0
SCALE
  5
5B
102
{ACAD_REACTORS
330
47
102
}
330
47
100
AcDbScale
 70
     0
300
1/32" = 1'-0"
140
0.03125
141
12.0
290
     0
  0
SCALE
  5
5C
102
{ACAD_REACTORS
330
47
102
}
330
47
100
AcDbScale
 70
     0
300
1/16" = 1'-0"
140
0.0625
141
12.0
290
     0
  0
SCALE
  5
5D
102
{ACAD_REACTORS
330
47
102
}
330
47
100
AcDbScale
 70
     0
300
3/32" = 1'-0"
140
0.09375
141
12.0
290
     0
  0
SCALE
  5
5E
102
{ACAD_REACTORS
330
47
102
}
330
47
100
AcDbScale
 70
     0
300
1/8" = 1'-0"
140
0.125
141
12.0
290
     0
  0
SCALE
  5
5F
102
{ACAD_REACTORS
330
47
102
}
330
47
100
AcDbScale
 70
     0
300
3/16" = 1'-0"
140
0.1875
141
12.0
290
     0
  0
SCALE
  5
60
102
{ACAD_REACTORS
330
47
102
}
330
47
100
AcDbScale
 70
     0
300
1/4" = 1'-0"
140
0.25
141
12.0
290
     0
  0
SCALE
  5
61
102
{ACAD_REACTORS
330
47
102
}
330
47
100
AcDbScale
 70
     0
300
3/8" = 1'-0"
140
0.375
141
12.0
290
     0
  0
SCALE
  5
62
102
{ACAD_REACTORS
330
47
102
}
330
47
100
AcDbScale
 70
     0
300
1/2" = 1'-0"
140
0.5
141
12.0
290
     0
  0
SCALE
  5
63
102
{ACAD_REACTORS
330
47
102
}
330
47
100
AcDbScale
 70
     0
300
3/4" = 1'-0"
140
0.75
141
12.0
290
     0
  0
SCALE
  5
64
102
{ACAD_REACTORS
330
47
102
}
330
47
100
AcDbScale
 70
     0
300
1" = 1'-0"
140
1.0
141
12.0
290
     0
  0
SCALE
  5
65
102
{ACAD_REACTORS
330
47
102
}
330
47
100
AcDbScale
 70
     0
300
1-1/2" = 1'-0"
140
1.5
141
12.0
290
     0
  0
SCALE
  5
66
102
{ACAD_REACTORS
330
47
102
}
330
47
100
AcDbScale
 70
     0
300
3" = 1'-0"
140
3.0
141
12.0
290
     0
  0
SCALE
  5
67
102
{ACAD_REACTORS
330
47
102
}
330
47
100
AcDbScale
 70
     0
300
6" = 1'-0"
140
6.0
141
12.0
290
     0
  0
SCALE
  5
68
102
{ACAD_REACTORS
330
47
102
}
330
47
100
AcDbScale
 70
     0
300
1'-0" = 1'-0"
140
12.0
141
12.0
290
     0
  0
ENDSEC
  0
EOF
