  0
SECTION
  2
HEADER
  9
$ACADVER
  1
AC1015
  9
$ACADMAINTVER
 70
     6
  9
$DWGCODEPAGE
  3
ANSI_1252
  9
$INSBASE
 10
0.0
 20
0.0
 30
0.0
  9
$EXTMIN
 10
0.0
 20
0.0
 30
0.0
  9
$EXTMAX
 10
210.0
 20
297.0
 30
0.0
  9
$LIMMIN
 10
0.0
 20
0.0
  9
$LIMMAX
 10
210.0
 20
297.0
  9
$ORTHOMODE
 70
     0
  9
$REGENMODE
 70
     1
  9
$FILLMODE
 70
     1
  9
$QTEXTMODE
 70
     0
  9
$MIRRTEXT
 70
     1
  9
$LTSCALE
 40
1.0
  9
$ATTMODE
 70
     1
  9
$TEXTSIZE
 40
2.0
  9
$TRACEWID
 40
1.0
  9
$TEXTSTYLE
  7
Standard
  9
$CLAYER
  8
0
  9
$CELTYPE
  6
ByLayer
  9
$CECOLOR
 62
   256
  9
$CELTSCALE
 40
1.0
  9
$DISPSILH
 70
     0
  9
$DIMSCALE
 40
1.0
  9
$DIMASZ
 40
2.0
  9
$DIMEXO
 40
1.0
  9
$DIMDLI
 40
3.75
  9
$DIMRND
 40
0.0
  9
$DIMDLE
 40
0.0
  9
$DIMEXE
 40
1.0
  9
$DIMTP
 40
0.0
  9
$DIMTM
 40
0.0
  9
$DIMTXT
 40
2.0
  9
$DIMCEN
 40
2.5
  9
$DIMTSZ
 40
0.0
  9
$DIMTOL
 70
     0
  9
$DIMLIM
 70
     0
  9
$DIMTIH
 70
     1
  9
$DIMTOH
 70
     1
  9
$DIMSE1
 70
     0
  9
$DIMSE2
 70
     0
  9
$DIMTAD
 70
     1
  9
$DIMZIN
 70
     0
  9
$DIMBLK
  1

  9
$DIMASO
 70
     1
  9
$DIMSHO
 70
     1
  9
$DIMPOST
  1

  9
$DIMAPOST
  1

  9
$DIMALT
 70
     0
  9
$DIMALTD
 70
     3
  9
$DIMALTF
 40
0.0393700787
  9
$DIMLFAC
 40
1.0
  9
$DIMTOFL
 70
     1
  9
$DIMTVP
 40
0.0
  9
$DIMTIX
 70
     0
  9
$DIMSOXD
 70
     0
  9
$DIMSAH
 70
     0
  9
$DIMBLK1
  1

  9
$DIMBLK2
  1

  9
$DIMSTYLE
  2
ISO-25
  9
$DIMCLRD
 70
     0
  9
$DIMCLRE
 70
     0
  9
$DIMCLRT
 70
     0
  9
$DIMTFAC
 40
1.0
  9
$DIMGAP
 40
1.524
  9
$DIMJUST
 70
     0
  9
$DIMSD1
 70
     0
  9
$DIMSD2
 70
     0
  9
$DIMTOLJ
 70
     0
  9
$DIMTZIN
 70
     0
  9
$DIMALTZ
 70
     0
  9
$DIMALTTZ
 70
     0
  9
$DIMUPT
 70
     0
  9
$DIMDEC
 70
     1
  9
$DIMTDEC
 70
     1
  9
$DIMALTU
 70
     2
  9
$DIMALTTD
 70
     3
  9
$DIMTXSTY
  7
Standard
  9
$DIMAUNIT
 70
     0
  9
$DIMADEC
 70
     1
  9
$DIMALTRND
 40
0.0
  9
$DIMAZIN
 70
     0
  9
$DIMDSEP
 70
    44
  9
$DIMATFIT
 70
     3
  9
$DIMFRAC
 70
     0
  9
$DIMLDRBLK
  1

  9
$DIMLUNIT
 70
     2
  9
$DIMLWD
 70
    -2
  9
$DIMLWE
 70
    -2
  9
$DIMTMOVE
 70
     0
  9
$LUNITS
 70
     2
  9
$LUPREC
 70
     2
  9
$SKETCHINC
 40
1.0
  9
$FILLETRAD
 40
10.0
  9
$AUNITS
 70
     0
  9
$AUPREC
 70
     2
  9
$MENU
  1
.
  9
$ELEVATION
 40
0.0
  9
$PELEVATION
 40
0.0
  9
$THICKNESS
 40
0.0
  9
$LIMCHECK
 70
     0
  9
$CHAMFERA
 40
0.0
  9
$CHAMFERB
 40
0.0
  9
$CHAMFERC
 40
0.0
  9
$CHAMFERD
 40
0.0
  9
$SKPOLY
 70
     0
  9
$TDCREATE
 40
2459136.613294537
  9
$TDUCREATE
 40
2459136.488294537
  9
$TDUPDATE
 40
2459136.61329618
  9
$TDUUPDATE
 40
2459136.48829618
  9
$TDINDWG
 40
0.0000000116
  9
$TDUSRTIMER
 40
0.0000000116
  9
$USRTIMER
 70
     1
  9
$ANGBASE
 50
0.0
  9
$ANGDIR
 70
     0
  9
$PDMODE
 70
     0
  9
$PDSIZE
 40
-1.0
  9
$PLINEWID
 40
0.0
  9
$SPLFRAME
 70
     0
  9
$SPLINETYPE
 70
     6
  9
$SPLINESEGS
 70
     8
  9
$HANDSEED
  5
1B6
  9
$SURFTAB1
 70
     6
  9
$SURFTAB2
 70
     6
  9
$SURFTYPE
 70
     6
  9
$SURFU
 70
     6
  9
$SURFV
 70
     6
  9
$UCSBASE
  2

  9
$UCSNAME
  2

  9
$UCSORG
 10
0.0
 20
0.0
 30
0.0
  9
$UCSXDIR
 10
1.0
 20
0.0
 30
0.0
  9
$UCSYDIR
 10
0.0
 20
1.0
 30
0.0
  9
$UCSORTHOREF
  2

  9
$UCSORTHOVIEW
 70
     0
  9
$UCSORGTOP
 10
0.0
 20
0.0
 30
0.0
  9
$UCSORGBOTTOM
 10
0.0
 20
0.0
 30
0.0
  9
$UCSORGLEFT
 10
0.0
 20
0.0
 30
0.0
  9
$UCSORGRIGHT
 10
0.0
 20
0.0
 30
0.0
  9
$UCSORGFRONT
 10
0.0
 20
0.0
 30
0.0
  9
$UCSORGBACK
 10
0.0
 20
0.0
 30
0.0
  9
$PUCSBASE
  2

  9
$PUCSNAME
  2

  9
$PUCSORG
 10
0.0
 20
0.0
 30
0.0
  9
$PUCSXDIR
 10
1.0
 20
0.0
 30
0.0
  9
$PUCSYDIR
 10
0.0
 20
1.0
 30
0.0
  9
$PUCSORTHOREF
  2

  9
$PUCSORTHOVIEW
 70
     0
  9
$PUCSORGTOP
 10
0.0
 20
0.0
 30
0.0
  9
$PUCSORGBOTTOM
 10
0.0
 20
0.0
 30
0.0
  9
$PUCSORGLEFT
 10
0.0
 20
0.0
 30
0.0
  9
$PUCSORGRIGHT
 10
0.0
 20
0.0
 30
0.0
  9
$PUCSORGFRONT
 10
0.0
 20
0.0
 30
0.0
  9
$PUCSORGBACK
 10
0.0
 20
0.0
 30
0.0
  9
$USERI1
 70
     0
  9
$USERI2
 70
     0
  9
$USERI3
 70
     0
  9
$USERI4
 70
     0
  9
$USERI5
 70
     0
  9
$USERR1
 40
0.0
  9
$USERR2
 40
0.0
  9
$USERR3
 40
0.0
  9
$USERR4
 40
0.0
  9
$USERR5
 40
0.0
  9
$WORLDVIEW
 70
     1
  9
$SHADEDGE
 70
     3
  9
$SHADEDIF
 70
    70
  9
$TILEMODE
 70
     1
  9
$MAXACTVP
 70
    64
  9
$PINSBASE
 10
0.0
 20
0.0
 30
0.0
  9
$PLIMCHECK
 70
     0
  9
$PEXTMIN
 10
1.0000000000E+20
 20
1.0000000000E+20
 30
1.0000000000E+20
  9
$PEXTMAX
 10
-1.0000000000E+20
 20
-1.0000000000E+20
 30
-1.0000000000E+20
  9
$PLIMMIN
 10
0.0
 20
0.0
  9
$PLIMMAX
 10
420.0
 20
297.0
  9
$UNITMODE
 70
     0
  9
$VISRETAIN
 70
     1
  9
$PLINEGEN
 70
     0
  9
$PSLTSCALE
 70
     1
  9
$TREEDEPTH
 70
  3020
  9
$CMLSTYLE
  2
Standard
  9
$CMLJUST
 70
     0
  9
$CMLSCALE
 40
20.0
  9
$PROXYGRAPHICS
 70
     1
  9
$MEASUREMENT
 70
     1
  9
$CELWEIGHT
370
    -1
  9
$ENDCAPS
280
     0
  9
$JOINSTYLE
280
     0
  9
$LWDISPLAY
290
     1
  9
$INSUNITS
 70
     4
  9
$HYPERLINKBASE
  1

  9
$STYLESHEET
  1

  9
$XEDIT
290
     1
  9
$CEPSNTYPE
380
     0
  9
$PSTYLEMODE
290
     1
  9
$FINGERPRINTGUID
  2
{37beb5b3-06f4-4757-8d5b-ca79936a717d}
  9
$VERSIONGUID
  2
{FAEB1C32-E019-11D5-929B-00C0DF256EC4}
  9
$EXTNAMES
290
     1
  9
$PSVPSCALE
 40
0.0
  9
$OLESTARTUP
290
     0
  0
ENDSEC
  0
SECTION
  2
CLASSES
  0
CLASS
  1
ACDBDICTIONARYWDFLT
  2
AcDbDictionaryWithDefault
  3
ObjectDBX Classes
 90
        0
280
     0
281
     0
  0
CLASS
  1
VISUALSTYLE
  2
AcDbVisualStyle
  3
ObjectDBX Classes
 90
     4095
280
     0
281
     0
  0
CLASS
  1
MATERIAL
  2
AcDbMaterial
  3
ObjectDBX Classes
 90
     1153
280
     0
281
     0
  0
CLASS
  1
SCALE
  2
AcDbScale
  3
ObjectDBX Classes
 90
     1153
280
     0
281
     0
  0
CLASS
  1
TABLESTYLE
  2
AcDbTableStyle
  3
ObjectDBX Classes
 90
     4095
280
     0
281
     0
  0
CLASS
  1
MLEADERSTYLE
  2
AcDbMLeaderStyle
  3
ACDB_MLEADERSTYLE_CLASS
 90
     4095
280
     0
281
     0
  0
CLASS
  1
SUN
  2
AcDbSun
  3
SCENEOE
 90
     1153
280
     0
281
     0
  0
CLASS
  1
ACDBPLACEHOLDER
  2
AcDbPlaceHolder
  3
ObjectDBX Classes
 90
        0
280
     0
281
     0
  0
CLASS
  1
LAYOUT
  2
AcDbLayout
  3
ObjectDBX Classes
 90
        0
280
     0
281
     0
  0
ENDSEC
  0
SECTION
  2
TABLES
  0
TABLE
  2
VPORT
  5
8
330
0
100
AcDbSymbolTable
 70
     1
  0
VPORT
  5
29
330
8
100
AcDbSymbolTableRecord
100
AcDbViewportTableRecord
  2
*Active
 70
     0
 10
0.0
 20
0.0
 11
1.0
 21
1.0
 12
105.0
 22
148.5
 13
0.0
 23
0.0
 14
10.0
 24
10.0
 15
10.0
 25
10.0
 16
0.0
 26
0.0
 36
1.0
 17
0.0
 27
0.0
 37
0.0
 40
297.0
 41
0.7070707071
 42
50.0
 43
0.0
 44
0.0
 50
0.0
 51
0.0
 71
     0
 72
  2000
 73
     1
 74
     3
 75
     0
 76
     0
 77
     0
 78
     0
281
     0
 65
     1
110
0.0
120
0.0
130
0.0
111
1.0
121
0.0
131
0.0
112
0.0
122
1.0
132
0.0
 79
     0
146
0.0
  0
ENDTAB
  0
TABLE
  2
LTYPE
  5
5
330
0
100
AcDbSymbolTable
 70
     6
  0
LTYPE
  5
14
330
5
100
AcDbSymbolTableRecord
100
AcDbLinetypeTableRecord
  2
ByBlock
 70
     0
  3

 72
    65
 73
     0
 40
0.0
  0
LTYPE
  5
15
330
5
100
AcDbSymbolTableRecord
100
AcDbLinetypeTableRecord
  2
ByLayer
 70
     0
  3

 72
    65
 73
     0
 40
0.0
  0
LTYPE
  5
16
330
5
100
AcDbSymbolTableRecord
100
AcDbLinetypeTableRecord
  2
Continuous
 70
     0
  3
Solid line
 72
    65
 73
     0
 40
0.0
  0
LTYPE
  5
6E
330
5
100
AcDbSymbolTableRecord
100
AcDbLinetypeTableRecord
  2
HIDDEN
 70
     0
  3
Hidden __ __ __ __ __ __ __ __ __ __ __ __ __ __
 72
    65
 73
     2
 40
1.905
 49
1.27
 74
     0
 49
-0.635
 74
     0
  0
LTYPE
  5
6F
330
5
100
AcDbSymbolTableRecord
100
AcDbLinetypeTableRecord
  2
PHANTOM
 70
     0
  3
Phantom ______  __  __  ______  __  __  ______
 72
    65
 73
     6
 40
12.7
 49
6.35
 74
     0
 49
-1.27
 74
     0
 49
1.27
 74
     0
 49
-1.27
 74
     0
 49
1.27
 74
     0
 49
-1.27
 74
     0
  0
LTYPE
  5
70
330
5
100
AcDbSymbolTableRecord
100
AcDbLinetypeTableRecord
  2
CENTER
 70
     0
  3
Center ____ _ ____ _ ____ _ ____ _ ____ _ ____
 72
    65
 73
     4
 40
10.16
 49
6.35
 74
     0
 49
-1.27
 74
     0
 49
1.27
 74
     0
 49
-1.27
 74
     0
  0
LTYPE
  5
71
330
5
100
AcDbSymbolTableRecord
100
AcDbLinetypeTableRecord
  2
CENTERX2
 70
     0
  3
Center (2x) ________  __  ________  __  _____
 72
    65
 73
     4
 40
20.32
 49
12.7
 74
     0
 49
-2.54
 74
     0
 49
2.54
 74
     0
 49
-2.54
 74
     0
  0
LTYPE
  5
72
330
5
100
AcDbSymbolTableRecord
100
AcDbLinetypeTableRecord
  2
DOT2
 70
     0
  3
Dot (.5x) ........................................
 72
    65
 73
     2
 40
0.635
 49
0.0
 74
     0
 49
-0.635
 74
     0
  0
ENDTAB
  0
TABLE
  2
LAYER
  5
2
330
0
100
AcDbSymbolTable
 70
    53
  0
LAYER
  5
10
330
2
100
AcDbSymbolTableRecord
100
AcDbLayerTableRecord
  2
0
 70
     0
 62
     7
  6
Continuous
370
    -3
390
F
  0
LAYER
  5
73
330
2
100
AcDbSymbolTableRecord
100
AcDbLayerTableRecord
  2
SLD-0
 70
     0
 62
     7
  6
Continuous
370
    -3
390
F
  0
LAYER
  5
74
330
2
100
AcDbSymbolTableRecord
100
AcDbLayerTableRecord
  2
LEVEL0
 70
     0
 62
     7
  6
Continuous
370
    -3
390
F
  0
LAYER
  5
75
330
2
100
AcDbSymbolTableRecord
100
AcDbLayerTableRecord
  2
1
 70
     0
 62
     7
  6
Continuous
370
    -3
390
F
  0
LAYER
  5
76
330
2
100
AcDbSymbolTableRecord
100
AcDbLayerTableRecord
  2
2
 70
     0
 62
     7
  6
Continuous
370
    -3
390
F
  0
LAYER
  5
77
330
2
100
AcDbSymbolTableRecord
100
AcDbLayerTableRecord
  2
3
 70
     0
 62
     7
  6
Continuous
370
    -3
390
F
  0
LAYER
  5
78
330
2
100
AcDbSymbolTableRecord
100
AcDbLayerTableRecord
  2
4
 70
     0
 62
     7
  6
Continuous
370
    -3
390
F
  0
LAYER
  5
79
330
2
100
AcDbSymbolTableRecord
100
AcDbLayerTableRecord
  2
5
 70
     0
 62
     7
  6
Continuous
370
    -3
390
F
  0
LAYER
  5
7A
330
2
100
AcDbSymbolTableRecord
100
AcDbLayerTableRecord
  2
6
 70
     0
 62
     7
  6
Continuous
370
    -3
390
F
  0
LAYER
  5
7B
330
2
100
AcDbSymbolTableRecord
100
AcDbLayerTableRecord
  2
7
 70
     0
 62
     7
  6
Continuous
370
    -3
390
F
  0
LAYER
  5
7C
330
2
100
AcDbSymbolTableRecord
100
AcDbLayerTableRecord
  2
8
 70
     0
 62
     7
  6
Continuous
370
    -3
390
F
  0
LAYER
  5
7D
330
2
100
AcDbSymbolTableRecord
100
AcDbLayerTableRecord
  2
9
 70
     0
 62
     7
  6
Continuous
370
    -3
390
F
  0
LAYER
  5
7E
330
2
100
AcDbSymbolTableRecord
100
AcDbLayerTableRecord
  2
10
 70
     0
 62
     7
  6
Continuous
370
    -3
390
F
  0
LAYER
  5
7F
330
2
100
AcDbSymbolTableRecord
100
AcDbLayerTableRecord
  2
11
 70
     0
 62
     7
  6
Continuous
370
    -3
390
F
  0
LAYER
  5
80
330
2
100
AcDbSymbolTableRecord
100
AcDbLayerTableRecord
  2
12
 70
     0
 62
     7
  6
Continuous
370
    -3
390
F
  0
LAYER
  5
81
330
2
100
AcDbSymbolTableRecord
100
AcDbLayerTableRecord
  2
13
 70
     0
 62
     7
  6
Continuous
370
    -3
390
F
  0
LAYER
  5
82
330
2
100
AcDbSymbolTableRecord
100
AcDbLayerTableRecord
  2
14
 70
     0
 62
     7
  6
Continuous
370
    -3
390
F
  0
LAYER
  5
83
330
2
100
AcDbSymbolTableRecord
100
AcDbLayerTableRecord
  2
15
 70
     0
 62
     7
  6
Continuous
370
    -3
390
F
  0
LAYER
  5
84
330
2
100
AcDbSymbolTableRecord
100
AcDbLayerTableRecord
  2
16
 70
     0
 62
     7
  6
Continuous
370
    -3
390
F
  0
LAYER
  5
85
330
2
100
AcDbSymbolTableRecord
100
AcDbLayerTableRecord
  2
17
 70
     0
 62
     7
  6
Continuous
370
    -3
390
F
  0
LAYER
  5
86
330
2
100
AcDbSymbolTableRecord
100
AcDbLayerTableRecord
  2
18
 70
     0
 62
     7
  6
Continuous
370
    -3
390
F
  0
LAYER
  5
87
330
2
100
AcDbSymbolTableRecord
100
AcDbLayerTableRecord
  2
19
 70
     0
 62
     7
  6
Continuous
370
    -3
390
F
  0
LAYER
  5
88
330
2
100
AcDbSymbolTableRecord
100
AcDbLayerTableRecord
  2
20
 70
     0
 62
     7
  6
Continuous
370
    -3
390
F
  0
LAYER
  5
89
330
2
100
AcDbSymbolTableRecord
100
AcDbLayerTableRecord
  2
21
 70
     0
 62
     7
  6
Continuous
370
    -3
390
F
  0
LAYER
  5
8A
330
2
100
AcDbSymbolTableRecord
100
AcDbLayerTableRecord
  2
22
 70
     0
 62
     7
  6
Continuous
370
    -3
390
F
  0
LAYER
  5
8B
330
2
100
AcDbSymbolTableRecord
100
AcDbLayerTableRecord
  2
23
 70
     0
 62
     7
  6
Continuous
370
    -3
390
F
  0
LAYER
  5
8C
330
2
100
AcDbSymbolTableRecord
100
AcDbLayerTableRecord
  2
24
 70
     0
 62
     7
  6
Continuous
370
    -3
390
F
  0
LAYER
  5
8D
330
2
100
AcDbSymbolTableRecord
100
AcDbLayerTableRecord
  2
25
 70
     0
 62
     7
  6
Continuous
370
    -3
390
F
  0
LAYER
  5
8E
330
2
100
AcDbSymbolTableRecord
100
AcDbLayerTableRecord
  2
26
 70
     0
 62
     7
  6
Continuous
370
    -3
390
F
  0
LAYER
  5
8F
330
2
100
AcDbSymbolTableRecord
100
AcDbLayerTableRecord
  2
27
 70
     0
 62
     7
  6
Continuous
370
    -3
390
F
  0
LAYER
  5
90
330
2
100
AcDbSymbolTableRecord
100
AcDbLayerTableRecord
  2
28
 70
     0
 62
     7
  6
Continuous
370
    -3
390
F
  0
LAYER
  5
91
330
2
100
AcDbSymbolTableRecord
100
AcDbLayerTableRecord
  2
29
 70
     0
 62
     7
  6
Continuous
370
    -3
390
F
  0
LAYER
  5
92
330
2
100
AcDbSymbolTableRecord
100
AcDbLayerTableRecord
  2
30
 70
     0
 62
     7
  6
Continuous
370
    -3
390
F
  0
LAYER
  5
93
330
2
100
AcDbSymbolTableRecord
100
AcDbLayerTableRecord
  2
31
 70
     0
 62
     7
  6
Continuous
370
    -3
390
F
  0
LAYER
  5
94
330
2
100
AcDbSymbolTableRecord
100
AcDbLayerTableRecord
  2
32
 70
     0
 62
     7
  6
Continuous
370
    -3
390
F
  0
LAYER
  5
95
330
2
100
AcDbSymbolTableRecord
100
AcDbLayerTableRecord
  2
33
 70
     0
 62
     7
  6
Continuous
370
    -3
390
F
  0
LAYER
  5
96
330
2
100
AcDbSymbolTableRecord
100
AcDbLayerTableRecord
  2
34
 70
     0
 62
     7
  6
Continuous
370
    -3
390
F
  0
LAYER
  5
97
330
2
100
AcDbSymbolTableRecord
100
AcDbLayerTableRecord
  2
35
 70
     0
 62
     7
  6
Continuous
370
    -3
390
F
  0
LAYER
  5
98
330
2
100
AcDbSymbolTableRecord
100
AcDbLayerTableRecord
  2
36
 70
     0
 62
     7
  6
Continuous
370
    -3
390
F
  0
LAYER
  5
99
330
2
100
AcDbSymbolTableRecord
100
AcDbLayerTableRecord
  2
37
 70
     0
 62
     7
  6
Continuous
370
    -3
390
F
  0
LAYER
  5
9A
330
2
100
AcDbSymbolTableRecord
100
AcDbLayerTableRecord
  2
38
 70
     0
 62
     7
  6
Continuous
370
    -3
390
F
  0
LAYER
  5
9B
330
2
100
AcDbSymbolTableRecord
100
AcDbLayerTableRecord
  2
39
 70
     0
 62
     7
  6
Continuous
370
    -3
390
F
  0
LAYER
  5
9C
330
2
100
AcDbSymbolTableRecord
100
AcDbLayerTableRecord
  2
40
 70
     0
 62
     7
  6
Continuous
370
    -3
390
F
  0
LAYER
  5
9D
330
2
100
AcDbSymbolTableRecord
100
AcDbLayerTableRecord
  2
41
 70
     0
 62
     7
  6
Continuous
370
    -3
390
F
  0
LAYER
  5
9E
330
2
100
AcDbSymbolTableRecord
100
AcDbLayerTableRecord
  2
42
 70
     0
 62
     7
  6
Continuous
370
    -3
390
F
  0
LAYER
  5
9F
330
2
100
AcDbSymbolTableRecord
100
AcDbLayerTableRecord
  2
43
 70
     0
 62
     7
  6
Continuous
370
    -3
390
F
  0
LAYER
  5
A0
330
2
100
AcDbSymbolTableRecord
100
AcDbLayerTableRecord
  2
44
 70
     0
 62
     7
  6
Continuous
370
    -3
390
F
  0
LAYER
  5
A1
330
2
100
AcDbSymbolTableRecord
100
AcDbLayerTableRecord
  2
45
 70
     0
 62
     7
  6
Continuous
370
    -3
390
F
  0
LAYER
  5
A2
330
2
100
AcDbSymbolTableRecord
100
AcDbLayerTableRecord
  2
46
 70
     0
 62
     7
  6
Continuous
370
    -3
390
F
  0
LAYER
  5
A3
330
2
100
AcDbSymbolTableRecord
100
AcDbLayerTableRecord
  2
47
 70
     0
 62
     7
  6
Continuous
370
    -3
390
F
  0
LAYER
  5
A4
330
2
100
AcDbSymbolTableRecord
100
AcDbLayerTableRecord
  2
48
 70
     0
 62
     7
  6
Continuous
370
    -3
390
F
  0
LAYER
  5
A5
330
2
100
AcDbSymbolTableRecord
100
AcDbLayerTableRecord
  2
49
 70
     0
 62
     7
  6
Continuous
370
    -3
390
F
  0
LAYER
  5
A6
330
2
100
AcDbSymbolTableRecord
100
AcDbLayerTableRecord
  2
50
 70
     0
 62
     7
  6
Continuous
370
    -3
390
F
  0
ENDTAB
  0
TABLE
  2
STYLE
  5
3
330
0
100
AcDbSymbolTable
 70
     2
  0
STYLE
  5
11
330
3
100
AcDbSymbolTableRecord
100
AcDbTextStyleTableRecord
  2
Standard
 70
     0
 40
0.0
 41
1.0
 50
0.0
 71
     0
 42
2.0
  3
txt
  4

  0
STYLE
  5
AA
330
3
100
AcDbSymbolTableRecord
100
AcDbTextStyleTableRecord
  2
SLDTEXTSTYLE0
 70
     0
 40
0.0
 41
0.75
 50
0.0
 71
     0
 42
2.0
  3
TXT
  4

  0
ENDTAB
  0
TABLE
  2
VIEW
  5
6
330
0
100
AcDbSymbolTable
 70
     0
  0
ENDTAB
  0
TABLE
  2
UCS
  5
7
330
0
100
AcDbSymbolTable
 70
     0
  0
ENDTAB
  0
TABLE
  2
APPID
  5
9
330
0
100
AcDbSymbolTable
 70
     1
  0
APPID
  5
12
330
9
100
AcDbSymbolTableRecord
100
AcDbRegAppTableRecord
  2
ACAD
 70
     0
  0
ENDTAB
  0
TABLE
  2
DIMSTYLE
  5
A
330
0
100
AcDbSymbolTable
 70
     7
100
AcDbDimStyleTable
  0
DIMSTYLE
105
27
330
A
100
AcDbSymbolTableRecord
100
AcDbDimStyleTableRecord
  2
ISO-25
 70
     0
 41
2.5
 42
0.625
 43
3.75
 44
1.25
 73
     0
 74
     0
 77
     1
 78
     8
140
2.5
141
2.5
143
0.0393700787
147
0.625
171
     3
172
     1
178
     0
271
     2
272
     2
274
     3
278
    44
283
     0
284
     8
340
11
  0
DIMSTYLE
105
C1
102
{ACAD_REACTORS
330
C0
330
E2
102
}
330
A
100
AcDbSymbolTableRecord
100
AcDbDimStyleTableRecord
  2
SLDDIMSTYLE0
 70
     0
 41
2.0
 44
0.0
 45
0.000000001
 47
0.3
 48
0.2
 71
     1
 73
     0
 74
     0
 77
     1
 78
    12
 79
     3
140
2.0
143
0.0393700787
147
0.5
148
0.000000001
170
     1
171
     3
173
     1
178
     0
271
     1
272
     1
274
     3
276
     2
284
     8
340
AA
341
C2
343
C2
344
C2
  0
DIMSTYLE
105
FD
102
{ACAD_REACTORS
330
FC
102
}
330
A
100
AcDbSymbolTableRecord
100
AcDbDimStyleTableRecord
  2
SLDDIMSTYLE1
 70
     0
 41
2.0
 44
0.0
 45
0.000000001
 73
     0
 74
     0
 77
     1
 78
    12
 79
     3
140
2.0
141
0.0
143
0.0393700787
147
0.5
148
0.000000001
170
     1
173
     1
178
     0
271
     1
272
     1
276
     2
279
     1
284
    12
340
AA
341
C2
343
C2
344
C2
  0
DIMSTYLE
105
10D
102
{ACAD_REACTORS
330
10C
330
120
330
15C
102
}
330
A
100
AcDbSymbolTableRecord
100
AcDbDimStyleTableRecord
  2
SLDDIMSTYLE2
 70
     0
 41
2.0
 44
0.0
 45
0.000000001
 73
     0
 74
     0
 77
     1
 78
    12
 79
     3
140
2.0
143
0.0393700787
147
0.5
148
0.000000001
170
     1
173
     1
178
     0
271
     1
272
     1
276
     2
284
    12
340
AA
341
C2
343
C2
344
C2
  0
DIMSTYLE
105
134
102
{ACAD_REACTORS
330
133
330
148
102
}
330
A
100
AcDbSymbolTableRecord
100
AcDbDimStyleTableRecord
  2
SLDDIMSTYLE3
 70
     0
 41
2.0
 44
0.0
 45
0.000000001
 73
     0
 74
     0
 77
     1
 78
    12
 79
     3
140
2.0
143
0.0393700787
147
0.5
148
0.000000001
170
     1
172
     1
173
     1
178
     0
271
     1
272
     1
276
     2
284
    12
289
     0
340
AA
341
C2
343
C2
344
C2
  0
DIMSTYLE
105
16F
102
{ACAD_REACTORS
330
16E
102
}
330
A
100
AcDbSymbolTableRecord
100
AcDbDimStyleTableRecord
  2
SLDDIMSTYLE4
 70
     0
 41
2.0
 44
0.0
 45
0.000000001
 73
     0
 74
     0
 77
     1
 78
    12
 79
     3
140
2.0
141
0.0
143
0.0393700787
147
0.5
148
0.000000001
170
     1
173
     1
178
     0
271
     1
272
     1
276
     2
279
     1
284
    12
340
AA
341
C2
343
C2
344
C2
  0
DIMSTYLE
105
184
330
A
100
AcDbSymbolTableRecord
100
AcDbDimStyleTableRecord
  2
SLDDIMSTYLE5
 70
     0
 41
2.0
 44
0.0
 45
0.000000001
146
2.0
147
0.0
173
     1
178
     0
271
     0
272
     0
276
     2
340
11
  0
ENDTAB
  0
TABLE
  2
BLOCK_RECORD
  5
1
330
0
100
AcDbSymbolTable
 70
    17
  0
BLOCK_RECORD
  5
1F
330
1
100
AcDbSymbolTableRecord
100
AcDbBlockTableRecord
  2
*Model_Space
340
22
  0
BLOCK_RECORD
  5
1B
330
1
100
AcDbSymbolTableRecord
100
AcDbBlockTableRecord
  2
*Paper_Space
340
1E
  0
BLOCK_RECORD
  5
23
330
1
100
AcDbSymbolTableRecord
100
AcDbBlockTableRecord
  2
*Paper_Space0
340
26
  0
BLOCK_RECORD
  5
A7
330
1
100
AcDbSymbolTableRecord
100
AcDbBlockTableRecord
  2
SW_NOTE_0
340
0
102
{BLKREFS
331
AF
102
}
  0
BLOCK_RECORD
  5
C2
330
1
100
AcDbSymbolTableRecord
100
AcDbBlockTableRecord
  2
_Closed
340
0
102
{BLKREFS
331
CC
331
CD
331
E6
331
E7
331
101
331
111
331
112
331
124
331
125
331
138
331
139
331
14C
331
14D
331
160
331
161
331
173
102
}
  0
BLOCK_RECORD
  5
C9
330
1
100
AcDbSymbolTableRecord
100
AcDbBlockTableRecord
  2
_D
340
0
  0
BLOCK_RECORD
  5
E3
330
1
100
AcDbSymbolTableRecord
100
AcDbBlockTableRecord
  2
_D_1
340
0
  0
BLOCK_RECORD
  5
FE
330
1
100
AcDbSymbolTableRecord
100
AcDbBlockTableRecord
  2
_D_2
340
0
  0
BLOCK_RECORD
  5
10E
330
1
100
AcDbSymbolTableRecord
100
AcDbBlockTableRecord
  2
_D_3
340
0
  0
BLOCK_RECORD
  5
121
330
1
100
AcDbSymbolTableRecord
100
AcDbBlockTableRecord
  2
_D_4
340
0
  0
BLOCK_RECORD
  5
135
330
1
100
AcDbSymbolTableRecord
100
AcDbBlockTableRecord
  2
_D_5
340
0
  0
BLOCK_RECORD
  5
149
330
1
100
AcDbSymbolTableRecord
100
AcDbBlockTableRecord
  2
_D_6
340
0
  0
BLOCK_RECORD
  5
15D
330
1
100
AcDbSymbolTableRecord
100
AcDbBlockTableRecord
  2
_D_7
340
0
  0
BLOCK_RECORD
  5
170
330
1
100
AcDbSymbolTableRecord
100
AcDbBlockTableRecord
  2
_D_8
340
0
  0
BLOCK_RECORD
  5
17F
330
1
100
AcDbSymbolTableRecord
100
AcDbBlockTableRecord
  2
SW_NOTE_0_1
340
0
102
{BLKREFS
331
183
102
}
  0
BLOCK_RECORD
  5
186
330
1
100
AcDbSymbolTableRecord
100
AcDbBlockTableRecord
  2
SW_CENTERMARKSYMBOL_0
340
0
102
{BLKREFS
331
191
102
}
  0
BLOCK_RECORD
  5
192
330
1
100
AcDbSymbolTableRecord
100
AcDbBlockTableRecord
  2
SW_CENTERMARKSYMBOL_1
340
0
102
{BLKREFS
331
19D
102
}
  0
BLOCK_RECORD
  5
19E
330
1
100
AcDbSymbolTableRecord
100
AcDbBlockTableRecord
  2
SW_CENTERMARKSYMBOL_2
340
0
102
{BLKREFS
331
1A9
102
}
  0
BLOCK_RECORD
  5
1AA
330
1
100
AcDbSymbolTableRecord
100
AcDbBlockTableRecord
  2
SW_CENTERMARKSYMBOL_3
340
0
102
{BLKREFS
331
1B5
102
}
  0
ENDTAB
  0
ENDSEC
  0
SECTION
  2
BLOCKS
  0
BLOCK
  5
20
330
1F
100
AcDbEntity
  8
0
100
AcDbBlockBegin
  2
*Model_Space
 70
     0
 10
0.0
 20
0.0
 30
0.0
  3
*Model_Space
  1

  0
ENDBLK
  5
21
330
1F
100
AcDbEntity
  8
0
100
AcDbBlockEnd
  0
BLOCK
  5
1C
330
1B
100
AcDbEntity
 67
     1
  8
0
100
AcDbBlockBegin
  2
*Paper_Space
 70
     0
 10
0.0
 20
0.0
 30
0.0
  3
*Paper_Space
  1

  0
ENDBLK
  5
1D
330
1B
100
AcDbEntity
 67
     1
  8
0
100
AcDbBlockEnd
  0
BLOCK
  5
24
330
23
100
AcDbEntity
  8
0
100
AcDbBlockBegin
  2
*Paper_Space0
 70
     0
 10
0.0
 20
0.0
 30
0.0
  3
*Paper_Space0
  1

  0
ENDBLK
  5
25
330
23
100
AcDbEntity
  8
0
100
AcDbBlockEnd
  0
BLOCK
  5
A8
330
A7
100
AcDbEntity
  8
0
100
AcDbBlockBegin
  2
SW_NOTE_0
 70
     0
 10
0.0
 20
0.0
 30
0.0
  3
SW_NOTE_0
  1

  0
MTEXT
  5
AB
330
A7
100
AcDbEntity
  8
LEVEL0
 62
     0
100
AcDbMText
 10
0.0
 20
4.0927900738
 30
0.0
 40
3.175
 41
0.0
 71
     1
 72
     1
  1
CUTOUT ROUTING TEMPLATE
  7
SLDTEXTSTYLE0
 73
     1
 44
1.0
  0
MTEXT
  5
AC
330
A7
100
AcDbEntity
  8
LEVEL0
 62
     0
100
AcDbMText
 10
0.0
 20
-0.1405432084
 30
0.0
 40
3.175
 41
0.0
 71
     1
 72
     1
  1
007-1-849
  7
SLDTEXTSTYLE0
 73
     1
 44
1.0
  0
MTEXT
  5
AD
330
A7
100
AcDbEntity
  8
LEVEL0
 62
     0
100
AcDbMText
 10
0.0
 20
-8.6072097727
 30
0.0
 40
3.175
 41
0.0
 71
     1
 72
     1
  1
SCALE 1:1
  7
SLDTEXTSTYLE0
 73
     1
 44
1.0
  0
MTEXT
  5
AE
330
A7
100
AcDbEntity
  8
LEVEL0
 62
     0
100
AcDbMText
 10
0.0
 20
-17.0270287174
 30
0.0
 40
2.1166666667
 41
0.0
 71
     1
 72
     1
  1
CONTACT WALL-SMART FOR DXF FILE
  7
SLDTEXTSTYLE0
 73
     1
 44
1.0
  0
ENDBLK
  5
A9
330
A7
100
AcDbEntity
  8
0
100
AcDbBlockEnd
  0
BLOCK
  5
C3
330
C2
100
AcDbEntity
  8
0
100
AcDbBlockBegin
  2
_Closed
 70
     0
 10
0.0
 20
0.0
 30
0.0
  3
_Closed
  1

  0
LINE
  5
C5
330
C2
100
AcDbEntity
  8
0
  6
ByBlock
 62
     0
370
    -2
100
AcDbLine
 10
-1.0
 20
0.166667
 30
0.0
 11
0.0
 21
0.0
 31
0.0
  0
LINE
  5
C6
330
C2
100
AcDbEntity
  8
0
  6
ByBlock
 62
     0
370
    -2
100
AcDbLine
 10
0.0
 20
0.0
 30
0.0
 11
-1.0
 21
-0.166667
 31
0.0
  0
LINE
  5
C7
330
C2
100
AcDbEntity
  8
0
  6
ByBlock
 62
     0
370
    -2
100
AcDbLine
 10
-1.0
 20
0.166667
 30
0.0
 11
-1.0
 21
-0.166667
 31
0.0
  0
LINE
  5
C8
330
C2
100
AcDbEntity
  8
0
  6
ByBlock
 62
     0
370
    -2
100
AcDbLine
 10
0.0
 20
0.0
 30
0.0
 11
-1.0
 21
0.0
 31
0.0
  0
ENDBLK
  5
C4
330
C2
100
AcDbEntity
  8
0
100
AcDbBlockEnd
  0
BLOCK
  5
CA
330
C9
100
AcDbEntity
  8
0
100
AcDbBlockBegin
  2
_D
 70
     0
 10
0.0
 20
0.0
 30
0.0
  3
_D
  1

  0
INSERT
  5
CC
330
C9
100
AcDbEntity
  8
LEVEL0
100
AcDbBlockReference
  2
_Closed
 10
13.1140922731
 20
149.1486796528
 30
-9.6
 41
2.0
 42
2.0
 50
180.0
  0
INSERT
  5
CD
330
C9
100
AcDbEntity
  8
LEVEL0
100
AcDbBlockReference
  2
_Closed
 10
184.0779527863
 20
149.1486796528
 30
-9.6
 41
2.0
 42
2.0
 50
0.0
  0
LINE
  5
CE
330
C9
100
AcDbEntity
  8
LEVEL0
100
AcDbLine
 10
74.8435532307
 20
163.0743740476
 30
0.0
 11
74.2341782181
 21
163.0743740476
 31
0.0
  0
LINE
  5
CF
330
C9
100
AcDbEntity
  8
LEVEL0
100
AcDbLine
 10
74.2341782181
 20
163.0743740476
 30
0.0
 11
74.2341782181
 21
157.9021516606
 31
0.0
  0
LINE
  5
D0
330
C9
100
AcDbEntity
  8
LEVEL0
100
AcDbLine
 10
74.2341782181
 20
157.9021516606
 30
0.0
 11
74.8435532307
 21
157.9021516606
 31
0.0
  0
LINE
  5
D1
330
C9
100
AcDbEntity
  8
LEVEL0
100
AcDbLine
 10
90.4991080617
 20
163.0743740476
 30
0.0
 11
91.1084830743
 21
163.0743740476
 31
0.0
  0
LINE
  5
D2
330
C9
100
AcDbEntity
  8
LEVEL0
100
AcDbLine
 10
91.1084830743
 20
163.0743740476
 30
0.0
 11
91.1084830743
 21
157.9021516606
 31
0.0
  0
LINE
  5
D3
330
C9
100
AcDbEntity
  8
LEVEL0
100
AcDbLine
 10
91.1084830743
 20
157.9021516606
 30
0.0
 11
90.4991080617
 21
157.9021516606
 31
0.0
  0
LINE
  5
D4
330
C9
100
AcDbEntity
  8
LEVEL0
100
AcDbLine
 10
13.1140922731
 20
149.1486796528
 30
0.0
 11
184.0779527863
 21
149.1486796528
 31
0.0
  0
MTEXT
  5
D5
330
C9
100
AcDbEntity
  8
LEVEL0
100
AcDbMText
 10
74.8435532307
 20
160.5108426696
 30
0.0
 40
2.0
 41
0.0
 71
     1
 72
     1
  1
6.731
  7
SLDTEXTSTYLE0
 73
     1
 44
1.0
  0
MTEXT
  5
D6
330
C9
100
AcDbEntity
  8
LEVEL0
100
AcDbMText
 10
82.24355311
 20
160.5108426696
 30
0.0
 40
2.0
 41
0.0
 71
     1
 72
     1
  1

  7
SLDTEXTSTYLE0
 73
     1
 44
1.0
  0
MTEXT
  5
D7
330
C9
100
AcDbEntity
  8
LEVEL0
100
AcDbMText
 10
82.232442089
 20
163.0663983336
 30
0.0
 40
2.0
 41
0.0
 71
     1
 72
     1
  1
+
  7
SLDTEXTSTYLE0
 73
     1
 44
1.0
  0
MTEXT
  5
D8
330
C9
100
AcDbEntity
  8
LEVEL0
100
AcDbMText
 10
82.5977198704
 20
160.4802871401
 30
0.0
 40
2.0
 41
0.0
 71
     1
 72
     1
  1
-
  7
SLDTEXTSTYLE0
 73
     1
 44
1.0
  0
MTEXT
  5
D9
330
C9
100
AcDbEntity
  8
LEVEL0
100
AcDbMText
 10
83.8491081824
 20
163.0663983336
 30
0.0
 40
2.0
 41
0.0
 71
     1
 72
     1
  1
0.012
  7
SLDTEXTSTYLE0
 73
     1
 44
1.0
  0
MTEXT
  5
DA
330
C9
100
AcDbEntity
  8
LEVEL0
100
AcDbMText
 10
83.8491081824
 20
160.4802871401
 30
0.0
 40
2.0
 41
0.0
 71
     1
 72
     1
  1
0.008
  7
SLDTEXTSTYLE0
 73
     1
 44
1.0
  0
MTEXT
  5
DB
330
C9
100
AcDbEntity
  8
LEVEL0
100
AcDbMText
 10
77.4296643078
 20
154.9018143954
 30
0.0
 40
2.0
 41
0.0
 71
     1
 72
     1
  1
171
  7
SLDTEXTSTYLE0
 73
     1
 44
1.0
  0
MTEXT
  5
DC
330
C9
100
AcDbEntity
  8
LEVEL0
100
AcDbMText
 10
82.6129972502
 20
154.9018143954
 30
0.0
 40
2.0
 41
0.0
 71
     1
 72
     1
  1

  7
SLDTEXTSTYLE0
 73
     1
 44
1.0
  0
MTEXT
  5
DD
330
C9
100
AcDbEntity
  8
LEVEL0
100
AcDbMText
 10
82.6018862292
 20
157.487925589
 30
0.0
 40
2.0
 41
0.0
 71
     1
 72
     1
  1
+
  7
SLDTEXTSTYLE0
 73
     1
 44
1.0
  0
MTEXT
  5
DE
330
C9
100
AcDbEntity
  8
LEVEL0
100
AcDbMText
 10
82.9671640106
 20
154.9018143954
 30
0.0
 40
2.0
 41
0.0
 71
     1
 72
     1
  1
-
  7
SLDTEXTSTYLE0
 73
     1
 44
1.0
  0
MTEXT
  5
DF
330
C9
100
AcDbEntity
  8
LEVEL0
100
AcDbMText
 10
84.218553254
 20
157.487925589
 30
0.0
 40
2.0
 41
0.0
 71
     1
 72
     1
  1
0.3
  7
SLDTEXTSTYLE0
 73
     1
 44
1.0
  0
MTEXT
  5
E0
330
C9
100
AcDbEntity
  8
LEVEL0
100
AcDbMText
 10
84.218553254
 20
154.9018143954
 30
0.0
 40
2.0
 41
0.0
 71
     1
 72
     1
  1
0.2
  7
SLDTEXTSTYLE0
 73
     1
 44
1.0
  0
MTEXT
  5
E1
330
C9
100
AcDbEntity
  8
LEVEL0
100
AcDbMText
 10
75.0143863126
 20
151.7268148995
 30
0.0
 40
2.0
 41
0.0
 71
     1
 72
     1
  1
ROUTE THRU
  7
SLDTEXTSTYLE0
 73
     1
 44
1.0
  0
ENDBLK
  5
CB
330
C9
100
AcDbEntity
  8
0
100
AcDbBlockEnd
  0
BLOCK
  5
E4
330
E3
100
AcDbEntity
  8
0
100
AcDbBlockBegin
  2
_D_1
 70
     0
 10
0.0
 20
0.0
 30
0.0
  3
_D_1
  1

  0
INSERT
  5
E6
330
E3
100
AcDbEntity
  8
LEVEL0
100
AcDbBlockReference
  2
_Closed
 10
120.802070935
 20
273.0874636721
 30
-9.6
 41
2.0
 42
2.0
 50
90.0
  0
INSERT
  5
E7
330
E3
100
AcDbEntity
  8
LEVEL0
100
AcDbBlockReference
  2
_Closed
 10
120.802070935
 20
25.3236031588
 30
-9.6
 41
2.0
 42
2.0
 50
270.0
  0
LINE
  5
E8
330
E3
100
AcDbEntity
  8
LEVEL0
100
AcDbLine
 10
106.8763765401
 20
178.906054553
 30
0.0
 11
106.8763765401
 21
178.2966795404
 31
0.0
  0
LINE
  5
E9
330
E3
100
AcDbEntity
  8
LEVEL0
100
AcDbLine
 10
106.8763765401
 20
178.2966795404
 30
0.0
 11
112.0485989271
 21
178.2966795404
 31
0.0
  0
LINE
  5
EA
330
E3
100
AcDbEntity
  8
LEVEL0
100
AcDbLine
 10
112.0485989271
 20
178.2966795404
 30
0.0
 11
112.0485989271
 21
178.906054553
 31
0.0
  0
LINE
  5
EB
330
E3
100
AcDbEntity
  8
LEVEL0
100
AcDbLine
 10
106.8763765401
 20
194.561609384
 30
0.0
 11
106.8763765401
 21
195.1709843966
 31
0.0
  0
LINE
  5
EC
330
E3
100
AcDbEntity
  8
LEVEL0
100
AcDbLine
 10
106.8763765401
 20
195.1709843966
 30
0.0
 11
112.0485989271
 21
195.1709843966
 31
0.0
  0
LINE
  5
ED
330
E3
100
AcDbEntity
  8
LEVEL0
100
AcDbLine
 10
112.0485989271
 20
195.1709843966
 30
0.0
 11
112.0485989271
 21
194.561609384
 31
0.0
  0
LINE
  5
EE
330
E3
100
AcDbEntity
  8
LEVEL0
100
AcDbLine
 10
120.802070935
 20
273.0874636721
 30
0.0
 11
120.802070935
 21
25.3236031588
 31
0.0
  0
MTEXT
  5
EF
330
E3
100
AcDbEntity
  8
LEVEL0
100
AcDbMText
 10
109.4399079181
 20
178.906054553
 30
0.0
 40
2.0
 41
0.0
 71
     1
 72
     1
  1
9.754
  7
SLDTEXTSTYLE0
 11
-7.044195017643634E-15
 21
1.0
 31
0.0
 73
     1
 44
1.0
  0
MTEXT
  5
F0
330
E3
100
AcDbEntity
  8
LEVEL0
100
AcDbMText
 10
109.4399079181
 20
186.3060544323
 30
0.0
 40
2.0
 41
0.0
 71
     1
 72
     1
  1

  7
SLDTEXTSTYLE0
 11
-7.044195017643634E-15
 21
1.0
 31
0.0
 73
     1
 44
1.0
  0
MTEXT
  5
F1
330
E3
100
AcDbEntity
  8
LEVEL0
100
AcDbMText
 10
106.8843522541
 20
186.2949434112
 30
0.0
 40
2.0
 41
0.0
 71
     1
 72
     1
  1
+
  7
SLDTEXTSTYLE0
 11
-7.044195017643634E-15
 21
1.0
 31
0.0
 73
     1
 44
1.0
  0
MTEXT
  5
F2
330
E3
100
AcDbEntity
  8
LEVEL0
100
AcDbMText
 10
109.4704634476
 20
186.6602211926
 30
0.0
 40
2.0
 41
0.0
 71
     1
 72
     1
  1
-
  7
SLDTEXTSTYLE0
 11
-7.044195017643634E-15
 21
1.0
 31
0.0
 73
     1
 44
1.0
  0
MTEXT
  5
F3
330
E3
100
AcDbEntity
  8
LEVEL0
100
AcDbMText
 10
106.8843522541
 20
187.9116095047
 30
0.0
 40
2.0
 41
0.0
 71
     1
 72
     1
  1
0.012
  7
SLDTEXTSTYLE0
 11
-7.044195017643634E-15
 21
1.0
 31
0.0
 73
     1
 44
1.0
  0
MTEXT
  5
F4
330
E3
100
AcDbEntity
  8
LEVEL0
100
AcDbMText
 10
109.4704634476
 20
187.9116095047
 30
0.0
 40
2.0
 41
0.0
 71
     1
 72
     1
  1
0.008
  7
SLDTEXTSTYLE0
 11
-7.044195017643634E-15
 21
1.0
 31
0.0
 73
     1
 44
1.0
  0
MTEXT
  5
F5
330
E3
100
AcDbEntity
  8
LEVEL0
100
AcDbMText
 10
115.0489361923
 20
180.3838321616
 30
0.0
 40
2.0
 41
0.0
 71
     1
 72
     1
  1
247.8
  7
SLDTEXTSTYLE0
 11
-7.044195017643634E-15
 21
1.0
 31
0.0
 73
     1
 44
1.0
  0
MTEXT
  5
F6
330
E3
100
AcDbEntity
  8
LEVEL0
100
AcDbMText
 10
115.0489361923
 20
187.7838320409
 30
0.0
 40
2.0
 41
0.0
 71
     1
 72
     1
  1

  7
SLDTEXTSTYLE0
 11
-7.044195017643634E-15
 21
1.0
 31
0.0
 73
     1
 44
1.0
  0
MTEXT
  5
F7
330
E3
100
AcDbEntity
  8
LEVEL0
100
AcDbMText
 10
112.4628249987
 20
187.7727210199
 30
0.0
 40
2.0
 41
0.0
 71
     1
 72
     1
  1
+
  7
SLDTEXTSTYLE0
 11
-7.044195017643634E-15
 21
1.0
 31
0.0
 73
     1
 44
1.0
  0
MTEXT
  5
F8
330
E3
100
AcDbEntity
  8
LEVEL0
100
AcDbMText
 10
115.0489361923
 20
188.1379988013
 30
0.0
 40
2.0
 41
0.0
 71
     1
 72
     1
  1
-
  7
SLDTEXTSTYLE0
 11
-7.044195017643634E-15
 21
1.0
 31
0.0
 73
     1
 44
1.0
  0
MTEXT
  5
F9
330
E3
100
AcDbEntity
  8
LEVEL0
100
AcDbMText
 10
112.4628249987
 20
189.3893871133
 30
0.0
 40
2.0
 41
0.0
 71
     1
 72
     1
  1
0.3
  7
SLDTEXTSTYLE0
 11
-7.044195017643634E-15
 21
1.0
 31
0.0
 73
     1
 44
1.0
  0
MTEXT
  5
FA
330
E3
100
AcDbEntity
  8
LEVEL0
100
AcDbMText
 10
115.0489361923
 20
189.3893871133
 30
0.0
 40
2.0
 41
0.0
 71
     1
 72
     1
  1
0.2
  7
SLDTEXTSTYLE0
 11
-7.044195017643634E-15
 21
1.0
 31
0.0
 73
     1
 44
1.0
  0
MTEXT
  5
FB
330
E3
100
AcDbEntity
  8
LEVEL0
100
AcDbMText
 10
118.2239356882
 20
179.0768876349
 30
0.0
 40
2.0
 41
0.0
 71
     1
 72
     1
  1
ROUTE THRU
  7
SLDTEXTSTYLE0
 11
-7.044195017643634E-15
 21
1.0
 31
0.0
 73
     1
 44
1.0
  0
ENDBLK
  5
E5
330
E3
100
AcDbEntity
  8
0
100
AcDbBlockEnd
  0
BLOCK
  5
FF
330
FE
100
AcDbEntity
  8
0
100
AcDbBlockBegin
  2
_D_2
 70
     0
 10
0.0
 20
0.0
 30
0.0
  3
_D_2
  1

  0
INSERT
  5
101
330
FE
100
AcDbEntity
  8
LEVEL0
100
AcDbBlockReference
  2
_Closed
 10
15.8550574014
 20
272.3530242795
 30
-9.6
 41
2.0
 42
2.0
 50
119.6502359548
  0
LINE
  5
102
330
FE
100
AcDbEntity
  8
LEVEL0
100
AcDbLine
 10
25.6154189186
 20
267.4940139535
 30
0.0
 11
25.3107314123
 21
268.0217481948
 31
0.0
  0
LINE
  5
103
330
FE
100
AcDbEntity
  8
LEVEL0
100
AcDbLine
 10
25.3107314123
 20
268.0217481948
 30
0.0
 11
22.5611007885
 21
266.434248214
 31
0.0
  0
LINE
  5
104
330
FE
100
AcDbEntity
  8
LEVEL0
100
AcDbLine
 10
22.5611007885
 20
266.434248214
 30
0.0
 11
22.8657882948
 21
265.9065139726
 31
0.0
  0
LINE
  5
105
330
FE
100
AcDbEntity
  8
LEVEL0
100
AcDbLine
 10
28.2015298793
 20
263.0147383755
 30
0.0
 11
28.5062173855
 21
262.4870041342
 31
0.0
  0
LINE
  5
106
330
FE
100
AcDbEntity
  8
LEVEL0
100
AcDbLine
 10
28.5062173855
 20
262.4870041342
 30
0.0
 11
25.7565867618
 21
260.8995041534
 31
0.0
  0
LINE
  5
107
330
FE
100
AcDbEntity
  8
LEVEL0
100
AcDbLine
 10
25.7565867618
 20
260.8995041534
 30
0.0
 11
25.4518992555
 21
261.4272383947
 31
0.0
  0
LINE
  5
108
330
FE
100
AcDbEntity
  8
LEVEL0
100
AcDbLine
 10
15.8550574014
 20
272.3530242795
 30
0.0
 11
27.536480721
 21
251.831915213
 31
0.0
  0
MTEXT
  5
109
330
FE
100
AcDbEntity
  8
LEVEL0
100
AcDbMText
 10
25.0985191145
 20
267.1955817124
 30
0.0
 40
2.0
 41
0.0
 71
     1
 72
     1
  1
0.22
  7
SLDTEXTSTYLE0
 11
0.5000000000000078
 21
-0.8660254037844342
 31
0.0
 73
     1
 44
1.0
  0
MTEXT
  5
10A
330
FE
100
AcDbEntity
  8
LEVEL0
100
AcDbMText
 10
22.4716414532
 20
265.7607446504
 30
0.0
 40
2.0
 41
0.0
 71
     1
 72
     1
  1
R5.5
  7
SLDTEXTSTYLE0
 11
0.5000000000000078
 21
-0.8660254037844342
 31
0.0
 73
     1
 44
1.0
  0
MTEXT
  5
10B
330
FE
100
AcDbEntity
  8
LEVEL0
100
AcDbMText
 10
26.1040063516
 20
259.5304156194
 30
0.0
 40
2.0
 41
0.0
 71
     1
 72
     1
  1
TYPX4
  7
SLDTEXTSTYLE0
 11
0.5000000000000078
 21
-0.8660254037844342
 31
0.0
 73
     1
 44
1.0
  0
ENDBLK
  5
100
330
FE
100
AcDbEntity
  8
0
100
AcDbBlockEnd
  0
BLOCK
  5
10F
330
10E
100
AcDbEntity
  8
0
100
AcDbBlockBegin
  2
_D_3
 70
     0
 10
0.0
 20
0.0
 30
0.0
  3
_D_3
  1

  0
INSERT
  5
111
330
10E
100
AcDbEntity
  8
LEVEL0
100
AcDbBlockReference
  2
_Closed
 10
38.0009900845
 20
281.0874636721
 30
-9.6
 41
2.0
 42
2.0
 50
90.0
  0
INSERT
  5
112
330
10E
100
AcDbEntity
  8
LEVEL0
100
AcDbBlockReference
  2
_Closed
 10
38.0009900845
 20
17.3236031588
 30
-9.6
 41
2.0
 42
2.0
 50
270.0
  0
LINE
  5
113
330
10E
100
AcDbEntity
  8
LEVEL0
100
AcDbLine
 10
31.8336290374
 20
115.5749091197
 30
0.0
 11
31.8336290374
 21
114.9655341071
 31
0.0
  0
LINE
  5
114
330
10E
100
AcDbEntity
  8
LEVEL0
100
AcDbLine
 10
31.8336290374
 20
114.9655341071
 30
0.0
 11
35.008628999
 21
114.9655341071
 31
0.0
  0
LINE
  5
115
330
10E
100
AcDbEntity
  8
LEVEL0
100
AcDbLine
 10
35.008628999
 20
114.9655341071
 30
0.0
 11
35.008628999
 21
115.5749091197
 31
0.0
  0
LINE
  5
116
330
10E
100
AcDbEntity
  8
LEVEL0
100
AcDbLine
 10
31.8336290374
 20
122.224908999
 30
0.0
 11
31.8336290374
 21
122.8342840115
 31
0.0
  0
LINE
  5
117
330
10E
100
AcDbEntity
  8
LEVEL0
100
AcDbLine
 10
31.8336290374
 20
122.8342840115
 30
0.0
 11
35.008628999
 21
122.8342840115
 31
0.0
  0
LINE
  5
118
330
10E
100
AcDbEntity
  8
LEVEL0
100
AcDbLine
 10
35.008628999
 20
122.8342840115
 30
0.0
 11
35.008628999
 21
122.224908999
 31
0.0
  0
LINE
  5
119
330
10E
100
AcDbEntity
  8
LEVEL0
100
AcDbLine
 10
9.6140922731
 20
281.0874636721
 30
0.0
 11
39.0009900845
 21
281.0874636721
 31
0.0
  0
LINE
  5
11A
330
10E
100
AcDbEntity
  8
LEVEL0
100
AcDbLine
 10
9.6140922731
 20
17.3236031588
 30
0.0
 11
39.0009900845
 21
17.3236031588
 31
0.0
  0
LINE
  5
11B
330
10E
100
AcDbEntity
  8
LEVEL0
100
AcDbLine
 10
38.0009900845
 20
281.0874636721
 30
0.0
 11
38.0009900845
 21
17.3236031588
 31
0.0
  0
MTEXT
  5
11C
330
10E
100
AcDbEntity
  8
LEVEL0
100
AcDbMText
 10
35.3922990754
 20
114.3783813694
 30
0.0
 40
2.0
 41
0.0
 71
     1
 72
     1
  1

  7
SLDTEXTSTYLE0
 11
-7.044195017643634E-15
 21
1.0
 31
0.0
 73
     1
 44
1.0
  0
MTEXT
  5
11D
330
10E
100
AcDbEntity
  8
LEVEL0
100
AcDbMText
 10
32.4304935195
 20
115.5749091197
 30
0.0
 40
2.0
 41
0.0
 71
     1
 72
     1
  1
10.38
  7
SLDTEXTSTYLE0
 11
-7.044195017643634E-15
 21
1.0
 31
0.0
 73
     1
 44
1.0
  0
MTEXT
  5
11E
330
10E
100
AcDbEntity
  8
LEVEL0
100
AcDbMText
 10
35.4228548378
 20
115.5749092361
 30
0.0
 40
2.0
 41
0.0
 71
     1
 72
     1
  1
263.8
  7
SLDTEXTSTYLE0
 11
-7.044195017643634E-15
 21
1.0
 31
0.0
 73
     1
 44
1.0
  0
MTEXT
  5
11F
330
10E
100
AcDbEntity
  8
LEVEL0
100
AcDbMText
 10
35.3922990754
 20
124.9436594898
 30
0.0
 40
2.0
 41
0.0
 71
     1
 72
     1
  1

  7
SLDTEXTSTYLE0
 11
-7.044195017643634E-15
 21
1.0
 31
0.0
 73
     1
 44
1.0
  0
ENDBLK
  5
110
330
10E
100
AcDbEntity
  8
0
100
AcDbBlockEnd
  0
BLOCK
  5
122
330
121
100
AcDbEntity
  8
0
100
AcDbBlockBegin
  2
_D_4
 70
     0
 10
0.0
 20
0.0
 30
0.0
  3
_D_4
  1

  0
INSERT
  5
124
330
121
100
AcDbEntity
  8
LEVEL0
100
AcDbBlockReference
  2
_Closed
 10
5.1140922731
 20
8.0482199523
 30
-9.6
 41
2.0
 42
2.0
 50
180.0
  0
INSERT
  5
125
330
121
100
AcDbEntity
  8
LEVEL0
100
AcDbBlockReference
  2
_Closed
 10
204.0779527863
 20
8.0482199523
 30
-9.6
 41
2.0
 42
2.0
 50
0.0
  0
LINE
  5
126
330
121
100
AcDbEntity
  8
LEVEL0
100
AcDbLine
 10
104.3499787912
 20
14.2155809994
 30
0.0
 11
103.7406037786
 21
14.2155809994
 31
0.0
  0
LINE
  5
127
330
121
100
AcDbEntity
  8
LEVEL0
100
AcDbLine
 10
103.7406037786
 20
14.2155809994
 30
0.0
 11
103.7406037786
 21
11.0405810378
 31
0.0
  0
LINE
  5
128
330
121
100
AcDbEntity
  8
LEVEL0
100
AcDbLine
 10
103.7406037786
 20
11.0405810378
 30
0.0
 11
104.3499787912
 21
11.0405810378
 31
0.0
  0
LINE
  5
129
330
121
100
AcDbEntity
  8
LEVEL0
100
AcDbLine
 10
109.5222007125
 20
14.2155809994
 30
0.0
 11
110.1315757251
 21
14.2155809994
 31
0.0
  0
LINE
  5
12A
330
121
100
AcDbEntity
  8
LEVEL0
100
AcDbLine
 10
110.1315757251
 20
14.2155809994
 30
0.0
 11
110.1315757251
 21
11.0405810378
 31
0.0
  0
LINE
  5
12B
330
121
100
AcDbEntity
  8
LEVEL0
100
AcDbLine
 10
110.1315757251
 20
11.0405810378
 30
0.0
 11
109.5222007125
 21
11.0405810378
 31
0.0
  0
LINE
  5
12C
330
121
100
AcDbEntity
  8
LEVEL0
100
AcDbLine
 10
5.1140922731
 20
12.8236031588
 30
0.0
 11
5.1140922731
 21
7.0482199523
 31
0.0
  0
LINE
  5
12D
330
121
100
AcDbEntity
  8
LEVEL0
100
AcDbLine
 10
204.0779527863
 20
12.8236031588
 30
0.0
 11
204.0779527863
 21
7.0482199523
 31
0.0
  0
LINE
  5
12E
330
121
100
AcDbEntity
  8
LEVEL0
100
AcDbLine
 10
5.1140922731
 20
8.0482199523
 30
0.0
 11
204.0779527863
 21
8.0482199523
 31
0.0
  0
MTEXT
  5
12F
330
121
100
AcDbEntity
  8
LEVEL0
100
AcDbMText
 10
103.1534510409
 20
10.6569109614
 30
0.0
 40
2.0
 41
0.0
 71
     1
 72
     1
  1

  7
SLDTEXTSTYLE0
 73
     1
 44
1.0
  0
MTEXT
  5
130
330
121
100
AcDbEntity
  8
LEVEL0
100
AcDbMText
 10
104.3499787912
 20
13.6187165173
 30
0.0
 40
2.0
 41
0.0
 71
     1
 72
     1
  1
7.83
  7
SLDTEXTSTYLE0
 73
     1
 44
1.0
  0
MTEXT
  5
131
330
121
100
AcDbEntity
  8
LEVEL0
100
AcDbMText
 10
104.719423397
 20
10.626355199
 30
0.0
 40
2.0
 41
0.0
 71
     1
 72
     1
  1
199
  7
SLDTEXTSTYLE0
 73
     1
 44
1.0
  0
MTEXT
  5
132
330
121
100
AcDbEntity
  8
LEVEL0
100
AcDbMText
 10
112.2409512033
 20
10.6569109614
 30
0.0
 40
2.0
 41
0.0
 71
     1
 72
     1
  1

  7
SLDTEXTSTYLE0
 73
     1
 44
1.0
  0
ENDBLK
  5
123
330
121
100
AcDbEntity
  8
0
100
AcDbBlockEnd
  0
BLOCK
  5
136
330
135
100
AcDbEntity
  8
0
100
AcDbBlockBegin
  2
_D_5
 70
     0
 10
0.0
 20
0.0
 30
0.0
  3
_D_5
  1

  0
INSERT
  5
138
330
135
100
AcDbEntity
  8
LEVEL0
100
AcDbBlockReference
  2
_Closed
 10
204.0779527863
 20
49.8650168631
 30
-9.6
 41
2.0
 42
2.0
 50
180.0
  0
INSERT
  5
139
330
135
100
AcDbEntity
  8
LEVEL0
100
AcDbBlockReference
  2
_Closed
 10
196.0779527863
 20
49.8650168631
 30
-9.6
 41
2.0
 42
2.0
 50
0.0
  0
LINE
  5
13A
330
135
100
AcDbEntity
  8
LEVEL0
100
AcDbLine
 10
198.1937279965
 20
56.0323779102
 30
0.0
 11
197.5843529839
 21
56.0323779102
 31
0.0
  0
LINE
  5
13B
330
135
100
AcDbEntity
  8
LEVEL0
100
AcDbLine
 10
197.5843529839
 20
56.0323779102
 30
0.0
 11
197.5843529839
 21
52.8573779486
 31
0.0
  0
LINE
  5
13C
330
135
100
AcDbEntity
  8
LEVEL0
100
AcDbLine
 10
197.5843529839
 20
52.8573779486
 30
0.0
 11
198.1937279965
 21
52.8573779486
 31
0.0
  0
LINE
  5
13D
330
135
100
AcDbEntity
  8
LEVEL0
100
AcDbLine
 10
203.3659499179
 20
56.0323779102
 30
0.0
 11
203.9753249305
 21
56.0323779102
 31
0.0
  0
LINE
  5
13E
330
135
100
AcDbEntity
  8
LEVEL0
100
AcDbLine
 10
203.9753249305
 20
56.0323779102
 30
0.0
 11
203.9753249305
 21
52.8573779486
 31
0.0
  0
LINE
  5
13F
330
135
100
AcDbEntity
  8
LEVEL0
100
AcDbLine
 10
203.9753249305
 20
52.8573779486
 30
0.0
 11
203.3659499179
 21
52.8573779486
 31
0.0
  0
LINE
  5
140
330
135
100
AcDbEntity
  8
LEVEL0
100
AcDbLine
 10
204.0779527863
 20
21.8236031588
 30
0.0
 11
204.0779527863
 21
50.8650168631
 31
0.0
  0
LINE
  5
141
330
135
100
AcDbEntity
  8
LEVEL0
100
AcDbLine
 10
204.0779527863
 20
49.8650168631
 30
0.0
 11
207.9241066325
 21
49.8650168631
 31
0.0
  0
LINE
  5
142
330
135
100
AcDbEntity
  8
LEVEL0
100
AcDbLine
 10
204.0779527863
 20
49.8650168631
 30
0.0
 11
196.0779527863
 21
49.8650168631
 31
0.0
  0
LINE
  5
143
330
135
100
AcDbEntity
  8
LEVEL0
100
AcDbLine
 10
196.0779527863
 20
49.8650168631
 30
0.0
 11
192.2317989402
 21
49.8650168631
 31
0.0
  0
MTEXT
  5
144
330
135
100
AcDbEntity
  8
LEVEL0
100
AcDbMText
 10
196.9972002463
 20
52.4737078722
 30
0.0
 40
2.0
 41
0.0
 71
     1
 72
     1
  1

  7
SLDTEXTSTYLE0
 73
     1
 44
1.0
  0
MTEXT
  5
145
330
135
100
AcDbEntity
  8
LEVEL0
100
AcDbMText
 10
198.1937279965
 20
55.4355134281
 30
0.0
 40
2.0
 41
0.0
 71
     1
 72
     1
  1
0.31
  7
SLDTEXTSTYLE0
 73
     1
 44
1.0
  0
MTEXT
  5
146
330
135
100
AcDbEntity
  8
LEVEL0
100
AcDbMText
 10
200.0409502111
 20
52.4431521098
 30
0.0
 40
2.0
 41
0.0
 71
     1
 72
     1
  1
8
  7
SLDTEXTSTYLE0
 73
     1
 44
1.0
  0
MTEXT
  5
147
330
135
100
AcDbEntity
  8
LEVEL0
100
AcDbMText
 10
206.0847004087
 20
52.4737078722
 30
0.0
 40
2.0
 41
0.0
 71
     1
 72
     1
  1

  7
SLDTEXTSTYLE0
 73
     1
 44
1.0
  0
ENDBLK
  5
137
330
135
100
AcDbEntity
  8
0
100
AcDbBlockEnd
  0
BLOCK
  5
14A
330
149
100
AcDbEntity
  8
0
100
AcDbBlockBegin
  2
_D_6
 70
     0
 10
0.0
 20
0.0
 30
0.0
  3
_D_6
  1

  0
INSERT
  5
14C
330
149
100
AcDbEntity
  8
LEVEL0
100
AcDbBlockReference
  2
_Closed
 10
162.6602843616
 20
25.3236031588
 30
-9.6
 41
2.0
 42
2.0
 50
270.0
  0
INSERT
  5
14D
330
149
100
AcDbEntity
  8
LEVEL0
100
AcDbBlockReference
  2
_Closed
 10
162.6602843616
 20
17.3236031588
 30
-9.6
 41
2.0
 42
2.0
 50
90.0
  0
LINE
  5
14E
330
149
100
AcDbEntity
  8
LEVEL0
100
AcDbLine
 10
156.4929233145
 20
17.9119523139
 30
0.0
 11
156.4929233145
 21
17.3025773013
 31
0.0
  0
LINE
  5
14F
330
149
100
AcDbEntity
  8
LEVEL0
100
AcDbLine
 10
156.4929233145
 20
17.3025773013
 30
0.0
 11
159.6679232761
 21
17.3025773013
 31
0.0
  0
LINE
  5
150
330
149
100
AcDbEntity
  8
LEVEL0
100
AcDbLine
 10
159.6679232761
 20
17.3025773013
 30
0.0
 11
159.6679232761
 21
17.9119523139
 31
0.0
  0
LINE
  5
151
330
149
100
AcDbEntity
  8
LEVEL0
100
AcDbLine
 10
156.4929233145
 20
23.0841742353
 30
0.0
 11
156.4929233145
 21
23.6935492478
 31
0.0
  0
LINE
  5
152
330
149
100
AcDbEntity
  8
LEVEL0
100
AcDbLine
 10
156.4929233145
 20
23.6935492478
 30
0.0
 11
159.6679232761
 21
23.6935492478
 31
0.0
  0
LINE
  5
153
330
149
100
AcDbEntity
  8
LEVEL0
100
AcDbLine
 10
159.6679232761
 20
23.6935492478
 30
0.0
 11
159.6679232761
 21
23.0841742353
 31
0.0
  0
LINE
  5
154
330
149
100
AcDbEntity
  8
LEVEL0
100
AcDbLine
 10
199.5779527863
 20
17.3236031588
 30
0.0
 11
161.6602843616
 21
17.3236031588
 31
0.0
  0
LINE
  5
155
330
149
100
AcDbEntity
  8
LEVEL0
100
AcDbLine
 10
162.6602843616
 20
25.3236031588
 30
0.0
 11
162.6602843616
 21
29.169757005
 31
0.0
  0
LINE
  5
156
330
149
100
AcDbEntity
  8
LEVEL0
100
AcDbLine
 10
162.6602843616
 20
25.3236031588
 30
0.0
 11
162.6602843616
 21
17.3236031588
 31
0.0
  0
LINE
  5
157
330
149
100
AcDbEntity
  8
LEVEL0
100
AcDbLine
 10
162.6602843616
 20
17.3236031588
 30
0.0
 11
162.6602843616
 21
13.4774493127
 31
0.0
  0
MTEXT
  5
158
330
149
100
AcDbEntity
  8
LEVEL0
100
AcDbMText
 10
160.0515933525
 20
16.7154245636
 30
0.0
 40
2.0
 41
0.0
 71
     1
 72
     1
  1

  7
SLDTEXTSTYLE0
 11
-7.044195017643634E-15
 21
1.0
 31
0.0
 73
     1
 44
1.0
  0
MTEXT
  5
159
330
149
100
AcDbEntity
  8
LEVEL0
100
AcDbMText
 10
157.0897877966
 20
17.9119523139
 30
0.0
 40
2.0
 41
0.0
 71
     1
 72
     1
  1
0.31
  7
SLDTEXTSTYLE0
 11
-7.044195017643634E-15
 21
1.0
 31
0.0
 73
     1
 44
1.0
  0
MTEXT
  5
15A
330
149
100
AcDbEntity
  8
LEVEL0
100
AcDbMText
 10
160.0821491149
 20
19.7591745284
 30
0.0
 40
2.0
 41
0.0
 71
     1
 72
     1
  1
8
  7
SLDTEXTSTYLE0
 11
-7.044195017643634E-15
 21
1.0
 31
0.0
 73
     1
 44
1.0
  0
MTEXT
  5
15B
330
149
100
AcDbEntity
  8
LEVEL0
100
AcDbMText
 10
160.0515933525
 20
25.8029247261
 30
0.0
 40
2.0
 41
0.0
 71
     1
 72
     1
  1

  7
SLDTEXTSTYLE0
 11
-7.044195017643634E-15
 21
1.0
 31
0.0
 73
     1
 44
1.0
  0
ENDBLK
  5
14B
330
149
100
AcDbEntity
  8
0
100
AcDbBlockEnd
  0
BLOCK
  5
15E
330
15D
100
AcDbEntity
  8
0
100
AcDbBlockBegin
  2
_D_7
 70
     0
 10
0.0
 20
0.0
 30
0.0
  3
_D_7
  1

  0
INSERT
  5
160
330
15D
100
AcDbEntity
  8
LEVEL0
100
AcDbBlockReference
  2
_Closed
 10
196.0779527863
 20
103.233283523
 30
-9.6
 41
2.0
 42
2.0
 50
0.0
  0
INSERT
  5
161
330
15D
100
AcDbEntity
  8
LEVEL0
100
AcDbBlockReference
  2
_Closed
 10
184.0779527863
 20
103.233283523
 30
-9.6
 41
2.0
 42
2.0
 50
180.0
  0
LINE
  5
162
330
15D
100
AcDbEntity
  8
LEVEL0
100
AcDbLine
 10
159.5741732845
 20
115.7506440278
 30
0.0
 11
158.9647982719
 21
115.7506440278
 31
0.0
  0
LINE
  5
163
330
15D
100
AcDbEntity
  8
LEVEL0
100
AcDbLine
 10
158.9647982719
 20
115.7506440278
 30
0.0
 11
158.9647982719
 21
112.5756440661
 31
0.0
  0
LINE
  5
164
330
15D
100
AcDbEntity
  8
LEVEL0
100
AcDbLine
 10
158.9647982719
 20
112.5756440661
 30
0.0
 11
159.5741732845
 21
112.5756440661
 31
0.0
  0
LINE
  5
165
330
15D
100
AcDbEntity
  8
LEVEL0
100
AcDbLine
 10
164.7463952059
 20
115.7506440278
 30
0.0
 11
165.3557702185
 21
115.7506440278
 31
0.0
  0
LINE
  5
166
330
15D
100
AcDbEntity
  8
LEVEL0
100
AcDbLine
 10
165.3557702185
 20
115.7506440278
 30
0.0
 11
165.3557702185
 21
112.5756440661
 31
0.0
  0
LINE
  5
167
330
15D
100
AcDbEntity
  8
LEVEL0
100
AcDbLine
 10
165.3557702185
 20
112.5756440661
 30
0.0
 11
164.7463952059
 21
112.5756440661
 31
0.0
  0
LINE
  5
168
330
15D
100
AcDbEntity
  8
LEVEL0
100
AcDbLine
 10
196.0779527863
 20
103.233283523
 30
0.0
 11
184.0779527863
 21
103.233283523
 31
0.0
  0
LINE
  5
169
330
15D
100
AcDbEntity
  8
LEVEL0
100
AcDbLine
 10
184.0779527863
 20
103.233283523
 30
0.0
 11
146.8783398259
 21
103.233283523
 31
0.0
  0
MTEXT
  5
16A
330
15D
100
AcDbEntity
  8
LEVEL0
100
AcDbMText
 10
159.5741732845
 20
115.1537795457
 30
0.0
 40
2.0
 41
0.0
 71
     1
 72
     1
  1
0.47
  7
SLDTEXTSTYLE0
 73
     1
 44
1.0
  0
MTEXT
  5
16B
330
15D
100
AcDbEntity
  8
LEVEL0
100
AcDbMText
 10
160.6825066365
 20
112.1614182274
 30
0.0
 40
2.0
 41
0.0
 71
     1
 72
     1
  1
12
  7
SLDTEXTSTYLE0
 73
     1
 44
1.0
  0
MTEXT
  5
16C
330
15D
100
AcDbEntity
  8
LEVEL0
100
AcDbMText
 10
146.8783398259
 20
108.9864184986
 30
0.0
 40
2.0
 41
0.0
 71
     1
 72
     1
  1
ROUTE TO DEPTH 2.5mm
  7
SLDTEXTSTYLE0
 73
     1
 44
1.0
  0
MTEXT
  5
16D
330
15D
100
AcDbEntity
  8
LEVEL0
100
AcDbMText
 10
149.0255617637
 20
105.8114185369
 30
0.0
 40
2.0
 41
0.0
 71
     1
 72
     1
  1
OFF FRONT SURFACE
  7
SLDTEXTSTYLE0
 73
     1
 44
1.0
  0
ENDBLK
  5
15F
330
15D
100
AcDbEntity
  8
0
100
AcDbBlockEnd
  0
BLOCK
  5
171
330
170
100
AcDbEntity
  8
0
100
AcDbBlockBegin
  2
_D_8
 70
     0
 10
0.0
 20
0.0
 30
0.0
  3
_D_8
  1

  0
INSERT
  5
173
330
170
100
AcDbEntity
  8
LEVEL0
100
AcDbBlockReference
  2
_Closed
 10
195.3410925072
 20
270.3374636721
 30
-9.6
 41
2.0
 42
2.0
 50
210.046928406
  0
LINE
  5
174
330
170
100
AcDbEntity
  8
LEVEL0
100
AcDbLine
 10
161.1639765604
 20
257.6916261144
 30
0.0
 11
160.6362423191
 21
257.3869386081
 31
0.0
  0
LINE
  5
175
330
170
100
AcDbEntity
  8
LEVEL0
100
AcDbLine
 10
160.6362423191
 20
257.3869386081
 30
0.0
 11
162.2237422999
 21
254.6373079843
 31
0.0
  0
LINE
  5
176
330
170
100
AcDbEntity
  8
LEVEL0
100
AcDbLine
 10
162.2237422999
 20
254.6373079843
 30
0.0
 11
162.7514765412
 21
254.9419954906
 31
0.0
  0
LINE
  5
177
330
170
100
AcDbEntity
  8
LEVEL0
100
AcDbLine
 10
165.6432521384
 20
260.277737075
 30
0.0
 11
166.1709863797
 21
260.5824245813
 31
0.0
  0
LINE
  5
178
330
170
100
AcDbEntity
  8
LEVEL0
100
AcDbLine
 10
166.1709863797
 20
260.5824245813
 30
0.0
 11
167.7584863605
 21
257.8327939575
 31
0.0
  0
LINE
  5
179
330
170
100
AcDbEntity
  8
LEVEL0
100
AcDbLine
 10
167.7584863605
 20
257.8327939575
 30
0.0
 11
167.2307521192
 21
257.5281064513
 31
0.0
  0
LINE
  5
17A
330
170
100
AcDbEntity
  8
LEVEL0
100
AcDbLine
 10
195.3410925072
 20
270.3374636721
 30
0.0
 11
163.1921886014
 21
251.7411597607
 31
0.0
  0
LINE
  5
17B
330
170
100
AcDbEntity
  8
LEVEL0
100
AcDbLine
 10
195.3410925072
 20
270.3374636721
 30
0.0
 11
198.6703832216
 21
272.2632681137
 31
0.0
  0
MTEXT
  5
17C
330
170
100
AcDbEntity
  8
LEVEL0
100
AcDbMText
 10
161.4624088015
 20
257.1747263103
 30
0.0
 40
2.0
 41
0.0
 71
     1
 72
     1
  1
0.22
  7
SLDTEXTSTYLE0
 11
0.8660254037844347
 21
0.5000000000000068
 31
0.0
 73
     1
 44
1.0
  0
MTEXT
  5
17D
330
170
100
AcDbEntity
  8
LEVEL0
100
AcDbMText
 10
162.8972458635
 20
254.547848649
 30
0.0
 40
2.0
 41
0.0
 71
     1
 72
     1
  1
R5.5
  7
SLDTEXTSTYLE0
 11
0.8660254037844347
 21
0.5000000000000068
 31
0.0
 73
     1
 44
1.0
  0
MTEXT
  5
17E
330
170
100
AcDbEntity
  8
LEVEL0
100
AcDbMText
 10
169.1275748945
 20
258.1802135474
 30
0.0
 40
2.0
 41
0.0
 71
     1
 72
     1
  1
TYPX2
  7
SLDTEXTSTYLE0
 11
0.8660254037844347
 21
0.5000000000000068
 31
0.0
 73
     1
 44
1.0
  0
ENDBLK
  5
172
330
170
100
AcDbEntity
  8
0
100
AcDbBlockEnd
  0
BLOCK
  5
180
330
17F
100
AcDbEntity
  8
0
100
AcDbBlockBegin
  2
SW_NOTE_0_1
 70
     0
 10
0.0
 20
0.0
 30
0.0
  3
SW_NOTE_0_1
  1

  0
MTEXT
  5
182
330
17F
100
AcDbEntity
  8
LEVEL0
 62
     0
100
AcDbMText
 10
-33.7345840291
 20
0.8826377312
 30
0.0
 40
2.0
 41
0.0
 71
     1
 72
     1
  1
MARK SCREW LOCATIONS
  7
SLDTEXTSTYLE0
 73
     1
 44
1.0
  0
ENDBLK
  5
181
330
17F
100
AcDbEntity
  8
0
100
AcDbBlockEnd
  0
BLOCK
  5
187
330
186
100
AcDbEntity
  8
0
100
AcDbBlockBegin
  2
SW_CENTERMARKSYMBOL_0
 70
     0
 10
0.0
 20
0.0
 30
0.0
  3
SW_CENTERMARKSYMBOL_0
  1

  0
LINE
  5
189
330
186
100
AcDbEntity
  8
LEVEL0
 62
     0
100
AcDbLine
 10
0.0
 20
0.0
 30
0.0
 11
0.0
 21
2.5
 31
0.0
  0
LINE
  5
18A
330
186
100
AcDbEntity
  8
LEVEL0
 62
     0
100
AcDbLine
 10
0.0
 20
0.0
 30
0.0
 11
-2.5
 21
0.0
 31
0.0
  0
LINE
  5
18B
330
186
100
AcDbEntity
  8
LEVEL0
 62
     0
100
AcDbLine
 10
0.0
 20
0.0
 30
0.0
 11
0.0
 21
-2.5
 31
0.0
  0
LINE
  5
18C
330
186
100
AcDbEntity
  8
LEVEL0
 62
     0
100
AcDbLine
 10
0.0
 20
0.0
 30
0.0
 11
2.5
 21
0.0
 31
0.0
  0
LINE
  5
18D
330
186
100
AcDbEntity
  8
LEVEL0
 62
     0
100
AcDbLine
 10
0.0
 20
2.5
 30
0.0
 11
0.0
 21
3.5
 31
0.0
  0
LINE
  5
18E
330
186
100
AcDbEntity
  8
LEVEL0
 62
     0
100
AcDbLine
 10
-2.5
 20
0.0
 30
0.0
 11
-3.5
 21
0.0
 31
0.0
  0
LINE
  5
18F
330
186
100
AcDbEntity
  8
LEVEL0
 62
     0
100
AcDbLine
 10
0.0
 20
-2.5
 30
0.0
 11
0.0
 21
-3.5
 31
0.0
  0
LINE
  5
190
330
186
100
AcDbEntity
  8
LEVEL0
 62
     0
100
AcDbLine
 10
2.5
 20
0.0
 30
0.0
 11
3.5
 21
0.0
 31
0.0
  0
ENDBLK
  5
188
330
186
100
AcDbEntity
  8
0
100
AcDbBlockEnd
  0
BLOCK
  5
193
330
192
100
AcDbEntity
  8
0
100
AcDbBlockBegin
  2
SW_CENTERMARKSYMBOL_1
 70
     0
 10
0.0
 20
0.0
 30
0.0
  3
SW_CENTERMARKSYMBOL_1
  1

  0
LINE
  5
195
330
192
100
AcDbEntity
  8
LEVEL0
 62
     0
100
AcDbLine
 10
0.0
 20
0.0
 30
0.0
 11
0.0
 21
2.5
 31
0.0
  0
LINE
  5
196
330
192
100
AcDbEntity
  8
LEVEL0
 62
     0
100
AcDbLine
 10
0.0
 20
0.0
 30
0.0
 11
-2.5
 21
0.0
 31
0.0
  0
LINE
  5
197
330
192
100
AcDbEntity
  8
LEVEL0
 62
     0
100
AcDbLine
 10
0.0
 20
0.0
 30
0.0
 11
0.0
 21
-2.5
 31
0.0
  0
LINE
  5
198
330
192
100
AcDbEntity
  8
LEVEL0
 62
     0
100
AcDbLine
 10
0.0
 20
0.0
 30
0.0
 11
2.5
 21
0.0
 31
0.0
  0
LINE
  5
199
330
192
100
AcDbEntity
  8
LEVEL0
 62
     0
100
AcDbLine
 10
0.0
 20
2.5
 30
0.0
 11
0.0
 21
3.5
 31
0.0
  0
LINE
  5
19A
330
192
100
AcDbEntity
  8
LEVEL0
 62
     0
100
AcDbLine
 10
-2.5
 20
0.0
 30
0.0
 11
-3.5
 21
0.0
 31
0.0
  0
LINE
  5
19B
330
192
100
AcDbEntity
  8
LEVEL0
 62
     0
100
AcDbLine
 10
0.0
 20
-2.5
 30
0.0
 11
0.0
 21
-3.5
 31
0.0
  0
LINE
  5
19C
330
192
100
AcDbEntity
  8
LEVEL0
 62
     0
100
AcDbLine
 10
2.5
 20
0.0
 30
0.0
 11
3.5
 21
0.0
 31
0.0
  0
ENDBLK
  5
194
330
192
100
AcDbEntity
  8
0
100
AcDbBlockEnd
  0
BLOCK
  5
19F
330
19E
100
AcDbEntity
  8
0
100
AcDbBlockBegin
  2
SW_CENTERMARKSYMBOL_2
 70
     0
 10
0.0
 20
0.0
 30
0.0
  3
SW_CENTERMARKSYMBOL_2
  1

  0
LINE
  5
1A1
330
19E
100
AcDbEntity
  8
LEVEL0
 62
     0
100
AcDbLine
 10
0.0
 20
0.0
 30
0.0
 11
0.0
 21
2.5
 31
0.0
  0
LINE
  5
1A2
330
19E
100
AcDbEntity
  8
LEVEL0
 62
     0
100
AcDbLine
 10
0.0
 20
0.0
 30
0.0
 11
-2.5
 21
0.0
 31
0.0
  0
LINE
  5
1A3
330
19E
100
AcDbEntity
  8
LEVEL0
 62
     0
100
AcDbLine
 10
0.0
 20
0.0
 30
0.0
 11
0.0
 21
-2.5
 31
0.0
  0
LINE
  5
1A4
330
19E
100
AcDbEntity
  8
LEVEL0
 62
     0
100
AcDbLine
 10
0.0
 20
0.0
 30
0.0
 11
2.5
 21
0.0
 31
0.0
  0
LINE
  5
1A5
330
19E
100
AcDbEntity
  8
LEVEL0
 62
     0
100
AcDbLine
 10
0.0
 20
2.5
 30
0.0
 11
0.0
 21
3.5
 31
0.0
  0
LINE
  5
1A6
330
19E
100
AcDbEntity
  8
LEVEL0
 62
     0
100
AcDbLine
 10
-2.5
 20
0.0
 30
0.0
 11
-3.5
 21
0.0
 31
0.0
  0
LINE
  5
1A7
330
19E
100
AcDbEntity
  8
LEVEL0
 62
     0
100
AcDbLine
 10
0.0
 20
-2.5
 30
0.0
 11
0.0
 21
-3.5
 31
0.0
  0
LINE
  5
1A8
330
19E
100
AcDbEntity
  8
LEVEL0
 62
     0
100
AcDbLine
 10
2.5
 20
0.0
 30
0.0
 11
3.5
 21
0.0
 31
0.0
  0
ENDBLK
  5
1A0
330
19E
100
AcDbEntity
  8
0
100
AcDbBlockEnd
  0
BLOCK
  5
1AB
330
1AA
100
AcDbEntity
  8
0
100
AcDbBlockBegin
  2
SW_CENTERMARKSYMBOL_3
 70
     0
 10
0.0
 20
0.0
 30
0.0
  3
SW_CENTERMARKSYMBOL_3
  1

  0
LINE
  5
1AD
330
1AA
100
AcDbEntity
  8
LEVEL0
 62
     0
100
AcDbLine
 10
0.0
 20
0.0
 30
0.0
 11
0.0
 21
2.5
 31
0.0
  0
LINE
  5
1AE
330
1AA
100
AcDbEntity
  8
LEVEL0
 62
     0
100
AcDbLine
 10
0.0
 20
0.0
 30
0.0
 11
-2.5
 21
0.0
 31
0.0
  0
LINE
  5
1AF
330
1AA
100
AcDbEntity
  8
LEVEL0
 62
     0
100
AcDbLine
 10
0.0
 20
0.0
 30
0.0
 11
0.0
 21
-2.5
 31
0.0
  0
LINE
  5
1B0
330
1AA
100
AcDbEntity
  8
LEVEL0
 62
     0
100
AcDbLine
 10
0.0
 20
0.0
 30
0.0
 11
2.5
 21
0.0
 31
0.0
  0
LINE
  5
1B1
330
1AA
100
AcDbEntity
  8
LEVEL0
 62
     0
100
AcDbLine
 10
0.0
 20
2.5
 30
0.0
 11
0.0
 21
3.5
 31
0.0
  0
LINE
  5
1B2
330
1AA
100
AcDbEntity
  8
LEVEL0
 62
     0
100
AcDbLine
 10
-2.5
 20
0.0
 30
0.0
 11
-3.5
 21
0.0
 31
0.0
  0
LINE
  5
1B3
330
1AA
100
AcDbEntity
  8
LEVEL0
 62
     0
100
AcDbLine
 10
0.0
 20
-2.5
 30
0.0
 11
0.0
 21
-3.5
 31
0.0
  0
LINE
  5
1B4
330
1AA
100
AcDbEntity
  8
LEVEL0
 62
     0
100
AcDbLine
 10
2.5
 20
0.0
 30
0.0
 11
3.5
 21
0.0
 31
0.0
  0
ENDBLK
  5
1AC
330
1AA
100
AcDbEntity
  8
0
100
AcDbBlockEnd
  0
ENDSEC
  0
SECTION
  2
ENTITIES
  0
INSERT
  5
AF
330
1F
100
AcDbEntity
  8
LEVEL0
100
AcDbBlockReference
  2
SW_NOTE_0
 10
52.4719296378
 20
261.9682568297
 30
0.0
  0
MTEXT
  5
B0
330
1F
100
AcDbEntity
  8
LEVEL0
100
AcDbMText
 10
65.4672613717
 20
287.9287324198
 30
0.0
 40
4.2333333333
 41
0.0
 71
     1
 72
     1
  1
PRINT THIS PAGE 1:1 SCALE
  7
SLDTEXTSTYLE0
 73
     1
 44
1.0
  0
CIRCLE
  5
B1
330
1F
100
AcDbEntity
  8
0
  6
Continuous
 62
     7
370
    25
100
AcDbCircle
 10
5.1140922731
 20
17.3236031588
 30
0.0
 40
1.0
  0
CIRCLE
  5
B2
330
1F
100
AcDbEntity
  8
0
  6
Continuous
 62
     7
370
    25
100
AcDbCircle
 10
5.1140922731
 20
281.0874636721
 30
0.0
 40
1.0
  0
CIRCLE
  5
B3
330
1F
100
AcDbEntity
  8
0
  6
Continuous
 62
     7
370
    25
100
AcDbCircle
 10
204.0779527863
 20
17.3236031588
 30
0.0
 40
1.0
  0
ARC
  5
B4
330
1F
100
AcDbEntity
  8
0
  6
Continuous
 62
     7
370
    25
100
AcDbCircle
 10
18.5960225297
 20
267.6055334155
 30
0.0
 40
5.481930256612671
100
AcDbArc
 50
90.0
 51
180.0
  0
LINE
  5
B5
330
1F
100
AcDbEntity
  8
0
  6
Continuous
 62
     7
370
    25
100
AcDbLine
 10
13.1140957309
 20
30.8055333797
 30
0.0
 11
13.1140957309
 21
267.6055334512
 31
0.0
  0
ARC
  5
B6
330
1F
100
AcDbEntity
  8
0
  6
Continuous
 62
     7
370
    25
100
AcDbCircle
 10
18.5960225297
 20
30.8055334155
 30
0.0
 40
5.481930256613325
100
AcDbArc
 50
179.9999999983
 51
270.0
  0
LINE
  5
B7
330
1F
100
AcDbEntity
  8
0
  6
Continuous
 62
     7
370
    25
100
AcDbLine
 10
190.5779550506
 20
25.3236047927
 30
0.0
 11
18.5960243179
 21
25.3236047927
 31
0.0
  0
ARC
  5
B8
330
1F
100
AcDbEntity
  8
0
  6
Continuous
 62
     7
370
    25
100
AcDbCircle
 10
190.5779527863
 20
30.8236031588
 30
0.0
 40
5.5
100
AcDbArc
 50
270.0
 51
0.0
  0
LINE
  5
B9
330
1F
100
AcDbEntity
  8
0
  6
Continuous
 62
     7
370
    25
100
AcDbLine
 10
196.0779512955
 20
30.8236010376
 30
0.0
 11
196.0779512955
 21
267.5874657933
 31
0.0
  0
ARC
  5
BA
330
1F
100
AcDbEntity
  8
0
  6
Continuous
 62
     7
370
    25
100
AcDbCircle
 10
190.5779527863
 20
267.5874636721
 30
0.0
 40
5.5
100
AcDbArc
 50
0.0
 51
90.0
  0
LINE
  5
BB
330
1F
100
AcDbEntity
  8
0
  6
Continuous
 62
     7
370
    25
100
AcDbLine
 10
18.5960243179
 20
273.0874620382
 30
0.0
 11
190.5779550506
 21
273.0874620382
 31
0.0
  0
CIRCLE
  5
BC
330
1F
100
AcDbEntity
  8
0
  6
Continuous
 62
     7
370
    25
100
AcDbCircle
 10
204.0779527863
 20
281.0874636721
 30
0.0
 40
1.0
  0
LINE
  5
BD
330
1F
100
AcDbEntity
  8
0
  6
Continuous
 62
     7
370
    25
100
AcDbLine
 10
184.0779493286
 20
267.6055334512
 30
0.0
 11
184.0779493286
 21
30.8055333797
 31
0.0
  0
ARC
  5
BE
330
1F
100
AcDbEntity
  8
0
  6
Continuous
 62
     7
370
    25
100
AcDbCircle
 10
178.5960225297
 20
30.8055334155
 30
0.0
 40
5.481930256613651
100
AcDbArc
 50
269.999999998
 51
0.0
  0
ARC
  5
BF
330
1F
100
AcDbEntity
  8
0
  6
Continuous
 62
     7
370
    25
100
AcDbCircle
 10
178.5960225297
 20
267.6055334155
 30
0.0
 40
5.481930256612998
100
AcDbArc
 50
359.9999999983
 51
90.0
  0
DIMENSION
  5
C0
330
1F
100
AcDbEntity
  8
LEVEL0
100
AcDbDimension
  2
_D
 10
184.0779527863
 20
149.1486796528
 30
0.0
 11
82.6713307626
 21
149.1486796528
 31
0.0
 70
   160
  1
<>\PROUTE THRU
 71
     2
 42
-1.0
  3
SLDDIMSTYLE0
100
AcDbAlignedDimension
 13
13.1140922731
 23
30.8055334156
 33
0.0
 14
184.0779527863
 24
30.8055334155
 34
0.0
 50
0.0
100
AcDbRotatedDimension
  0
DIMENSION
  5
E2
330
1F
100
AcDbEntity
  8
LEVEL0
100
AcDbDimension
  2
_D_1
 10
120.802070935
 20
25.3236031588
 30
0.0
 11
120.802070935
 21
186.7338320849
 31
0.0
 70
   160
  1
<>\PROUTE THRU
 71
     2
 42
-1.0
  3
SLDDIMSTYLE0
100
AcDbAlignedDimension
 13
190.5779527863
 23
273.0874636721
 33
0.0
 14
190.5779527863
 24
25.3236031588
 34
0.0
 50
90.0
100
AcDbRotatedDimension
  0
DIMENSION
  5
FC
330
1F
100
AcDbEntity
  8
LEVEL0
100
AcDbDimension
  2
_D_2
 10
18.5960225297
 20
267.6055334155
 30
0.0
 11
23.9608373586
 21
258.3134288792
 31
0.0
 70
   164
  1
<> TYPX4
 71
     1
 42
-1.0
  3
SLDDIMSTYLE1
100
AcDbRadialDimension
 15
15.8550574014
 25
272.3530242795
 35
0.0
 40
0.0
  0
DIMENSION
  5
10C
330
1F
100
AcDbEntity
  8
LEVEL0
100
AcDbDimension
  2
_D_3
 10
38.0009900845
 20
17.3236031588
 30
0.0
 11
38.0009900845
 21
118.8999094086
 31
0.0
 70
   160
  1
<>
 71
     2
 42
-1.0
  3
SLDDIMSTYLE2
100
AcDbAlignedDimension
 13
8.6140922731
 23
281.0874636721
 33
0.0
 14
8.6140922731
 24
17.3236031588
 34
0.0
 50
90.0
100
AcDbRotatedDimension
  0
DIMENSION
  5
120
330
1F
100
AcDbEntity
  8
LEVEL0
100
AcDbDimension
  2
_D_4
 10
204.0779527863
 20
8.0482199523
 30
0.0
 11
106.9360901011
 21
8.0482199523
 31
0.0
 70
   160
  1
<>
 71
     2
 42
-1.0
  3
SLDDIMSTYLE2
100
AcDbAlignedDimension
 13
5.1140922731
 23
13.8236031588
 33
0.0
 14
204.0779527863
 24
13.8236031588
 34
0.0
 50
0.0
100
AcDbRotatedDimension
  0
DIMENSION
  5
133
330
1F
100
AcDbEntity
  8
LEVEL0
100
AcDbDimension
  2
_D_5
 10
196.0779527863
 20
49.8650168631
 30
0.0
 11
200.7798393064
 21
49.8650168631
 31
0.0
 70
   160
  1
<>
 71
     2
 42
-1.0
  3
SLDDIMSTYLE3
100
AcDbAlignedDimension
 13
204.0779527863
 23
20.8236031588
 33
0.0
 14
196.0779527863
 24
30.8236031588
 34
0.0
 50
0.0
100
AcDbRotatedDimension
  0
DIMENSION
  5
148
330
1F
100
AcDbEntity
  8
LEVEL0
100
AcDbDimension
  2
_D_6
 10
162.6602843616
 20
17.3236031588
 30
0.0
 11
162.6602843616
 21
20.4980636238
 31
0.0
 70
   160
  1
<>
 71
     2
 42
-1.0
  3
SLDDIMSTYLE3
100
AcDbAlignedDimension
 13
190.5779527863
 23
25.3236031588
 33
0.0
 14
200.5779527863
 24
17.3236031588
 34
0.0
 50
90.0
100
AcDbRotatedDimension
  0
DIMENSION
  5
15C
330
1F
100
AcDbEntity
  8
LEVEL0
100
AcDbDimension
  2
_D_7
 10
184.0779527863
 20
103.233283523
 30
0.0
 11
162.1602843616
 21
103.233283523
 31
0.0
 70
   160
  1
<>\PROUTE TO DEPTH 2.5mm\POFF FRONT SURFACE
 71
     2
 42
-1.0
  3
SLDDIMSTYLE2
100
AcDbAlignedDimension
 13
196.0779527863
 23
30.8236031588
 33
0.0
 14
184.0779527863
 24
30.8055334155
 34
0.0
 50
0.0
100
AcDbRotatedDimension
  0
DIMENSION
  5
16E
330
1F
100
AcDbEntity
  8
LEVEL0
100
AcDbDimension
  2
_D_8
 10
190.5779527863
 20
267.5874636721
 30
0.0
 11
169.8016456274
 21
255.5922613676
 31
0.0
 70
   164
  1
<> TYPX2
 71
     1
 42
-1.0
  3
SLDDIMSTYLE4
100
AcDbRadialDimension
 15
195.3410925072
 25
270.3374636721
 35
0.0
 40
0.0
  0
INSERT
  5
183
330
1F
100
AcDbEntity
  8
LEVEL0
100
AcDbBlockReference
  2
SW_NOTE_0_1
 10
186.9153862298
 20
286.3208951799
 30
0.0
  0
LEADER
  5
185
330
1F
100
AcDbEntity
  8
LEVEL0
100
AcDbLeader
  3
SLDDIMSTYLE5
 76
     2
 10
203.2250947809
 20
281.6096065859
 30
0.0
 10
186.9153862298
 20
286.3208951799
 30
0.0
  0
INSERT
  5
191
330
1F
100
AcDbEntity
  8
LEVEL0
100
AcDbBlockReference
  2
SW_CENTERMARKSYMBOL_0
 10
204.0779527863
 20
281.0874636721
 30
0.0
  0
INSERT
  5
19D
330
1F
100
AcDbEntity
  8
LEVEL0
100
AcDbBlockReference
  2
SW_CENTERMARKSYMBOL_1
 10
5.1140922731
 20
281.0874636721
 30
0.0
  0
INSERT
  5
1A9
330
1F
100
AcDbEntity
  8
LEVEL0
100
AcDbBlockReference
  2
SW_CENTERMARKSYMBOL_2
 10
5.1140922731
 20
17.3236031588
 30
0.0
  0
INSERT
  5
1B5
330
1F
100
AcDbEntity
  8
LEVEL0
100
AcDbBlockReference
  2
SW_CENTERMARKSYMBOL_3
 10
204.0779527863
 20
17.3236031588
 30
0.0
  0
ENDSEC
  0
SECTION
  2
OBJECTS
  0
DICTIONARY
  5
C
330
0
100
AcDbDictionary
281
     1
  3
ACAD_GROUP
350
D
  3
ACAD_LAYOUT
350
1A
  3
ACAD_MLINESTYLE
350
17
  3
ACAD_PLOTSETTINGS
350
19
  3
ACAD_PLOTSTYLENAME
350
E
  3
ACAD_SCALELIST
350
47
  0
DICTIONARY
  5
D
102
{ACAD_REACTORS
330
C
102
}
330
C
100
AcDbDictionary
281
     1
  0
DICTIONARY
  5
1A
102
{ACAD_REACTORS
330
C
102
}
330
C
100
AcDbDictionary
281
     1
  3
Layout1
350
1E
  3
Layout2
350
26
  3
Model
350
22
  0
DICTIONARY
  5
17
102
{ACAD_REACTORS
330
C
102
}
330
C
100
AcDbDictionary
281
     1
  3
Standard
350
18
  0
DICTIONARY
  5
19
102
{ACAD_REACTORS
330
C
102
}
330
C
100
AcDbDictionary
281
     1
  0
ACDBDICTIONARYWDFLT
  5
E
102
{ACAD_REACTORS
330
C
102
}
330
C
100
AcDbDictionary
281
     1
  3
Normal
350
F
100
AcDbDictionaryWithDefault
340
F
  0
DICTIONARY
  5
47
102
{ACAD_REACTORS
330
C
102
}
330
C
100
AcDbDictionary
281
     1
  3
A0
350
48
  3
A1
350
49
  3
A2
350
4A
  3
A3
350
4B
  3
A4
350
4C
  3
A5
350
4D
  3
A6
350
4E
  3
A7
350
4F
  3
A8
350
50
  3
A9
350
51
  3
B0
350
52
  3
B1
350
53
  3
B2
350
54
  3
B3
350
55
  3
B4
350
56
  3
B5
350
57
  3
B6
350
58
  3
B7
350
59
  3
B8
350
5A
  3
B9
350
5B
  3
C0
350
5C
  3
C1
350
5D
  3
C2
350
5E
  3
C3
350
5F
  3
C4
350
60
  3
C5
350
61
  3
C6
350
62
  3
C7
350
63
  3
C8
350
64
  3
C9
350
65
  3
D0
350
66
  3
D1
350
67
  3
D2
350
68
  0
LAYOUT
  5
1E
102
{ACAD_REACTORS
330
1A
102
}
330
1A
100
AcDbPlotSettings
  1

  2
none_device
  4

  6

 40
0.0
 41
0.0
 42
0.0
 43
0.0
 44
0.0
 45
0.0
 46
0.0
 47
0.0
 48
0.0
 49
0.0
140
0.0
141
0.0
142
1.0
143
1.0
 70
   688
 72
     1
 73
     0
 74
     5
  7

 75
    16
147
1.0
148
0.0
149
0.0
100
AcDbLayout
  1
Layout1
 70
     1
 71
     1
 10
0.0
 20
0.0
 11
420.0
 21
297.0
 12
0.0
 22
0.0
 32
0.0
 14
1.0000000000E+20
 24
1.0000000000E+20
 34
1.0000000000E+20
 15
-1.0000000000E+20
 25
-1.0000000000E+20
 35
-1.0000000000E+20
146
0.0
 13
0.0
 23
0.0
 33
0.0
 16
1.0
 26
0.0
 36
0.0
 17
0.0
 27
1.0
 37
0.0
 76
     0
330
1B
  0
LAYOUT
  5
26
102
{ACAD_REACTORS
330
1A
102
}
330
1A
100
AcDbPlotSettings
  1

  2
none_device
  4

  6

 40
0.0
 41
0.0
 42
0.0
 43
0.0
 44
0.0
 45
0.0
 46
0.0
 47
0.0
 48
0.0
 49
0.0
140
0.0
141
0.0
142
1.0
143
1.0
 70
   688
 72
     1
 73
     0
 74
     5
  7

 75
    16
147
1.0
148
0.0
149
0.0
100
AcDbLayout
  1
Layout2
 70
     1
 71
     2
 10
0.0
 20
0.0
 11
0.0
 21
0.0
 12
0.0
 22
0.0
 32
0.0
 14
0.0
 24
0.0
 34
0.0
 15
0.0
 25
0.0
 35
0.0
146
0.0
 13
0.0
 23
0.0
 33
0.0
 16
1.0
 26
0.0
 36
0.0
 17
0.0
 27
1.0
 37
0.0
 76
     0
330
23
  0
LAYOUT
  5
22
102
{ACAD_REACTORS
330
1A
102
}
330
1A
100
AcDbPlotSettings
  1

  2
none_device
  4
Letter_(8.50_x_11.00_Inches)
  6

 40
6.35
 41
6.35
 42
6.35000508
 43
6.35000508
 44
215.9
 45
279.4
 46
0.0
 47
0.0
 48
0.0
 49
0.0
140
0.0
141
0.0
142
1.0
143
1.0
 70
  1712
 72
     1
 73
     0
 74
     0
  7

 75
     0
147
1.0
148
0.0
149
0.0
100
AcDbLayout
  1
Model
 70
     1
 71
     0
 10
0.0
 20
0.0
 11
210.0
 21
297.0
 12
0.0
 22
0.0
 32
0.0
 14
0.0
 24
0.0
 34
0.0
 15
210.0
 25
297.0
 35
0.0
146
0.0
 13
0.0
 23
0.0
 33
0.0
 16
1.0
 26
0.0
 36
0.0
 17
0.0
 27
1.0
 37
0.0
 76
     0
330
1F
331
29
  0
MLINESTYLE
  5
18
102
{ACAD_REACTORS
330
17
102
}
330
17
100
AcDbMlineStyle
  2
Standard
 70
     0
  3

 62
   256
 51
90.0
 52
90.0
 71
     2
 49
0.5
 62
   256
  6
BYLAYER
 49
-0.5
 62
   256
  6
BYLAYER
  0
ACDBPLACEHOLDER
  5
F
102
{ACAD_REACTORS
330
E
102
}
330
E
  0
SCALE
  5
48
102
{ACAD_REACTORS
330
47
102
}
330
47
100
AcDbScale
 70
     0
300
1:1
140
1.0
141
1.0
290
     1
  0
SCALE
  5
49
102
{ACAD_REACTORS
330
47
102
}
330
47
100
AcDbScale
 70
     0
300
1:2
140
1.0
141
2.0
290
     0
  0
SCALE
  5
4A
102
{ACAD_REACTORS
330
47
102
}
330
47
100
AcDbScale
 70
     0
300
1:4
140
1.0
141
4.0
290
     0
  0
SCALE
  5
4B
102
{ACAD_REACTORS
330
47
102
}
330
47
100
AcDbScale
 70
     0
300
1:5
140
1.0
141
5.0
290
     0
  0
SCALE
  5
4C
102
{ACAD_REACTORS
330
47
102
}
330
47
100
AcDbScale
 70
     0
300
1:8
140
1.0
141
8.0
290
     0
  0
SCALE
  5
4D
102
{ACAD_REACTORS
330
47
102
}
330
47
100
AcDbScale
 70
     0
300
1:10
140
1.0
141
10.0
290
     0
  0
SCALE
  5
4E
102
{ACAD_REACTORS
330
47
102
}
330
47
100
AcDbScale
 70
     0
300
1:16
140
1.0
141
16.0
290
     0
  0
SCALE
  5
4F
102
{ACAD_REACTORS
330
47
102
}
330
47
100
AcDbScale
 70
     0
300
1:20
140
1.0
141
20.0
290
     0
  0
SCALE
  5
50
102
{ACAD_REACTORS
330
47
102
}
330
47
100
AcDbScale
 70
     0
300
1:30
140
1.0
141
30.0
290
     0
  0
SCALE
  5
51
102
{ACAD_REACTORS
330
47
102
}
330
47
100
AcDbScale
 70
     0
300
1:40
140
1.0
141
40.0
290
     0
  0
SCALE
  5
52
102
{ACAD_REACTORS
330
47
102
}
330
47
100
AcDbScale
 70
     0
300
1:50
140
1.0
141
50.0
290
     0
  0
SCALE
  5
53
102
{ACAD_REACTORS
330
47
102
}
330
47
100
AcDbScale
 70
     0
300
1:100
140
1.0
141
100.0
290
     0
  0
SCALE
  5
54
102
{ACAD_REACTORS
330
47
102
}
330
47
100
AcDbScale
 70
     0
300
2:1
140
2.0
141
1.0
290
     0
  0
SCALE
  5
55
102
{ACAD_REACTORS
330
47
102
}
330
47
100
AcDbScale
 70
     0
300
4:1
140
4.0
141
1.0
290
     0
  0
SCALE
  5
56
102
{ACAD_REACTORS
330
47
102
}
330
47
100
AcDbScale
 70
     0
300
8:1
140
8.0
141
1.0
290
     0
  0
SCALE
  5
57
102
{ACAD_REACTORS
330
47
102
}
330
47
100
AcDbScale
 70
     0
300
10:1
140
10.0
141
1.0
290
     0
  0
SCALE
  5
58
102
{ACAD_REACTORS
330
47
102
}
330
47
100
AcDbScale
 70
     0
300
100:1
140
100.0
141
1.0
290
     0
  0
SCALE
  5
59
102
{ACAD_REACTORS
330
47
102
}
330
47
100
AcDbScale
 70
     0
300
1/128" = 1'-0"
140
0.0078125
141
12.0
290
     0
  0
SCALE
  5
5A
102
{ACAD_REACTORS
330
47
102
}
330
47
100
AcDbScale
 70
     0
300
1/64" = 1'-0"
140
0.015625
141
12.0
290
     0
  0
SCALE
  5
5B
102
{ACAD_REACTORS
330
47
102
}
330
47
100
AcDbScale
 70
     0
300
1/32" = 1'-0"
140
0.03125
141
12.0
290
     0
  0
SCALE
  5
5C
102
{ACAD_REACTORS
330
47
102
}
330
47
100
AcDbScale
 70
     0
300
1/16" = 1'-0"
140
0.0625
141
12.0
290
     0
  0
SCALE
  5
5D
102
{ACAD_REACTORS
330
47
102
}
330
47
100
AcDbScale
 70
     0
300
3/32" = 1'-0"
140
0.09375
141
12.0
290
     0
  0
SCALE
  5
5E
102
{ACAD_REACTORS
330
47
102
}
330
47
100
AcDbScale
 70
     0
300
1/8" = 1'-0"
140
0.125
141
12.0
290
     0
  0
SCALE
  5
5F
102
{ACAD_REACTORS
330
47
102
}
330
47
100
AcDbScale
 70
     0
300
3/16" = 1'-0"
140
0.1875
141
12.0
290
     0
  0
SCALE
  5
60
102
{ACAD_REACTORS
330
47
102
}
330
47
100
AcDbScale
 70
     0
300
1/4" = 1'-0"
140
0.25
141
12.0
290
     0
  0
SCALE
  5
61
102
{ACAD_REACTORS
330
47
102
}
330
47
100
AcDbScale
 70
     0
300
3/8" = 1'-0"
140
0.375
141
12.0
290
     0
  0
SCALE
  5
62
102
{ACAD_REACTORS
330
47
102
}
330
47
100
AcDbScale
 70
     0
300
1/2" = 1'-0"
140
0.5
141
12.0
290
     0
  0
SCALE
  5
63
102
{ACAD_REACTORS
330
47
102
}
330
47
100
AcDbScale
 70
     0
300
3/4" = 1'-0"
140
0.75
141
12.0
290
     0
  0
SCALE
  5
64
102
{ACAD_REACTORS
330
47
102
}
330
47
100
AcDbScale
 70
     0
300
1" = 1'-0"
140
1.0
141
12.0
290
     0
  0
SCALE
  5
65
102
{ACAD_REACTORS
330
47
102
}
330
47
100
AcDbScale
 70
     0
300
1-1/2" = 1'-0"
140
1.5
141
12.0
290
     0
  0
SCALE
  5
66
102
{ACAD_REACTORS
330
47
102
}
330
47
100
AcDbScale
 70
     0
300
3" = 1'-0"
140
3.0
141
12.0
290
     0
  0
SCALE
  5
67
102
{ACAD_REACTORS
330
47
102
}
330
47
100
AcDbScale
 70
     0
300
6" = 1'-0"
140
6.0
141
12.0
290
     0
  0
SCALE
  5
68
102
{ACAD_REACTORS
330
47
102
}
330
47
100
AcDbScale
 70
     0
300
1'-0" = 1'-0"
140
12.0
141
12.0
290
     0
  0
ENDSEC
  0
EOF
