  0
SECTION
  2
HEADER
  9
$ACADVER
  1
AC1015
  9
$ACADMAINTVER
 70
     6
  9
$DWGCODEPAGE
  3
ANSI_1252
  9
$INSBASE
 10
0.0
 20
0.0
 30
0.0
  9
$EXTMIN
 10
0.0
 20
0.0
 30
0.0
  9
$EXTMAX
 10
210.0
 20
297.0
 30
0.0
  9
$LIMMIN
 10
0.0
 20
0.0
  9
$LIMMAX
 10
210.0
 20
297.0
  9
$ORTHOMODE
 70
     0
  9
$REGENMODE
 70
     1
  9
$FILLMODE
 70
     1
  9
$QTEXTMODE
 70
     0
  9
$MIRRTEXT
 70
     1
  9
$LTSCALE
 40
1.0
  9
$ATTMODE
 70
     1
  9
$TEXTSIZE
 40
2.0
  9
$TRACEWID
 40
1.0
  9
$TEXTSTYLE
  7
Standard
  9
$CLAYER
  8
0
  9
$CELTYPE
  6
ByLayer
  9
$CECOLOR
 62
   256
  9
$CELTSCALE
 40
1.0
  9
$DISPSILH
 70
     0
  9
$DIMSCALE
 40
1.0
  9
$DIMASZ
 40
2.0
  9
$DIMEXO
 40
1.0
  9
$DIMDLI
 40
3.75
  9
$DIMRND
 40
0.0
  9
$DIMDLE
 40
0.0
  9
$DIMEXE
 40
1.0
  9
$DIMTP
 40
0.0
  9
$DIMTM
 40
0.0
  9
$DIMTXT
 40
2.0
  9
$DIMCEN
 40
2.5
  9
$DIMTSZ
 40
0.0
  9
$DIMTOL
 70
     0
  9
$DIMLIM
 70
     0
  9
$DIMTIH
 70
     1
  9
$DIMTOH
 70
     1
  9
$DIMSE1
 70
     0
  9
$DIMSE2
 70
     0
  9
$DIMTAD
 70
     1
  9
$DIMZIN
 70
     0
  9
$DIMBLK
  1

  9
$DIMASO
 70
     1
  9
$DIMSHO
 70
     1
  9
$DIMPOST
  1

  9
$DIMAPOST
  1

  9
$DIMALT
 70
     0
  9
$DIMALTD
 70
     3
  9
$DIMALTF
 40
0.0393700787
  9
$DIMLFAC
 40
9.0
  9
$DIMTOFL
 70
     1
  9
$DIMTVP
 40
0.0
  9
$DIMTIX
 70
     0
  9
$DIMSOXD
 70
     0
  9
$DIMSAH
 70
     0
  9
$DIMBLK1
  1

  9
$DIMBLK2
  1

  9
$DIMSTYLE
  2
ISO-25
  9
$DIMCLRD
 70
     0
  9
$DIMCLRE
 70
     0
  9
$DIMCLRT
 70
     0
  9
$DIMTFAC
 40
1.0
  9
$DIMGAP
 40
1.524
  9
$DIMJUST
 70
     0
  9
$DIMSD1
 70
     0
  9
$DIMSD2
 70
     0
  9
$DIMTOLJ
 70
     0
  9
$DIMTZIN
 70
     0
  9
$DIMALTZ
 70
     0
  9
$DIMALTTZ
 70
     0
  9
$DIMUPT
 70
     0
  9
$DIMDEC
 70
     3
  9
$DIMTDEC
 70
     3
  9
$DIMALTU
 70
     2
  9
$DIMALTTD
 70
     3
  9
$DIMTXSTY
  7
Standard
  9
$DIMAUNIT
 70
     0
  9
$DIMADEC
 70
     2
  9
$DIMALTRND
 40
0.0
  9
$DIMAZIN
 70
     0
  9
$DIMDSEP
 70
    44
  9
$DIMATFIT
 70
     3
  9
$DIMFRAC
 70
     0
  9
$DIMLDRBLK
  1

  9
$DIMLUNIT
 70
     2
  9
$DIMLWD
 70
    -2
  9
$DIMLWE
 70
    -2
  9
$DIMTMOVE
 70
     0
  9
$LUNITS
 70
     2
  9
$LUPREC
 70
     2
  9
$SKETCHINC
 40
1.0
  9
$FILLETRAD
 40
10.0
  9
$AUNITS
 70
     0
  9
$AUPREC
 70
     2
  9
$MENU
  1
.
  9
$ELEVATION
 40
0.0
  9
$PELEVATION
 40
0.0
  9
$THICKNESS
 40
0.0
  9
$LIMCHECK
 70
     0
  9
$CHAMFERA
 40
0.0
  9
$CHAMFERB
 40
0.0
  9
$CHAMFERC
 40
0.0
  9
$CHAMFERD
 40
0.0
  9
$SKPOLY
 70
     0
  9
$TDCREATE
 40
2458753.814411759
  9
$TDUCREATE
 40
2458753.689411759
  9
$TDUPDATE
 40
2458753.814413183
  9
$TDUUPDATE
 40
2458753.689413183
  9
$TDINDWG
 40
0.0000000116
  9
$TDUSRTIMER
 40
0.0000000116
  9
$USRTIMER
 70
     1
  9
$ANGBASE
 50
0.0
  9
$ANGDIR
 70
     0
  9
$PDMODE
 70
     0
  9
$PDSIZE
 40
-1.0
  9
$PLINEWID
 40
0.0
  9
$SPLFRAME
 70
     0
  9
$SPLINETYPE
 70
     6
  9
$SPLINESEGS
 70
     8
  9
$HANDSEED
  5
188
  9
$SURFTAB1
 70
     6
  9
$SURFTAB2
 70
     6
  9
$SURFTYPE
 70
     6
  9
$SURFU
 70
     6
  9
$SURFV
 70
     6
  9
$UCSBASE
  2

  9
$UCSNAME
  2

  9
$UCSORG
 10
0.0
 20
0.0
 30
0.0
  9
$UCSXDIR
 10
1.0
 20
0.0
 30
0.0
  9
$UCSYDIR
 10
0.0
 20
1.0
 30
0.0
  9
$UCSORTHOREF
  2

  9
$UCSORTHOVIEW
 70
     0
  9
$UCSORGTOP
 10
0.0
 20
0.0
 30
0.0
  9
$UCSORGBOTTOM
 10
0.0
 20
0.0
 30
0.0
  9
$UCSORGLEFT
 10
0.0
 20
0.0
 30
0.0
  9
$UCSORGRIGHT
 10
0.0
 20
0.0
 30
0.0
  9
$UCSORGFRONT
 10
0.0
 20
0.0
 30
0.0
  9
$UCSORGBACK
 10
0.0
 20
0.0
 30
0.0
  9
$PUCSBASE
  2

  9
$PUCSNAME
  2

  9
$PUCSORG
 10
0.0
 20
0.0
 30
0.0
  9
$PUCSXDIR
 10
1.0
 20
0.0
 30
0.0
  9
$PUCSYDIR
 10
0.0
 20
1.0
 30
0.0
  9
$PUCSORTHOREF
  2

  9
$PUCSORTHOVIEW
 70
     0
  9
$PUCSORGTOP
 10
0.0
 20
0.0
 30
0.0
  9
$PUCSORGBOTTOM
 10
0.0
 20
0.0
 30
0.0
  9
$PUCSORGLEFT
 10
0.0
 20
0.0
 30
0.0
  9
$PUCSORGRIGHT
 10
0.0
 20
0.0
 30
0.0
  9
$PUCSORGFRONT
 10
0.0
 20
0.0
 30
0.0
  9
$PUCSORGBACK
 10
0.0
 20
0.0
 30
0.0
  9
$USERI1
 70
     0
  9
$USERI2
 70
     0
  9
$USERI3
 70
     0
  9
$USERI4
 70
     0
  9
$USERI5
 70
     0
  9
$USERR1
 40
0.0
  9
$USERR2
 40
0.0
  9
$USERR3
 40
0.0
  9
$USERR4
 40
0.0
  9
$USERR5
 40
0.0
  9
$WORLDVIEW
 70
     1
  9
$SHADEDGE
 70
     3
  9
$SHADEDIF
 70
    70
  9
$TILEMODE
 70
     1
  9
$MAXACTVP
 70
    64
  9
$PINSBASE
 10
0.0
 20
0.0
 30
0.0
  9
$PLIMCHECK
 70
     0
  9
$PEXTMIN
 10
1.0000000000E+20
 20
1.0000000000E+20
 30
1.0000000000E+20
  9
$PEXTMAX
 10
-1.0000000000E+20
 20
-1.0000000000E+20
 30
-1.0000000000E+20
  9
$PLIMMIN
 10
0.0
 20
0.0
  9
$PLIMMAX
 10
420.0
 20
297.0
  9
$UNITMODE
 70
     0
  9
$VISRETAIN
 70
     1
  9
$PLINEGEN
 70
     0
  9
$PSLTSCALE
 70
     1
  9
$TREEDEPTH
 70
  3020
  9
$CMLSTYLE
  2
Standard
  9
$CMLJUST
 70
     0
  9
$CMLSCALE
 40
20.0
  9
$PROXYGRAPHICS
 70
     1
  9
$MEASUREMENT
 70
     1
  9
$CELWEIGHT
370
    -1
  9
$ENDCAPS
280
     0
  9
$JOINSTYLE
280
     0
  9
$LWDISPLAY
290
     1
  9
$INSUNITS
 70
     4
  9
$HYPERLINKBASE
  1

  9
$STYLESHEET
  1

  9
$XEDIT
290
     1
  9
$CEPSNTYPE
380
     0
  9
$PSTYLEMODE
290
     1
  9
$FINGERPRINTGUID
  2
{3793bc57-c669-4396-9ef6-e9b97909bb2f}
  9
$VERSIONGUID
  2
{FAEB1C32-E019-11D5-929B-00C0DF256EC4}
  9
$EXTNAMES
290
     1
  9
$PSVPSCALE
 40
0.0
  9
$OLESTARTUP
290
     0
  0
ENDSEC
  0
SECTION
  2
CLASSES
  0
CLASS
  1
ACDBDICTIONARYWDFLT
  2
AcDbDictionaryWithDefault
  3
ObjectDBX Classes
 90
        0
280
     0
281
     0
  0
CLASS
  1
VISUALSTYLE
  2
AcDbVisualStyle
  3
ObjectDBX Classes
 90
     4095
280
     0
281
     0
  0
CLASS
  1
MATERIAL
  2
AcDbMaterial
  3
ObjectDBX Classes
 90
     1153
280
     0
281
     0
  0
CLASS
  1
SCALE
  2
AcDbScale
  3
ObjectDBX Classes
 90
     1153
280
     0
281
     0
  0
CLASS
  1
TABLESTYLE
  2
AcDbTableStyle
  3
ObjectDBX Classes
 90
     4095
280
     0
281
     0
  0
CLASS
  1
MLEADERSTYLE
  2
AcDbMLeaderStyle
  3
ACDB_MLEADERSTYLE_CLASS
 90
     4095
280
     0
281
     0
  0
CLASS
  1
SUN
  2
AcDbSun
  3
SCENEOE
 90
     1153
280
     0
281
     0
  0
CLASS
  1
ACDBPLACEHOLDER
  2
AcDbPlaceHolder
  3
ObjectDBX Classes
 90
        0
280
     0
281
     0
  0
CLASS
  1
LAYOUT
  2
AcDbLayout
  3
ObjectDBX Classes
 90
        0
280
     0
281
     0
  0
ENDSEC
  0
SECTION
  2
TABLES
  0
TABLE
  2
VPORT
  5
8
330
0
100
AcDbSymbolTable
 70
     1
  0
VPORT
  5
29
330
8
100
AcDbSymbolTableRecord
100
AcDbViewportTableRecord
  2
*Active
 70
     0
 10
0.0
 20
0.0
 11
1.0
 21
1.0
 12
105.0
 22
148.5
 13
0.0
 23
0.0
 14
10.0
 24
10.0
 15
10.0
 25
10.0
 16
0.0
 26
0.0
 36
1.0
 17
0.0
 27
0.0
 37
0.0
 40
297.0
 41
0.7070707071
 42
50.0
 43
0.0
 44
0.0
 50
0.0
 51
0.0
 71
     0
 72
  2000
 73
     1
 74
     3
 75
     0
 76
     0
 77
     0
 78
     0
281
     0
 65
     1
110
0.0
120
0.0
130
0.0
111
1.0
121
0.0
131
0.0
112
0.0
122
1.0
132
0.0
 79
     0
146
0.0
  0
ENDTAB
  0
TABLE
  2
LTYPE
  5
5
330
0
100
AcDbSymbolTable
 70
     6
  0
LTYPE
  5
14
330
5
100
AcDbSymbolTableRecord
100
AcDbLinetypeTableRecord
  2
ByBlock
 70
     0
  3

 72
    65
 73
     0
 40
0.0
  0
LTYPE
  5
15
330
5
100
AcDbSymbolTableRecord
100
AcDbLinetypeTableRecord
  2
ByLayer
 70
     0
  3

 72
    65
 73
     0
 40
0.0
  0
LTYPE
  5
16
330
5
100
AcDbSymbolTableRecord
100
AcDbLinetypeTableRecord
  2
Continuous
 70
     0
  3
Solid line
 72
    65
 73
     0
 40
0.0
  0
LTYPE
  5
6E
330
5
100
AcDbSymbolTableRecord
100
AcDbLinetypeTableRecord
  2
HIDDEN
 70
     0
  3
Hidden __ __ __ __ __ __ __ __ __ __ __ __ __ __
 72
    65
 73
     2
 40
1.905
 49
1.27
 74
     0
 49
-0.635
 74
     0
  0
LTYPE
  5
6F
330
5
100
AcDbSymbolTableRecord
100
AcDbLinetypeTableRecord
  2
PHANTOM
 70
     0
  3
Phantom ______  __  __  ______  __  __  ______
 72
    65
 73
     6
 40
12.7
 49
6.35
 74
     0
 49
-1.27
 74
     0
 49
1.27
 74
     0
 49
-1.27
 74
     0
 49
1.27
 74
     0
 49
-1.27
 74
     0
  0
LTYPE
  5
70
330
5
100
AcDbSymbolTableRecord
100
AcDbLinetypeTableRecord
  2
CENTER
 70
     0
  3
Center ____ _ ____ _ ____ _ ____ _ ____ _ ____
 72
    65
 73
     4
 40
10.16
 49
6.35
 74
     0
 49
-1.27
 74
     0
 49
1.27
 74
     0
 49
-1.27
 74
     0
  0
LTYPE
  5
71
330
5
100
AcDbSymbolTableRecord
100
AcDbLinetypeTableRecord
  2
CENTERX2
 70
     0
  3
Center (2x) ________  __  ________  __  _____
 72
    65
 73
     4
 40
20.32
 49
12.7
 74
     0
 49
-2.54
 74
     0
 49
2.54
 74
     0
 49
-2.54
 74
     0
  0
LTYPE
  5
72
330
5
100
AcDbSymbolTableRecord
100
AcDbLinetypeTableRecord
  2
DOT2
 70
     0
  3
Dot (.5x) ........................................
 72
    65
 73
     2
 40
0.635
 49
0.0
 74
     0
 49
-0.635
 74
     0
  0
ENDTAB
  0
TABLE
  2
LAYER
  5
2
330
0
100
AcDbSymbolTable
 70
    53
  0
LAYER
  5
10
330
2
100
AcDbSymbolTableRecord
100
AcDbLayerTableRecord
  2
0
 70
     0
 62
     7
  6
Continuous
370
    -3
390
F
  0
LAYER
  5
73
330
2
100
AcDbSymbolTableRecord
100
AcDbLayerTableRecord
  2
SLD-0
 70
     0
 62
     7
  6
Continuous
370
    -3
390
F
  0
LAYER
  5
74
330
2
100
AcDbSymbolTableRecord
100
AcDbLayerTableRecord
  2
LEVEL0
 70
     0
 62
     7
  6
Continuous
370
    -3
390
F
  0
LAYER
  5
75
330
2
100
AcDbSymbolTableRecord
100
AcDbLayerTableRecord
  2
1
 70
     0
 62
     7
  6
Continuous
370
    -3
390
F
  0
LAYER
  5
76
330
2
100
AcDbSymbolTableRecord
100
AcDbLayerTableRecord
  2
2
 70
     0
 62
     7
  6
Continuous
370
    -3
390
F
  0
LAYER
  5
77
330
2
100
AcDbSymbolTableRecord
100
AcDbLayerTableRecord
  2
3
 70
     0
 62
     7
  6
Continuous
370
    -3
390
F
  0
LAYER
  5
78
330
2
100
AcDbSymbolTableRecord
100
AcDbLayerTableRecord
  2
4
 70
     0
 62
     7
  6
Continuous
370
    -3
390
F
  0
LAYER
  5
79
330
2
100
AcDbSymbolTableRecord
100
AcDbLayerTableRecord
  2
5
 70
     0
 62
     7
  6
Continuous
370
    -3
390
F
  0
LAYER
  5
7A
330
2
100
AcDbSymbolTableRecord
100
AcDbLayerTableRecord
  2
6
 70
     0
 62
     7
  6
Continuous
370
    -3
390
F
  0
LAYER
  5
7B
330
2
100
AcDbSymbolTableRecord
100
AcDbLayerTableRecord
  2
7
 70
     0
 62
     7
  6
Continuous
370
    -3
390
F
  0
LAYER
  5
7C
330
2
100
AcDbSymbolTableRecord
100
AcDbLayerTableRecord
  2
8
 70
     0
 62
     7
  6
Continuous
370
    -3
390
F
  0
LAYER
  5
7D
330
2
100
AcDbSymbolTableRecord
100
AcDbLayerTableRecord
  2
9
 70
     0
 62
     7
  6
Continuous
370
    -3
390
F
  0
LAYER
  5
7E
330
2
100
AcDbSymbolTableRecord
100
AcDbLayerTableRecord
  2
10
 70
     0
 62
     7
  6
Continuous
370
    -3
390
F
  0
LAYER
  5
7F
330
2
100
AcDbSymbolTableRecord
100
AcDbLayerTableRecord
  2
11
 70
     0
 62
     7
  6
Continuous
370
    -3
390
F
  0
LAYER
  5
80
330
2
100
AcDbSymbolTableRecord
100
AcDbLayerTableRecord
  2
12
 70
     0
 62
     7
  6
Continuous
370
    -3
390
F
  0
LAYER
  5
81
330
2
100
AcDbSymbolTableRecord
100
AcDbLayerTableRecord
  2
13
 70
     0
 62
     7
  6
Continuous
370
    -3
390
F
  0
LAYER
  5
82
330
2
100
AcDbSymbolTableRecord
100
AcDbLayerTableRecord
  2
14
 70
     0
 62
     7
  6
Continuous
370
    -3
390
F
  0
LAYER
  5
83
330
2
100
AcDbSymbolTableRecord
100
AcDbLayerTableRecord
  2
15
 70
     0
 62
     7
  6
Continuous
370
    -3
390
F
  0
LAYER
  5
84
330
2
100
AcDbSymbolTableRecord
100
AcDbLayerTableRecord
  2
16
 70
     0
 62
     7
  6
Continuous
370
    -3
390
F
  0
LAYER
  5
85
330
2
100
AcDbSymbolTableRecord
100
AcDbLayerTableRecord
  2
17
 70
     0
 62
     7
  6
Continuous
370
    -3
390
F
  0
LAYER
  5
86
330
2
100
AcDbSymbolTableRecord
100
AcDbLayerTableRecord
  2
18
 70
     0
 62
     7
  6
Continuous
370
    -3
390
F
  0
LAYER
  5
87
330
2
100
AcDbSymbolTableRecord
100
AcDbLayerTableRecord
  2
19
 70
     0
 62
     7
  6
Continuous
370
    -3
390
F
  0
LAYER
  5
88
330
2
100
AcDbSymbolTableRecord
100
AcDbLayerTableRecord
  2
20
 70
     0
 62
     7
  6
Continuous
370
    -3
390
F
  0
LAYER
  5
89
330
2
100
AcDbSymbolTableRecord
100
AcDbLayerTableRecord
  2
21
 70
     0
 62
     7
  6
Continuous
370
    -3
390
F
  0
LAYER
  5
8A
330
2
100
AcDbSymbolTableRecord
100
AcDbLayerTableRecord
  2
22
 70
     0
 62
     7
  6
Continuous
370
    -3
390
F
  0
LAYER
  5
8B
330
2
100
AcDbSymbolTableRecord
100
AcDbLayerTableRecord
  2
23
 70
     0
 62
     7
  6
Continuous
370
    -3
390
F
  0
LAYER
  5
8C
330
2
100
AcDbSymbolTableRecord
100
AcDbLayerTableRecord
  2
24
 70
     0
 62
     7
  6
Continuous
370
    -3
390
F
  0
LAYER
  5
8D
330
2
100
AcDbSymbolTableRecord
100
AcDbLayerTableRecord
  2
25
 70
     0
 62
     7
  6
Continuous
370
    -3
390
F
  0
LAYER
  5
8E
330
2
100
AcDbSymbolTableRecord
100
AcDbLayerTableRecord
  2
26
 70
     0
 62
     7
  6
Continuous
370
    -3
390
F
  0
LAYER
  5
8F
330
2
100
AcDbSymbolTableRecord
100
AcDbLayerTableRecord
  2
27
 70
     0
 62
     7
  6
Continuous
370
    -3
390
F
  0
LAYER
  5
90
330
2
100
AcDbSymbolTableRecord
100
AcDbLayerTableRecord
  2
28
 70
     0
 62
     7
  6
Continuous
370
    -3
390
F
  0
LAYER
  5
91
330
2
100
AcDbSymbolTableRecord
100
AcDbLayerTableRecord
  2
29
 70
     0
 62
     7
  6
Continuous
370
    -3
390
F
  0
LAYER
  5
92
330
2
100
AcDbSymbolTableRecord
100
AcDbLayerTableRecord
  2
30
 70
     0
 62
     7
  6
Continuous
370
    -3
390
F
  0
LAYER
  5
93
330
2
100
AcDbSymbolTableRecord
100
AcDbLayerTableRecord
  2
31
 70
     0
 62
     7
  6
Continuous
370
    -3
390
F
  0
LAYER
  5
94
330
2
100
AcDbSymbolTableRecord
100
AcDbLayerTableRecord
  2
32
 70
     0
 62
     7
  6
Continuous
370
    -3
390
F
  0
LAYER
  5
95
330
2
100
AcDbSymbolTableRecord
100
AcDbLayerTableRecord
  2
33
 70
     0
 62
     7
  6
Continuous
370
    -3
390
F
  0
LAYER
  5
96
330
2
100
AcDbSymbolTableRecord
100
AcDbLayerTableRecord
  2
34
 70
     0
 62
     7
  6
Continuous
370
    -3
390
F
  0
LAYER
  5
97
330
2
100
AcDbSymbolTableRecord
100
AcDbLayerTableRecord
  2
35
 70
     0
 62
     7
  6
Continuous
370
    -3
390
F
  0
LAYER
  5
98
330
2
100
AcDbSymbolTableRecord
100
AcDbLayerTableRecord
  2
36
 70
     0
 62
     7
  6
Continuous
370
    -3
390
F
  0
LAYER
  5
99
330
2
100
AcDbSymbolTableRecord
100
AcDbLayerTableRecord
  2
37
 70
     0
 62
     7
  6
Continuous
370
    -3
390
F
  0
LAYER
  5
9A
330
2
100
AcDbSymbolTableRecord
100
AcDbLayerTableRecord
  2
38
 70
     0
 62
     7
  6
Continuous
370
    -3
390
F
  0
LAYER
  5
9B
330
2
100
AcDbSymbolTableRecord
100
AcDbLayerTableRecord
  2
39
 70
     0
 62
     7
  6
Continuous
370
    -3
390
F
  0
LAYER
  5
9C
330
2
100
AcDbSymbolTableRecord
100
AcDbLayerTableRecord
  2
40
 70
     0
 62
     7
  6
Continuous
370
    -3
390
F
  0
LAYER
  5
9D
330
2
100
AcDbSymbolTableRecord
100
AcDbLayerTableRecord
  2
41
 70
     0
 62
     7
  6
Continuous
370
    -3
390
F
  0
LAYER
  5
9E
330
2
100
AcDbSymbolTableRecord
100
AcDbLayerTableRecord
  2
42
 70
     0
 62
     7
  6
Continuous
370
    -3
390
F
  0
LAYER
  5
9F
330
2
100
AcDbSymbolTableRecord
100
AcDbLayerTableRecord
  2
43
 70
     0
 62
     7
  6
Continuous
370
    -3
390
F
  0
LAYER
  5
A0
330
2
100
AcDbSymbolTableRecord
100
AcDbLayerTableRecord
  2
44
 70
     0
 62
     7
  6
Continuous
370
    -3
390
F
  0
LAYER
  5
A1
330
2
100
AcDbSymbolTableRecord
100
AcDbLayerTableRecord
  2
45
 70
     0
 62
     7
  6
Continuous
370
    -3
390
F
  0
LAYER
  5
A2
330
2
100
AcDbSymbolTableRecord
100
AcDbLayerTableRecord
  2
46
 70
     0
 62
     7
  6
Continuous
370
    -3
390
F
  0
LAYER
  5
A3
330
2
100
AcDbSymbolTableRecord
100
AcDbLayerTableRecord
  2
47
 70
     0
 62
     7
  6
Continuous
370
    -3
390
F
  0
LAYER
  5
A4
330
2
100
AcDbSymbolTableRecord
100
AcDbLayerTableRecord
  2
48
 70
     0
 62
     7
  6
Continuous
370
    -3
390
F
  0
LAYER
  5
A5
330
2
100
AcDbSymbolTableRecord
100
AcDbLayerTableRecord
  2
49
 70
     0
 62
     7
  6
Continuous
370
    -3
390
F
  0
LAYER
  5
A6
330
2
100
AcDbSymbolTableRecord
100
AcDbLayerTableRecord
  2
50
 70
     0
 62
     7
  6
Continuous
370
    -3
390
F
  0
ENDTAB
  0
TABLE
  2
STYLE
  5
3
330
0
100
AcDbSymbolTable
 70
     2
  0
STYLE
  5
11
330
3
100
AcDbSymbolTableRecord
100
AcDbTextStyleTableRecord
  2
Standard
 70
     0
 40
0.0
 41
1.0
 50
0.0
 71
     0
 42
2.0
  3
txt
  4

  0
STYLE
  5
B4
330
3
100
AcDbSymbolTableRecord
100
AcDbTextStyleTableRecord
  2
SLDTEXTSTYLE0
 70
     0
 40
0.0
 41
0.75
 50
0.0
 71
     0
 42
2.0
  3
TXT
  4

  0
ENDTAB
  0
TABLE
  2
VIEW
  5
6
330
0
100
AcDbSymbolTable
 70
     0
  0
ENDTAB
  0
TABLE
  2
UCS
  5
7
330
0
100
AcDbSymbolTable
 70
     0
  0
ENDTAB
  0
TABLE
  2
APPID
  5
9
330
0
100
AcDbSymbolTable
 70
     1
  0
APPID
  5
12
330
9
100
AcDbSymbolTableRecord
100
AcDbRegAppTableRecord
  2
ACAD
 70
     0
  0
ENDTAB
  0
TABLE
  2
DIMSTYLE
  5
A
330
0
100
AcDbSymbolTable
 70
     5
100
AcDbDimStyleTable
  0
DIMSTYLE
105
27
330
A
100
AcDbSymbolTableRecord
100
AcDbDimStyleTableRecord
  2
ISO-25
 70
     0
 41
2.5
 42
0.625
 43
3.75
 44
1.25
 73
     0
 74
     0
 77
     1
 78
     8
140
2.5
141
2.5
143
0.0393700787
147
0.625
171
     3
172
     1
178
     0
271
     2
272
     2
274
     3
278
    44
283
     0
284
     8
340
11
  0
DIMSTYLE
105
B5
102
{ACAD_REACTORS
330
B3
330
CF
330
E3
330
F6
102
}
330
A
100
AcDbSymbolTableRecord
100
AcDbDimStyleTableRecord
  2
SLDDIMSTYLE0
 70
     0
 41
2.0
 44
0.0
 45
0.000000001
 73
     0
 74
     0
 77
     1
 78
     4
 79
     1
140
2.0
143
0.0393700787
147
0.5
148
0.000000001
170
     1
173
     1
178
     0
271
     3
272
     3
276
     2
284
    12
340
B4
341
B6
343
B6
344
B6
  0
DIMSTYLE
105
10B
102
{ACAD_REACTORS
330
10A
330
126
102
}
330
A
100
AcDbSymbolTableRecord
100
AcDbDimStyleTableRecord
  2
SLDDIMSTYLE1
 70
     0
 41
2.0
 44
0.0
 45
0.000000001
 47
0.3
 48
0.2
 71
     1
 73
     0
 74
     0
 77
     1
 78
    12
 79
     3
140
2.0
143
0.0393700787
147
0.5
148
0.000000001
170
     1
173
     1
178
     0
271
     2
272
     1
276
     2
284
     8
340
B4
341
B6
343
B6
344
B6
  0
DIMSTYLE
105
142
102
{ACAD_REACTORS
330
141
102
}
330
A
100
AcDbSymbolTableRecord
100
AcDbDimStyleTableRecord
  2
SLDDIMSTYLE2
 70
     0
 41
2.0
 44
0.0
 45
0.000000001
 73
     0
 74
     0
 77
     1
 78
    12
 79
     3
140
2.0
141
0.0
143
0.0393700787
147
0.5
148
0.000000001
170
     1
173
     1
178
     0
271
     1
272
     1
276
     2
279
     1
284
    12
340
B4
341
B6
343
B6
344
B6
  0
DIMSTYLE
105
156
330
A
100
AcDbSymbolTableRecord
100
AcDbDimStyleTableRecord
  2
SLDDIMSTYLE3
 70
     0
 41
2.0
 44
0.0
 45
0.000000001
146
2.0
147
0.0
173
     1
178
     0
271
     0
272
     0
276
     2
340
11
  0
ENDTAB
  0
TABLE
  2
BLOCK_RECORD
  5
1
330
0
100
AcDbSymbolTable
 70
    14
  0
BLOCK_RECORD
  5
1F
330
1
100
AcDbSymbolTableRecord
100
AcDbBlockTableRecord
  2
*Model_Space
340
22
  0
BLOCK_RECORD
  5
1B
330
1
100
AcDbSymbolTableRecord
100
AcDbBlockTableRecord
  2
*Paper_Space
340
1E
  0
BLOCK_RECORD
  5
23
330
1
100
AcDbSymbolTableRecord
100
AcDbBlockTableRecord
  2
*Paper_Space0
340
26
  0
BLOCK_RECORD
  5
B6
330
1
100
AcDbSymbolTableRecord
100
AcDbBlockTableRecord
  2
_Closed
340
0
102
{BLKREFS
331
C0
331
C1
331
D3
331
D4
331
E7
331
E8
331
FA
331
FB
331
10F
331
110
331
12A
331
12B
331
146
102
}
  0
BLOCK_RECORD
  5
BD
330
1
100
AcDbSymbolTableRecord
100
AcDbBlockTableRecord
  2
_D
340
0
  0
BLOCK_RECORD
  5
D0
330
1
100
AcDbSymbolTableRecord
100
AcDbBlockTableRecord
  2
_D_1
340
0
  0
BLOCK_RECORD
  5
E4
330
1
100
AcDbSymbolTableRecord
100
AcDbBlockTableRecord
  2
_D_2
340
0
  0
BLOCK_RECORD
  5
F7
330
1
100
AcDbSymbolTableRecord
100
AcDbBlockTableRecord
  2
_D_3
340
0
  0
BLOCK_RECORD
  5
10C
330
1
100
AcDbSymbolTableRecord
100
AcDbBlockTableRecord
  2
_D_4
340
0
  0
BLOCK_RECORD
  5
127
330
1
100
AcDbSymbolTableRecord
100
AcDbBlockTableRecord
  2
_D_5
340
0
  0
BLOCK_RECORD
  5
143
330
1
100
AcDbSymbolTableRecord
100
AcDbBlockTableRecord
  2
_D_6
340
0
  0
BLOCK_RECORD
  5
151
330
1
100
AcDbSymbolTableRecord
100
AcDbBlockTableRecord
  2
SW_NOTE_0
340
0
102
{BLKREFS
331
155
102
}
  0
BLOCK_RECORD
  5
158
330
1
100
AcDbSymbolTableRecord
100
AcDbBlockTableRecord
  2
SW_CENTERMARKSYMBOL_0
340
0
102
{BLKREFS
331
163
102
}
  0
BLOCK_RECORD
  5
164
330
1
100
AcDbSymbolTableRecord
100
AcDbBlockTableRecord
  2
SW_CENTERMARKSYMBOL_1
340
0
102
{BLKREFS
331
16F
102
}
  0
BLOCK_RECORD
  5
170
330
1
100
AcDbSymbolTableRecord
100
AcDbBlockTableRecord
  2
SW_CENTERMARKSYMBOL_2
340
0
102
{BLKREFS
331
17B
102
}
  0
BLOCK_RECORD
  5
17C
330
1
100
AcDbSymbolTableRecord
100
AcDbBlockTableRecord
  2
SW_CENTERMARKSYMBOL_3
340
0
102
{BLKREFS
331
187
102
}
  0
ENDTAB
  0
ENDSEC
  0
SECTION
  2
BLOCKS
  0
BLOCK
  5
20
330
1F
100
AcDbEntity
  8
0
100
AcDbBlockBegin
  2
*Model_Space
 70
     0
 10
0.0
 20
0.0
 30
0.0
  3
*Model_Space
  1

  0
ENDBLK
  5
21
330
1F
100
AcDbEntity
  8
0
100
AcDbBlockEnd
  0
BLOCK
  5
1C
330
1B
100
AcDbEntity
 67
     1
  8
0
100
AcDbBlockBegin
  2
*Paper_Space
 70
     0
 10
0.0
 20
0.0
 30
0.0
  3
*Paper_Space
  1

  0
ENDBLK
  5
1D
330
1B
100
AcDbEntity
 67
     1
  8
0
100
AcDbBlockEnd
  0
BLOCK
  5
24
330
23
100
AcDbEntity
  8
0
100
AcDbBlockBegin
  2
*Paper_Space0
 70
     0
 10
0.0
 20
0.0
 30
0.0
  3
*Paper_Space0
  1

  0
ENDBLK
  5
25
330
23
100
AcDbEntity
  8
0
100
AcDbBlockEnd
  0
BLOCK
  5
B7
330
B6
100
AcDbEntity
  8
0
100
AcDbBlockBegin
  2
_Closed
 70
     0
 10
0.0
 20
0.0
 30
0.0
  3
_Closed
  1

  0
LINE
  5
B9
330
B6
100
AcDbEntity
  8
0
  6
ByBlock
 62
     0
370
    -2
100
AcDbLine
 10
-1.0
 20
0.166667
 30
0.0
 11
0.0
 21
0.0
 31
0.0
  0
LINE
  5
BA
330
B6
100
AcDbEntity
  8
0
  6
ByBlock
 62
     0
370
    -2
100
AcDbLine
 10
0.0
 20
0.0
 30
0.0
 11
-1.0
 21
-0.166667
 31
0.0
  0
LINE
  5
BB
330
B6
100
AcDbEntity
  8
0
  6
ByBlock
 62
     0
370
    -2
100
AcDbLine
 10
-1.0
 20
0.166667
 30
0.0
 11
-1.0
 21
-0.166667
 31
0.0
  0
LINE
  5
BC
330
B6
100
AcDbEntity
  8
0
  6
ByBlock
 62
     0
370
    -2
100
AcDbLine
 10
0.0
 20
0.0
 30
0.0
 11
-1.0
 21
0.0
 31
0.0
  0
ENDBLK
  5
B8
330
B6
100
AcDbEntity
  8
0
100
AcDbBlockEnd
  0
BLOCK
  5
BE
330
BD
100
AcDbEntity
  8
0
100
AcDbBlockBegin
  2
_D
 70
     0
 10
0.0
 20
0.0
 30
0.0
  3
_D
  1

  0
INSERT
  5
C0
330
BD
100
AcDbEntity
  8
LEVEL0
100
AcDbBlockReference
  2
_Closed
 10
35.1156640434
 20
258.2839797035
 30
10.9
 41
2.0
 42
2.0
 50
180.0
  0
INSERT
  5
C1
330
BD
100
AcDbEntity
  8
LEVEL0
100
AcDbBlockReference
  2
_Closed
 10
180.2756640434
 20
258.2839797035
 30
10.9
 41
2.0
 42
2.0
 50
0.0
  0
LINE
  5
C2
330
BD
100
AcDbEntity
  8
LEVEL0
100
AcDbLine
 10
104.9097685615
 20
264.4513407506
 30
0.0
 11
104.3003935489
 21
264.4513407506
 31
0.0
  0
LINE
  5
C3
330
BD
100
AcDbEntity
  8
LEVEL0
100
AcDbLine
 10
104.3003935489
 20
264.4513407506
 30
0.0
 11
104.3003935489
 21
261.276340789
 31
0.0
  0
LINE
  5
C4
330
BD
100
AcDbEntity
  8
LEVEL0
100
AcDbLine
 10
104.3003935489
 20
261.276340789
 30
0.0
 11
104.9097685615
 21
261.276340789
 31
0.0
  0
LINE
  5
C5
330
BD
100
AcDbEntity
  8
LEVEL0
100
AcDbLine
 10
111.5597684408
 20
264.4513407506
 30
0.0
 11
112.1691434534
 21
264.4513407506
 31
0.0
  0
LINE
  5
C6
330
BD
100
AcDbEntity
  8
LEVEL0
100
AcDbLine
 10
112.1691434534
 20
264.4513407506
 30
0.0
 11
112.1691434534
 21
261.276340789
 31
0.0
  0
LINE
  5
C7
330
BD
100
AcDbEntity
  8
LEVEL0
100
AcDbLine
 10
112.1691434534
 20
261.276340789
 30
0.0
 11
111.5597684408
 21
261.276340789
 31
0.0
  0
LINE
  5
C8
330
BD
100
AcDbEntity
  8
LEVEL0
100
AcDbLine
 10
35.1156640434
 20
256.0472716451
 30
0.0
 11
35.1156640434
 21
259.2839797035
 31
0.0
  0
LINE
  5
C9
330
BD
100
AcDbEntity
  8
LEVEL0
100
AcDbLine
 10
180.2756640434
 20
256.0472716451
 30
0.0
 11
180.2756640434
 21
259.2839797035
 31
0.0
  0
LINE
  5
CA
330
BD
100
AcDbEntity
  8
LEVEL0
100
AcDbLine
 10
35.1156640434
 20
258.2839797035
 30
0.0
 11
180.2756640434
 21
258.2839797035
 31
0.0
  0
MTEXT
  5
CB
330
BD
100
AcDbEntity
  8
LEVEL0
100
AcDbMText
 10
103.4542129949
 20
260.8926707126
 30
0.0
 40
2.0
 41
0.0
 71
     1
 72
     1
  1

  7
SLDTEXTSTYLE0
 73
     1
 44
1.0
  0
MTEXT
  5
CC
330
BD
100
AcDbEntity
  8
LEVEL0
100
AcDbMText
 10
104.9097685615
 20
263.8544762685
 30
0.0
 40
2.0
 41
0.0
 71
     1
 72
     1
  1
5.715
  7
SLDTEXTSTYLE0
 73
     1
 44
1.0
  0
MTEXT
  5
CD
330
BD
100
AcDbEntity
  8
LEVEL0
100
AcDbMText
 10
103.43199072
 20
260.8621149502
 30
0.0
 40
2.0
 41
0.0
 71
     1
 72
     1
  1
145.160
  7
SLDTEXTSTYLE0
 73
     1
 44
1.0
  0
MTEXT
  5
CE
330
BD
100
AcDbEntity
  8
LEVEL0
100
AcDbMText
 10
114.537546748
 20
260.8926707126
 30
0.0
 40
2.0
 41
0.0
 71
     1
 72
     1
  1

  7
SLDTEXTSTYLE0
 73
     1
 44
1.0
  0
ENDBLK
  5
BF
330
BD
100
AcDbEntity
  8
0
100
AcDbBlockEnd
  0
BLOCK
  5
D1
330
D0
100
AcDbEntity
  8
0
100
AcDbBlockBegin
  2
_D_1
 70
     0
 10
0.0
 20
0.0
 30
0.0
  3
_D_1
  1

  0
INSERT
  5
D3
330
D0
100
AcDbEntity
  8
LEVEL0
100
AcDbBlockReference
  2
_Closed
 10
35.1156640434
 20
245.9896720285
 30
10.9
 41
2.0
 42
2.0
 50
180.0
  0
INSERT
  5
D4
330
D0
100
AcDbEntity
  8
LEVEL0
100
AcDbBlockReference
  2
_Closed
 10
44.7156640434
 20
245.9896720285
 30
10.9
 41
2.0
 42
2.0
 50
0.0
  0
LINE
  5
D5
330
D0
100
AcDbEntity
  8
LEVEL0
100
AcDbLine
 10
53.7140694373
 20
252.1570330756
 30
0.0
 11
53.1046944248
 21
252.1570330756
 31
0.0
  0
LINE
  5
D6
330
D0
100
AcDbEntity
  8
LEVEL0
100
AcDbLine
 10
53.1046944248
 20
252.1570330756
 30
0.0
 11
53.1046944248
 21
248.982033114
 31
0.0
  0
LINE
  5
D7
330
D0
100
AcDbEntity
  8
LEVEL0
100
AcDbLine
 10
53.1046944248
 20
248.982033114
 30
0.0
 11
53.7140694373
 21
248.982033114
 31
0.0
  0
LINE
  5
D8
330
D0
100
AcDbEntity
  8
LEVEL0
100
AcDbLine
 10
60.3640693166
 20
252.1570330756
 30
0.0
 11
60.9734443292
 21
252.1570330756
 31
0.0
  0
LINE
  5
D9
330
D0
100
AcDbEntity
  8
LEVEL0
100
AcDbLine
 10
60.9734443292
 20
252.1570330756
 30
0.0
 11
60.9734443292
 21
248.982033114
 31
0.0
  0
LINE
  5
DA
330
D0
100
AcDbEntity
  8
LEVEL0
100
AcDbLine
 10
60.9734443292
 20
248.982033114
 30
0.0
 11
60.3640693166
 21
248.982033114
 31
0.0
  0
LINE
  5
DB
330
D0
100
AcDbEntity
  8
LEVEL0
100
AcDbLine
 10
35.1156640434
 20
247.0472716451
 30
0.0
 11
35.1156640434
 21
244.9896720285
 31
0.0
  0
LINE
  5
DC
330
D0
100
AcDbEntity
  8
LEVEL0
100
AcDbLine
 10
44.7156640434
 20
241.1472716451
 30
0.0
 11
44.7156640434
 21
246.9896720285
 31
0.0
  0
LINE
  5
DD
330
D0
100
AcDbEntity
  8
LEVEL0
100
AcDbLine
 10
35.1156640434
 20
245.9896720285
 30
0.0
 11
44.7156640434
 21
245.9896720285
 31
0.0
  0
LINE
  5
DE
330
D0
100
AcDbEntity
  8
LEVEL0
100
AcDbLine
 10
44.7156640434
 20
245.9896720285
 30
0.0
 11
63.0605977654
 21
245.9896720285
 31
0.0
  0
MTEXT
  5
DF
330
D0
100
AcDbEntity
  8
LEVEL0
100
AcDbMText
 10
52.5175416871
 20
248.5983630376
 30
0.0
 40
2.0
 41
0.0
 71
     1
 72
     1
  1

  7
SLDTEXTSTYLE0
 73
     1
 44
1.0
  0
MTEXT
  5
E0
330
D0
100
AcDbEntity
  8
LEVEL0
100
AcDbMText
 10
53.7140694373
 20
251.5601685935
 30
0.0
 40
2.0
 41
0.0
 71
     1
 72
     1
  1
0.378
  7
SLDTEXTSTYLE0
 73
     1
 44
1.0
  0
MTEXT
  5
E1
330
D0
100
AcDbEntity
  8
LEVEL0
100
AcDbMText
 10
53.7140695538
 20
248.5678072752
 30
0.0
 40
2.0
 41
0.0
 71
     1
 72
     1
  1
9.600
  7
SLDTEXTSTYLE0
 73
     1
 44
1.0
  0
MTEXT
  5
E2
330
D0
100
AcDbEntity
  8
LEVEL0
100
AcDbMText
 10
63.0828198075
 20
248.5983630376
 30
0.0
 40
2.0
 41
0.0
 71
     1
 72
     1
  1

  7
SLDTEXTSTYLE0
 73
     1
 44
1.0
  0
ENDBLK
  5
D2
330
D0
100
AcDbEntity
  8
0
100
AcDbBlockEnd
  0
BLOCK
  5
E5
330
E4
100
AcDbEntity
  8
0
100
AcDbBlockBegin
  2
_D_2
 70
     0
 10
0.0
 20
0.0
 30
0.0
  3
_D_2
  1

  0
INSERT
  5
E7
330
E4
100
AcDbEntity
  8
LEVEL0
100
AcDbBlockReference
  2
_Closed
 10
23.7979072264
 20
251.5472716451
 30
10.9
 41
2.0
 42
2.0
 50
90.0
  0
INSERT
  5
E8
330
E4
100
AcDbEntity
  8
LEVEL0
100
AcDbBlockReference
  2
_Closed
 10
23.7979072264
 20
55.8272716451
 30
10.9
 41
2.0
 42
2.0
 50
270.0
  0
LINE
  5
E9
330
E4
100
AcDbEntity
  8
LEVEL0
100
AcDbLine
 10
17.6305461793
 20
146.388374162
 30
0.0
 11
17.6305461793
 21
145.7789991494
 31
0.0
  0
LINE
  5
EA
330
E4
100
AcDbEntity
  8
LEVEL0
100
AcDbLine
 10
17.6305461793
 20
145.7789991494
 30
0.0
 11
20.8055461409
 21
145.7789991494
 31
0.0
  0
LINE
  5
EB
330
E4
100
AcDbEntity
  8
LEVEL0
100
AcDbLine
 10
20.8055461409
 20
145.7789991494
 30
0.0
 11
20.8055461409
 21
146.388374162
 31
0.0
  0
LINE
  5
EC
330
E4
100
AcDbEntity
  8
LEVEL0
100
AcDbLine
 10
17.6305461793
 20
153.0383740413
 30
0.0
 11
17.6305461793
 21
153.6477490539
 31
0.0
  0
LINE
  5
ED
330
E4
100
AcDbEntity
  8
LEVEL0
100
AcDbLine
 10
17.6305461793
 20
153.6477490539
 30
0.0
 11
20.8055461409
 21
153.6477490539
 31
0.0
  0
LINE
  5
EE
330
E4
100
AcDbEntity
  8
LEVEL0
100
AcDbLine
 10
20.8055461409
 20
153.6477490539
 30
0.0
 11
20.8055461409
 21
153.0383740413
 31
0.0
  0
LINE
  5
EF
330
E4
100
AcDbEntity
  8
LEVEL0
100
AcDbLine
 10
30.6156640434
 20
251.5472716451
 30
0.0
 11
22.7979072264
 21
251.5472716451
 31
0.0
  0
LINE
  5
F0
330
E4
100
AcDbEntity
  8
LEVEL0
100
AcDbLine
 10
30.6156640434
 20
55.8272716451
 30
0.0
 11
22.7979072264
 21
55.8272716451
 31
0.0
  0
LINE
  5
F1
330
E4
100
AcDbEntity
  8
LEVEL0
100
AcDbLine
 10
23.7979072264
 20
251.5472716451
 30
0.0
 11
23.7979072264
 21
55.8272716451
 31
0.0
  0
MTEXT
  5
F2
330
E4
100
AcDbEntity
  8
LEVEL0
100
AcDbMText
 10
21.1892162174
 20
144.9328185954
 30
0.0
 40
2.0
 41
0.0
 71
     1
 72
     1
  1

  7
SLDTEXTSTYLE0
 11
-7.044195017643634E-15
 21
1.0
 31
0.0
 73
     1
 44
1.0
  0
MTEXT
  5
F3
330
E4
100
AcDbEntity
  8
LEVEL0
100
AcDbMText
 10
18.2274106614
 20
146.388374162
 30
0.0
 40
2.0
 41
0.0
 71
     1
 72
     1
  1
7.706
  7
SLDTEXTSTYLE0
 11
-7.044195017643634E-15
 21
1.0
 31
0.0
 73
     1
 44
1.0
  0
MTEXT
  5
F4
330
E4
100
AcDbEntity
  8
LEVEL0
100
AcDbMText
 10
21.2197719797
 20
144.9105963205
 30
0.0
 40
2.0
 41
0.0
 71
     1
 72
     1
  1
195.720
  7
SLDTEXTSTYLE0
 11
-7.044195017643634E-15
 21
1.0
 31
0.0
 73
     1
 44
1.0
  0
MTEXT
  5
F5
330
E4
100
AcDbEntity
  8
LEVEL0
100
AcDbMText
 10
21.1892162174
 20
156.0161523485
 30
0.0
 40
2.0
 41
0.0
 71
     1
 72
     1
  1

  7
SLDTEXTSTYLE0
 11
-7.044195017643634E-15
 21
1.0
 31
0.0
 73
     1
 44
1.0
  0
ENDBLK
  5
E6
330
E4
100
AcDbEntity
  8
0
100
AcDbBlockEnd
  0
BLOCK
  5
F8
330
F7
100
AcDbEntity
  8
0
100
AcDbBlockBegin
  2
_D_3
 70
     0
 10
0.0
 20
0.0
 30
0.0
  3
_D_3
  1

  0
INSERT
  5
FA
330
F7
100
AcDbEntity
  8
LEVEL0
100
AcDbBlockReference
  2
_Closed
 10
39.2952378801
 20
55.8272716451
 30
10.9
 41
2.0
 42
2.0
 50
270.0
  0
INSERT
  5
FB
330
F7
100
AcDbEntity
  8
LEVEL0
100
AcDbBlockReference
  2
_Closed
 10
39.2952378801
 20
65.4272716451
 30
10.9
 41
2.0
 42
2.0
 50
90.0
  0
LINE
  5
FC
330
F7
100
AcDbEntity
  8
LEVEL0
100
AcDbLine
 10
33.127876833
 20
77.5849899051
 30
0.0
 11
33.127876833
 21
76.9756148925
 31
0.0
  0
LINE
  5
FD
330
F7
100
AcDbEntity
  8
LEVEL0
100
AcDbLine
 10
33.127876833
 20
76.9756148925
 30
0.0
 11
36.3028767946
 21
76.9756148925
 31
0.0
  0
LINE
  5
FE
330
F7
100
AcDbEntity
  8
LEVEL0
100
AcDbLine
 10
36.3028767946
 20
76.9756148925
 30
0.0
 11
36.3028767946
 21
77.5849899051
 31
0.0
  0
LINE
  5
FF
330
F7
100
AcDbEntity
  8
LEVEL0
100
AcDbLine
 10
33.127876833
 20
84.2349897844
 30
0.0
 11
33.127876833
 21
84.844364797
 31
0.0
  0
LINE
  5
100
330
F7
100
AcDbEntity
  8
LEVEL0
100
AcDbLine
 10
33.127876833
 20
84.844364797
 30
0.0
 11
36.3028767946
 21
84.844364797
 31
0.0
  0
LINE
  5
101
330
F7
100
AcDbEntity
  8
LEVEL0
100
AcDbLine
 10
36.3028767946
 20
84.844364797
 30
0.0
 11
36.3028767946
 21
84.2349897844
 31
0.0
  0
LINE
  5
102
330
F7
100
AcDbEntity
  8
LEVEL0
100
AcDbLine
 10
39.6156640434
 20
55.8272716451
 30
0.0
 11
40.2952378801
 21
55.8272716451
 31
0.0
  0
LINE
  5
103
330
F7
100
AcDbEntity
  8
LEVEL0
100
AcDbLine
 10
45.5156640434
 20
65.4272716451
 30
0.0
 11
38.2952378801
 21
65.4272716451
 31
0.0
  0
LINE
  5
104
330
F7
100
AcDbEntity
  8
LEVEL0
100
AcDbLine
 10
39.2952378801
 20
55.8272716451
 30
0.0
 11
39.2952378801
 21
65.4272716451
 31
0.0
  0
LINE
  5
105
330
F7
100
AcDbEntity
  8
LEVEL0
100
AcDbLine
 10
39.2952378801
 20
65.4272716451
 30
0.0
 11
39.2952378801
 21
86.9315182331
 31
0.0
  0
MTEXT
  5
106
330
F7
100
AcDbEntity
  8
LEVEL0
100
AcDbMText
 10
36.686546871
 20
76.3884621549
 30
0.0
 40
2.0
 41
0.0
 71
     1
 72
     1
  1

  7
SLDTEXTSTYLE0
 11
3.613946018757869E-15
 21
1.0
 31
0.0
 73
     1
 44
1.0
  0
MTEXT
  5
107
330
F7
100
AcDbEntity
  8
LEVEL0
100
AcDbMText
 10
33.724741315
 20
77.5849899051
 30
0.0
 40
2.0
 41
0.0
 71
     1
 72
     1
  1
0.378
  7
SLDTEXTSTYLE0
 11
3.613946018757869E-15
 21
1.0
 31
0.0
 73
     1
 44
1.0
  0
MTEXT
  5
108
330
F7
100
AcDbEntity
  8
LEVEL0
100
AcDbMText
 10
36.7171026334
 20
77.5849900215
 30
0.0
 40
2.0
 41
0.0
 71
     1
 72
     1
  1
9.600
  7
SLDTEXTSTYLE0
 11
3.613946018757869E-15
 21
1.0
 31
0.0
 73
     1
 44
1.0
  0
MTEXT
  5
109
330
F7
100
AcDbEntity
  8
LEVEL0
100
AcDbMText
 10
36.686546871
 20
86.9537402752
 30
0.0
 40
2.0
 41
0.0
 71
     1
 72
     1
  1

  7
SLDTEXTSTYLE0
 11
3.613946018757869E-15
 21
1.0
 31
0.0
 73
     1
 44
1.0
  0
ENDBLK
  5
F9
330
F7
100
AcDbEntity
  8
0
100
AcDbBlockEnd
  0
BLOCK
  5
10D
330
10C
100
AcDbEntity
  8
0
100
AcDbBlockBegin
  2
_D_4
 70
     0
 10
0.0
 20
0.0
 30
0.0
  3
_D_4
  1

  0
INSERT
  5
10F
330
10C
100
AcDbEntity
  8
LEVEL0
100
AcDbBlockReference
  2
_Closed
 10
44.7156640434
 20
181.4263625551
 30
10.9
 41
2.0
 42
2.0
 50
180.0
  0
INSERT
  5
110
330
10C
100
AcDbEntity
  8
LEVEL0
100
AcDbBlockReference
  2
_Closed
 10
170.6756640434
 20
181.4263625551
 30
10.9
 41
2.0
 42
2.0
 50
0.0
  0
LINE
  5
111
330
10C
100
AcDbEntity
  8
LEVEL0
100
AcDbLine
 10
102.3512875894
 20
192.1770572212
 30
0.0
 11
101.7419125769
 21
192.1770572212
 31
0.0
  0
LINE
  5
112
330
10C
100
AcDbEntity
  8
LEVEL0
100
AcDbLine
 10
101.7419125769
 20
192.1770572212
 30
0.0
 11
101.7419125769
 21
187.0048348342
 31
0.0
  0
LINE
  5
113
330
10C
100
AcDbEntity
  8
LEVEL0
100
AcDbLine
 10
101.7419125769
 20
187.0048348342
 30
0.0
 11
102.3512875894
 21
187.0048348342
 31
0.0
  0
LINE
  5
114
330
10C
100
AcDbEntity
  8
LEVEL0
100
AcDbLine
 10
118.0068424205
 20
192.1770572212
 30
0.0
 11
118.616217433
 21
192.1770572212
 31
0.0
  0
LINE
  5
115
330
10C
100
AcDbEntity
  8
LEVEL0
100
AcDbLine
 10
118.616217433
 20
192.1770572212
 30
0.0
 11
118.616217433
 21
187.0048348342
 31
0.0
  0
LINE
  5
116
330
10C
100
AcDbEntity
  8
LEVEL0
100
AcDbLine
 10
118.616217433
 20
187.0048348342
 30
0.0
 11
118.0068424205
 21
187.0048348342
 31
0.0
  0
LINE
  5
117
330
10C
100
AcDbEntity
  8
LEVEL0
100
AcDbLine
 10
44.7156640434
 20
181.4263625551
 30
0.0
 11
170.6756640434
 21
181.4263625551
 31
0.0
  0
MTEXT
  5
118
330
10C
100
AcDbEntity
  8
LEVEL0
100
AcDbMText
 10
101.1547598392
 20
184.0350535642
 30
0.0
 40
2.0
 41
0.0
 71
     1
 72
     1
  1

  7
SLDTEXTSTYLE0
 73
     1
 44
1.0
  0
MTEXT
  5
119
330
10C
100
AcDbEntity
  8
LEVEL0
100
AcDbMText
 10
102.3512875894
 20
189.6135258432
 30
0.0
 40
2.0
 41
0.0
 71
     1
 72
     1
  1
4.959
  7
SLDTEXTSTYLE0
 73
     1
 44
1.0
  0
MTEXT
  5
11A
330
10C
100
AcDbEntity
  8
LEVEL0
100
AcDbMText
 10
109.7512874687
 20
189.6135258432
 30
0.0
 40
2.0
 41
0.0
 71
     1
 72
     1
  1

  7
SLDTEXTSTYLE0
 73
     1
 44
1.0
  0
MTEXT
  5
11B
330
10C
100
AcDbEntity
  8
LEVEL0
100
AcDbMText
 10
109.7401764477
 20
192.1690815072
 30
0.0
 40
2.0
 41
0.0
 71
     1
 72
     1
  1
+
  7
SLDTEXTSTYLE0
 73
     1
 44
1.0
  0
MTEXT
  5
11C
330
10C
100
AcDbEntity
  8
LEVEL0
100
AcDbMText
 10
110.1054542291
 20
189.5829703137
 30
0.0
 40
2.0
 41
0.0
 71
     1
 72
     1
  1
-
  7
SLDTEXTSTYLE0
 73
     1
 44
1.0
  0
MTEXT
  5
11D
330
10C
100
AcDbEntity
  8
LEVEL0
100
AcDbMText
 10
111.3568425412
 20
192.1690815072
 30
0.0
 40
2.0
 41
0.0
 71
     1
 72
     1
  1
0.012
  7
SLDTEXTSTYLE0
 73
     1
 44
1.0
  0
MTEXT
  5
11E
330
10C
100
AcDbEntity
  8
LEVEL0
100
AcDbMText
 10
111.3568425412
 20
189.5829703137
 30
0.0
 40
2.0
 41
0.0
 71
     1
 72
     1
  1
0.008
  7
SLDTEXTSTYLE0
 73
     1
 44
1.0
  0
MTEXT
  5
11F
330
10C
100
AcDbEntity
  8
LEVEL0
100
AcDbMText
 10
103.0901762192
 20
184.004497569
 30
0.0
 40
2.0
 41
0.0
 71
     1
 72
     1
  1
125.96
  7
SLDTEXTSTYLE0
 73
     1
 44
1.0
  0
MTEXT
  5
120
330
10C
100
AcDbEntity
  8
LEVEL0
100
AcDbMText
 10
111.9679540564
 20
184.004497569
 30
0.0
 40
2.0
 41
0.0
 71
     1
 72
     1
  1

  7
SLDTEXTSTYLE0
 73
     1
 44
1.0
  0
MTEXT
  5
121
330
10C
100
AcDbEntity
  8
LEVEL0
100
AcDbMText
 10
111.956842104
 20
186.5906087626
 30
0.0
 40
2.0
 41
0.0
 71
     1
 72
     1
  1
+
  7
SLDTEXTSTYLE0
 73
     1
 44
1.0
  0
MTEXT
  5
122
330
10C
100
AcDbEntity
  8
LEVEL0
100
AcDbMText
 10
112.3221198854
 20
184.004497569
 30
0.0
 40
2.0
 41
0.0
 71
     1
 72
     1
  1
-
  7
SLDTEXTSTYLE0
 73
     1
 44
1.0
  0
MTEXT
  5
123
330
10C
100
AcDbEntity
  8
LEVEL0
100
AcDbMText
 10
113.5735091288
 20
186.5906087626
 30
0.0
 40
2.0
 41
0.0
 71
     1
 72
     1
  1
0.3
  7
SLDTEXTSTYLE0
 73
     1
 44
1.0
  0
MTEXT
  5
124
330
10C
100
AcDbEntity
  8
LEVEL0
100
AcDbMText
 10
113.5735091288
 20
184.004497569
 30
0.0
 40
2.0
 41
0.0
 71
     1
 72
     1
  1
0.2
  7
SLDTEXTSTYLE0
 73
     1
 44
1.0
  0
MTEXT
  5
125
330
10C
100
AcDbEntity
  8
LEVEL0
100
AcDbMText
 10
120.7255929113
 20
184.0350535642
 30
0.0
 40
2.0
 41
0.0
 71
     1
 72
     1
  1

  7
SLDTEXTSTYLE0
 73
     1
 44
1.0
  0
ENDBLK
  5
10E
330
10C
100
AcDbEntity
  8
0
100
AcDbBlockEnd
  0
BLOCK
  5
128
330
127
100
AcDbEntity
  8
0
100
AcDbBlockBegin
  2
_D_5
 70
     0
 10
0.0
 20
0.0
 30
0.0
  3
_D_5
  1

  0
INSERT
  5
12A
330
127
100
AcDbEntity
  8
LEVEL0
100
AcDbBlockReference
  2
_Closed
 10
89.2787352396
 20
241.9472716451
 30
10.9
 41
2.0
 42
2.0
 50
90.0
  0
INSERT
  5
12B
330
127
100
AcDbEntity
  8
LEVEL0
100
AcDbBlockReference
  2
_Closed
 10
89.2787352396
 20
65.4272716451
 30
10.9
 41
2.0
 42
2.0
 50
270.0
  0
LINE
  5
12C
330
127
100
AcDbEntity
  8
LEVEL0
100
AcDbLine
 10
78.5280405736
 20
141.8855966861
 30
0.0
 11
78.5280405736
 21
141.2762216736
 31
0.0
  0
LINE
  5
12D
330
127
100
AcDbEntity
  8
LEVEL0
100
AcDbLine
 10
78.5280405736
 20
141.2762216736
 30
0.0
 11
83.7002629606
 21
141.2762216736
 31
0.0
  0
LINE
  5
12E
330
127
100
AcDbEntity
  8
LEVEL0
100
AcDbLine
 10
83.7002629606
 20
141.2762216736
 30
0.0
 11
83.7002629606
 21
141.8855966861
 31
0.0
  0
LINE
  5
12F
330
127
100
AcDbEntity
  8
LEVEL0
100
AcDbLine
 10
78.5280405736
 20
157.5411515172
 30
0.0
 11
78.5280405736
 21
158.1505265297
 31
0.0
  0
LINE
  5
130
330
127
100
AcDbEntity
  8
LEVEL0
100
AcDbLine
 10
78.5280405736
 20
158.1505265297
 30
0.0
 11
83.7002629606
 21
158.1505265297
 31
0.0
  0
LINE
  5
131
330
127
100
AcDbEntity
  8
LEVEL0
100
AcDbLine
 10
83.7002629606
 20
158.1505265297
 30
0.0
 11
83.7002629606
 21
157.5411515172
 31
0.0
  0
LINE
  5
132
330
127
100
AcDbEntity
  8
LEVEL0
100
AcDbLine
 10
89.2787352396
 20
241.9472716451
 30
0.0
 11
89.2787352396
 21
65.4272716451
 31
0.0
  0
MTEXT
  5
133
330
127
100
AcDbEntity
  8
LEVEL0
100
AcDbMText
 10
86.6700442306
 20
140.6890689359
 30
0.0
 40
2.0
 41
0.0
 71
     1
 72
     1
  1

  7
SLDTEXTSTYLE0
 11
-3.491481338843133E-15
 21
1.0
 31
0.0
 73
     1
 44
1.0
  0
MTEXT
  5
134
330
127
100
AcDbEntity
  8
LEVEL0
100
AcDbMText
 10
81.0915719515
 20
141.8855966861
 30
0.0
 40
2.0
 41
0.0
 71
     1
 72
     1
  1
6.950
  7
SLDTEXTSTYLE0
 11
-3.491481338843133E-15
 21
1.0
 31
0.0
 73
     1
 44
1.0
  0
MTEXT
  5
135
330
127
100
AcDbEntity
  8
LEVEL0
100
AcDbMText
 10
81.0915719515
 20
149.2855965654
 30
0.0
 40
2.0
 41
0.0
 71
     1
 72
     1
  1

  7
SLDTEXTSTYLE0
 11
-3.491481338843133E-15
 21
1.0
 31
0.0
 73
     1
 44
1.0
  0
MTEXT
  5
136
330
127
100
AcDbEntity
  8
LEVEL0
100
AcDbMText
 10
78.5360162875
 20
149.2744855444
 30
0.0
 40
2.0
 41
0.0
 71
     1
 72
     1
  1
+
  7
SLDTEXTSTYLE0
 11
-3.491481338843133E-15
 21
1.0
 31
0.0
 73
     1
 44
1.0
  0
MTEXT
  5
137
330
127
100
AcDbEntity
  8
LEVEL0
100
AcDbMText
 10
81.1221274811
 20
149.6397633258
 30
0.0
 40
2.0
 41
0.0
 71
     1
 72
     1
  1
-
  7
SLDTEXTSTYLE0
 11
-3.491481338843133E-15
 21
1.0
 31
0.0
 73
     1
 44
1.0
  0
MTEXT
  5
138
330
127
100
AcDbEntity
  8
LEVEL0
100
AcDbMText
 10
78.5360162875
 20
150.8911516379
 30
0.0
 40
2.0
 41
0.0
 71
     1
 72
     1
  1
0.012
  7
SLDTEXTSTYLE0
 11
-3.491481338843133E-15
 21
1.0
 31
0.0
 73
     1
 44
1.0
  0
MTEXT
  5
139
330
127
100
AcDbEntity
  8
LEVEL0
100
AcDbMText
 10
81.1221274811
 20
150.8911516379
 30
0.0
 40
2.0
 41
0.0
 71
     1
 72
     1
  1
0.008
  7
SLDTEXTSTYLE0
 11
-3.491481338843133E-15
 21
1.0
 31
0.0
 73
     1
 44
1.0
  0
MTEXT
  5
13A
330
127
100
AcDbEntity
  8
LEVEL0
100
AcDbMText
 10
86.7006002257
 20
142.6244853158
 30
0.0
 40
2.0
 41
0.0
 71
     1
 72
     1
  1
176.52
  7
SLDTEXTSTYLE0
 11
-3.491481338843133E-15
 21
1.0
 31
0.0
 73
     1
 44
1.0
  0
MTEXT
  5
13B
330
127
100
AcDbEntity
  8
LEVEL0
100
AcDbMText
 10
86.7006002257
 20
151.5022631531
 30
0.0
 40
2.0
 41
0.0
 71
     1
 72
     1
  1

  7
SLDTEXTSTYLE0
 11
-3.491481338843133E-15
 21
1.0
 31
0.0
 73
     1
 44
1.0
  0
MTEXT
  5
13C
330
127
100
AcDbEntity
  8
LEVEL0
100
AcDbMText
 10
84.1144890322
 20
151.4911512007
 30
0.0
 40
2.0
 41
0.0
 71
     1
 72
     1
  1
+
  7
SLDTEXTSTYLE0
 11
-3.491481338843133E-15
 21
1.0
 31
0.0
 73
     1
 44
1.0
  0
MTEXT
  5
13D
330
127
100
AcDbEntity
  8
LEVEL0
100
AcDbMText
 10
86.7006002257
 20
151.8564289821
 30
0.0
 40
2.0
 41
0.0
 71
     1
 72
     1
  1
-
  7
SLDTEXTSTYLE0
 11
-3.491481338843133E-15
 21
1.0
 31
0.0
 73
     1
 44
1.0
  0
MTEXT
  5
13E
330
127
100
AcDbEntity
  8
LEVEL0
100
AcDbMText
 10
84.1144890322
 20
153.1078182255
 30
0.0
 40
2.0
 41
0.0
 71
     1
 72
     1
  1
0.3
  7
SLDTEXTSTYLE0
 11
-3.491481338843133E-15
 21
1.0
 31
0.0
 73
     1
 44
1.0
  0
MTEXT
  5
13F
330
127
100
AcDbEntity
  8
LEVEL0
100
AcDbMText
 10
86.7006002257
 20
153.1078182255
 30
0.0
 40
2.0
 41
0.0
 71
     1
 72
     1
  1
0.2
  7
SLDTEXTSTYLE0
 11
-3.491481338843133E-15
 21
1.0
 31
0.0
 73
     1
 44
1.0
  0
MTEXT
  5
140
330
127
100
AcDbEntity
  8
LEVEL0
100
AcDbMText
 10
86.6700442306
 20
160.259902008
 30
0.0
 40
2.0
 41
0.0
 71
     1
 72
     1
  1

  7
SLDTEXTSTYLE0
 11
-3.491481338843133E-15
 21
1.0
 31
0.0
 73
     1
 44
1.0
  0
ENDBLK
  5
129
330
127
100
AcDbEntity
  8
0
100
AcDbBlockEnd
  0
BLOCK
  5
144
330
143
100
AcDbEntity
  8
0
100
AcDbBlockBegin
  2
_D_6
 70
     0
 10
0.0
 20
0.0
 30
0.0
  3
_D_6
  1

  0
INSERT
  5
146
330
143
100
AcDbEntity
  8
LEVEL0
100
AcDbBlockReference
  2
_Closed
 10
170.1484562495
 20
241.4200638512
 30
10.9
 41
2.0
 42
2.0
 50
45.2540095473
  0
LINE
  5
147
330
143
100
AcDbEntity
  8
LEVEL0
100
AcDbLine
 10
151.343984593
 20
231.2012467872
 30
0.0
 11
150.9130913893
 21
230.7703535835
 31
0.0
  0
LINE
  5
148
330
143
100
AcDbEntity
  8
LEVEL0
100
AcDbLine
 10
150.9130913893
 20
230.7703535835
 30
0.0
 11
153.1581553925
 21
228.5252895804
 31
0.0
  0
LINE
  5
149
330
143
100
AcDbEntity
  8
LEVEL0
100
AcDbLine
 10
153.1581553925
 20
228.5252895804
 30
0.0
 11
153.5890485961
 21
228.9561827841
 31
0.0
  0
LINE
  5
14A
330
143
100
AcDbEntity
  8
LEVEL0
100
AcDbLine
 10
156.0462446025
 20
235.9035067967
 30
0.0
 11
156.4771378062
 21
236.3344000004
 31
0.0
  0
LINE
  5
14B
330
143
100
AcDbEntity
  8
LEVEL0
100
AcDbLine
 10
156.4771378062
 20
236.3344000004
 30
0.0
 11
158.7222018093
 21
234.0893359973
 31
0.0
  0
LINE
  5
14C
330
143
100
AcDbEntity
  8
LEVEL0
100
AcDbLine
 10
158.7222018093
 20
234.0893359973
 30
0.0
 11
158.2913086057
 21
233.6584427936
 31
0.0
  0
LINE
  5
14D
330
143
100
AcDbEntity
  8
LEVEL0
100
AcDbLine
 10
170.1484562495
 20
241.4200638512
 30
0.0
 11
154.8431810041
 21
225.9784775614
 31
0.0
  0
MTEXT
  5
14E
330
143
100
AcDbEntity
  8
LEVEL0
100
AcDbMText
 10
151.7660315157
 20
230.7791998645
 30
0.0
 40
2.0
 41
0.0
 71
     1
 72
     1
  1
0.071
  7
SLDTEXTSTYLE0
 11
0.7071067811865412
 21
0.7071067811865538
 31
0.0
 73
     1
 44
1.0
  0
MTEXT
  5
14F
330
143
100
AcDbEntity
  8
LEVEL0
100
AcDbMText
 10
154.3543370659
 20
229.1356674548
 30
0.0
 40
2.0
 41
0.0
 71
     1
 72
     1
  1
R1.8
  7
SLDTEXTSTYLE0
 11
0.7071067811865412
 21
0.7071067811865538
 31
0.0
 73
     1
 44
1.0
  0
MTEXT
  5
150
330
143
100
AcDbEntity
  8
LEVEL0
100
AcDbMText
 10
159.9547209763
 20
234.7792637387
 30
0.0
 40
2.0
 41
0.0
 71
     1
 72
     1
  1
TYP
  7
SLDTEXTSTYLE0
 11
0.7071067811865412
 21
0.7071067811865538
 31
0.0
 73
     1
 44
1.0
  0
ENDBLK
  5
145
330
143
100
AcDbEntity
  8
0
100
AcDbBlockEnd
  0
BLOCK
  5
152
330
151
100
AcDbEntity
  8
0
100
AcDbBlockBegin
  2
SW_NOTE_0
 70
     0
 10
0.0
 20
0.0
 30
0.0
  3
SW_NOTE_0
  1

  0
MTEXT
  5
154
330
151
100
AcDbEntity
  8
LEVEL0
 62
     0
100
AcDbMText
 10
-30.4986599472
 20
0.7705137919
 30
0.0
 40
2.0
 41
0.0
 71
     1
 72
     1
  1
MARK SCREW POSITION
  7
SLDTEXTSTYLE0
 73
     1
 44
1.0
  0
ENDBLK
  5
153
330
151
100
AcDbEntity
  8
0
100
AcDbBlockEnd
  0
BLOCK
  5
159
330
158
100
AcDbEntity
  8
0
100
AcDbBlockBegin
  2
SW_CENTERMARKSYMBOL_0
 70
     0
 10
0.0
 20
0.0
 30
0.0
  3
SW_CENTERMARKSYMBOL_0
  1

  0
LINE
  5
15B
330
158
100
AcDbEntity
  8
LEVEL0
 62
     0
100
AcDbLine
 10
0.0
 20
0.0
 30
0.0
 11
0.0
 21
2.5
 31
0.0
  0
LINE
  5
15C
330
158
100
AcDbEntity
  8
LEVEL0
 62
     0
100
AcDbLine
 10
0.0
 20
0.0
 30
0.0
 11
-2.5
 21
0.0
 31
0.0
  0
LINE
  5
15D
330
158
100
AcDbEntity
  8
LEVEL0
 62
     0
100
AcDbLine
 10
0.0
 20
0.0
 30
0.0
 11
0.0
 21
-2.5
 31
0.0
  0
LINE
  5
15E
330
158
100
AcDbEntity
  8
LEVEL0
 62
     0
100
AcDbLine
 10
0.0
 20
0.0
 30
0.0
 11
2.5
 21
0.0
 31
0.0
  0
LINE
  5
15F
330
158
100
AcDbEntity
  8
LEVEL0
 62
     0
100
AcDbLine
 10
0.0
 20
2.5
 30
0.0
 11
0.0
 21
3.5
 31
0.0
  0
LINE
  5
160
330
158
100
AcDbEntity
  8
LEVEL0
 62
     0
100
AcDbLine
 10
-2.5
 20
0.0
 30
0.0
 11
-3.5
 21
0.0
 31
0.0
  0
LINE
  5
161
330
158
100
AcDbEntity
  8
LEVEL0
 62
     0
100
AcDbLine
 10
0.0
 20
-2.5
 30
0.0
 11
0.0
 21
-3.5
 31
0.0
  0
LINE
  5
162
330
158
100
AcDbEntity
  8
LEVEL0
 62
     0
100
AcDbLine
 10
2.5
 20
0.0
 30
0.0
 11
3.5
 21
0.0
 31
0.0
  0
ENDBLK
  5
15A
330
158
100
AcDbEntity
  8
0
100
AcDbBlockEnd
  0
BLOCK
  5
165
330
164
100
AcDbEntity
  8
0
100
AcDbBlockBegin
  2
SW_CENTERMARKSYMBOL_1
 70
     0
 10
0.0
 20
0.0
 30
0.0
  3
SW_CENTERMARKSYMBOL_1
  1

  0
LINE
  5
167
330
164
100
AcDbEntity
  8
LEVEL0
 62
     0
100
AcDbLine
 10
0.0
 20
0.0
 30
0.0
 11
0.0
 21
2.5
 31
0.0
  0
LINE
  5
168
330
164
100
AcDbEntity
  8
LEVEL0
 62
     0
100
AcDbLine
 10
0.0
 20
0.0
 30
0.0
 11
-2.5
 21
0.0
 31
0.0
  0
LINE
  5
169
330
164
100
AcDbEntity
  8
LEVEL0
 62
     0
100
AcDbLine
 10
0.0
 20
0.0
 30
0.0
 11
0.0
 21
-2.5
 31
0.0
  0
LINE
  5
16A
330
164
100
AcDbEntity
  8
LEVEL0
 62
     0
100
AcDbLine
 10
0.0
 20
0.0
 30
0.0
 11
2.5
 21
0.0
 31
0.0
  0
LINE
  5
16B
330
164
100
AcDbEntity
  8
LEVEL0
 62
     0
100
AcDbLine
 10
0.0
 20
2.5
 30
0.0
 11
0.0
 21
3.5
 31
0.0
  0
LINE
  5
16C
330
164
100
AcDbEntity
  8
LEVEL0
 62
     0
100
AcDbLine
 10
-2.5
 20
0.0
 30
0.0
 11
-3.5
 21
0.0
 31
0.0
  0
LINE
  5
16D
330
164
100
AcDbEntity
  8
LEVEL0
 62
     0
100
AcDbLine
 10
0.0
 20
-2.5
 30
0.0
 11
0.0
 21
-3.5
 31
0.0
  0
LINE
  5
16E
330
164
100
AcDbEntity
  8
LEVEL0
 62
     0
100
AcDbLine
 10
2.5
 20
0.0
 30
0.0
 11
3.5
 21
0.0
 31
0.0
  0
ENDBLK
  5
166
330
164
100
AcDbEntity
  8
0
100
AcDbBlockEnd
  0
BLOCK
  5
171
330
170
100
AcDbEntity
  8
0
100
AcDbBlockBegin
  2
SW_CENTERMARKSYMBOL_2
 70
     0
 10
0.0
 20
0.0
 30
0.0
  3
SW_CENTERMARKSYMBOL_2
  1

  0
LINE
  5
173
330
170
100
AcDbEntity
  8
LEVEL0
 62
     0
100
AcDbLine
 10
0.0
 20
0.0
 30
0.0
 11
0.0
 21
2.5
 31
0.0
  0
LINE
  5
174
330
170
100
AcDbEntity
  8
LEVEL0
 62
     0
100
AcDbLine
 10
0.0
 20
0.0
 30
0.0
 11
-2.5
 21
0.0
 31
0.0
  0
LINE
  5
175
330
170
100
AcDbEntity
  8
LEVEL0
 62
     0
100
AcDbLine
 10
0.0
 20
0.0
 30
0.0
 11
0.0
 21
-2.5
 31
0.0
  0
LINE
  5
176
330
170
100
AcDbEntity
  8
LEVEL0
 62
     0
100
AcDbLine
 10
0.0
 20
0.0
 30
0.0
 11
2.5
 21
0.0
 31
0.0
  0
LINE
  5
177
330
170
100
AcDbEntity
  8
LEVEL0
 62
     0
100
AcDbLine
 10
0.0
 20
2.5
 30
0.0
 11
0.0
 21
3.5
 31
0.0
  0
LINE
  5
178
330
170
100
AcDbEntity
  8
LEVEL0
 62
     0
100
AcDbLine
 10
-2.5
 20
0.0
 30
0.0
 11
-3.5
 21
0.0
 31
0.0
  0
LINE
  5
179
330
170
100
AcDbEntity
  8
LEVEL0
 62
     0
100
AcDbLine
 10
0.0
 20
-2.5
 30
0.0
 11
0.0
 21
-3.5
 31
0.0
  0
LINE
  5
17A
330
170
100
AcDbEntity
  8
LEVEL0
 62
     0
100
AcDbLine
 10
2.5
 20
0.0
 30
0.0
 11
3.5
 21
0.0
 31
0.0
  0
ENDBLK
  5
172
330
170
100
AcDbEntity
  8
0
100
AcDbBlockEnd
  0
BLOCK
  5
17D
330
17C
100
AcDbEntity
  8
0
100
AcDbBlockBegin
  2
SW_CENTERMARKSYMBOL_3
 70
     0
 10
0.0
 20
0.0
 30
0.0
  3
SW_CENTERMARKSYMBOL_3
  1

  0
LINE
  5
17F
330
17C
100
AcDbEntity
  8
LEVEL0
 62
     0
100
AcDbLine
 10
0.0
 20
0.0
 30
0.0
 11
0.0
 21
2.5
 31
0.0
  0
LINE
  5
180
330
17C
100
AcDbEntity
  8
LEVEL0
 62
     0
100
AcDbLine
 10
0.0
 20
0.0
 30
0.0
 11
-2.5
 21
0.0
 31
0.0
  0
LINE
  5
181
330
17C
100
AcDbEntity
  8
LEVEL0
 62
     0
100
AcDbLine
 10
0.0
 20
0.0
 30
0.0
 11
0.0
 21
-2.5
 31
0.0
  0
LINE
  5
182
330
17C
100
AcDbEntity
  8
LEVEL0
 62
     0
100
AcDbLine
 10
0.0
 20
0.0
 30
0.0
 11
2.5
 21
0.0
 31
0.0
  0
LINE
  5
183
330
17C
100
AcDbEntity
  8
LEVEL0
 62
     0
100
AcDbLine
 10
0.0
 20
2.5
 30
0.0
 11
0.0
 21
3.5
 31
0.0
  0
LINE
  5
184
330
17C
100
AcDbEntity
  8
LEVEL0
 62
     0
100
AcDbLine
 10
-2.5
 20
0.0
 30
0.0
 11
-3.5
 21
0.0
 31
0.0
  0
LINE
  5
185
330
17C
100
AcDbEntity
  8
LEVEL0
 62
     0
100
AcDbLine
 10
0.0
 20
-2.5
 30
0.0
 11
0.0
 21
-3.5
 31
0.0
  0
LINE
  5
186
330
17C
100
AcDbEntity
  8
LEVEL0
 62
     0
100
AcDbLine
 10
2.5
 20
0.0
 30
0.0
 11
3.5
 21
0.0
 31
0.0
  0
ENDBLK
  5
17E
330
17C
100
AcDbEntity
  8
0
100
AcDbBlockEnd
  0
ENDSEC
  0
SECTION
  2
ENTITIES
  0
LINE
  5
A7
330
1F
100
AcDbEntity
  8
0
  6
Continuous
 62
     7
370
    25
100
AcDbLine
 10
46.5156640434
 20
241.9472716451
 30
0.0
 11
168.8756640434
 21
241.9472716451
 31
0.0
  0
ARC
  5
A8
330
1F
100
AcDbEntity
  8
0
  6
Continuous
 62
     7
370
    25
100
AcDbCircle
 10
46.5156640434
 20
240.1472716451
 30
0.0
 40
1.799999999999997
100
AcDbArc
 50
90.0
 51
180.0
  0
LINE
  5
A9
330
1F
100
AcDbEntity
  8
0
  6
Continuous
 62
     7
370
    25
100
AcDbLine
 10
44.7156640434
 20
67.2272716451
 30
0.0
 11
44.7156640434
 21
240.1472716451
 31
0.0
  0
ARC
  5
AA
330
1F
100
AcDbEntity
  8
0
  6
Continuous
 62
     7
370
    25
100
AcDbCircle
 10
46.5156640434
 20
67.2272716451
 30
0.0
 40
1.799999999999997
100
AcDbArc
 50
180.0
 51
270.0
  0
LINE
  5
AB
330
1F
100
AcDbEntity
  8
0
  6
Continuous
 62
     7
370
    25
100
AcDbLine
 10
168.8756640434
 20
65.4272716451
 30
0.0
 11
46.5156640434
 21
65.4272716451
 31
0.0
  0
ARC
  5
AC
330
1F
100
AcDbEntity
  8
0
  6
Continuous
 62
     7
370
    25
100
AcDbCircle
 10
168.8756640434
 20
67.2272716451
 30
0.0
 40
1.800000000000011
100
AcDbArc
 50
270.0
 51
0.0
  0
LINE
  5
AD
330
1F
100
AcDbEntity
  8
0
  6
Continuous
 62
     7
370
    25
100
AcDbLine
 10
170.6756640434
 20
240.1472716451
 30
0.0
 11
170.6756640434
 21
67.2272716451
 31
0.0
  0
CIRCLE
  5
AE
330
1F
100
AcDbEntity
  8
0
  6
Continuous
 62
     7
370
    25
100
AcDbCircle
 10
180.2756640434
 20
251.5472716451
 30
0.0
 40
1.0
  0
CIRCLE
  5
AF
330
1F
100
AcDbEntity
  8
0
  6
Continuous
 62
     7
370
    25
100
AcDbCircle
 10
180.2756640434
 20
55.8272716451
 30
0.0
 40
1.0
  0
CIRCLE
  5
B0
330
1F
100
AcDbEntity
  8
0
  6
Continuous
 62
     7
370
    25
100
AcDbCircle
 10
35.1156640434
 20
55.8272716451
 30
0.0
 40
1.0
  0
CIRCLE
  5
B1
330
1F
100
AcDbEntity
  8
0
  6
Continuous
 62
     7
370
    25
100
AcDbCircle
 10
35.1156640434
 20
251.5472716451
 30
0.0
 40
1.0
  0
ARC
  5
B2
330
1F
100
AcDbEntity
  8
0
  6
Continuous
 62
     7
370
    25
100
AcDbCircle
 10
168.8756640434
 20
240.1472716451
 30
0.0
 40
1.799999999999983
100
AcDbArc
 50
360.0
 51
90.0
  0
DIMENSION
  5
B3
330
1F
100
AcDbEntity
  8
LEVEL0
100
AcDbDimension
  2
_D
 10
180.2756640434
 20
258.2839797035
 30
0.0
 11
108.2347688504
 21
258.2839797035
 31
0.0
 70
   160
  1
<>
 71
     2
 42
-1.0
  3
SLDDIMSTYLE0
100
AcDbAlignedDimension
 13
35.1156640434
 23
255.0472716451
 33
0.0
 14
180.2756640434
 24
255.0472716451
 34
0.0
100
AcDbRotatedDimension
  0
DIMENSION
  5
CF
330
1F
100
AcDbEntity
  8
LEVEL0
100
AcDbDimension
  2
_D_1
 10
44.7156640434
 20
245.9896720285
 30
0.0
 11
57.0390697262
 21
245.9896720285
 31
0.0
 70
   160
  1
<>
 71
     2
 42
-1.0
  3
SLDDIMSTYLE0
100
AcDbAlignedDimension
 13
35.1156640434
 23
248.0472716451
 33
0.0
 14
44.7156640434
 24
240.1472716451
 34
0.0
 50
0.0
100
AcDbRotatedDimension
  0
DIMENSION
  5
E3
330
1F
100
AcDbEntity
  8
LEVEL0
100
AcDbDimension
  2
_D_2
 10
23.7979072264
 20
55.8272716451
 30
0.0
 11
23.7979072264
 21
149.7133744509
 31
0.0
 70
   160
  1
<>
 71
     2
 42
-1.0
  3
SLDDIMSTYLE0
100
AcDbAlignedDimension
 13
31.6156640434
 23
251.5472716451
 33
0.0
 14
31.6156640434
 24
55.8272716451
 34
0.0
 50
90.0
100
AcDbRotatedDimension
  0
DIMENSION
  5
F6
330
1F
100
AcDbEntity
  8
LEVEL0
100
AcDbDimension
  2
_D_3
 10
39.2952378801
 20
65.4272716451
 30
0.0
 11
39.2952378801
 21
80.909990194
 31
0.0
 70
   160
  1
<>
 71
     2
 42
-1.0
  3
SLDDIMSTYLE0
100
AcDbAlignedDimension
 13
38.6156640434
 23
55.8272716451
 33
0.0
 14
46.5156640434
 24
65.4272716451
 34
0.0
 50
90.0
100
AcDbRotatedDimension
  0
DIMENSION
  5
10A
330
1F
100
AcDbEntity
  8
LEVEL0
100
AcDbDimension
  2
_D_4
 10
170.6756640434
 20
181.4263625552
 30
0.0
 11
110.1790653542
 21
181.4263625552
 31
0.0
 70
   160
  1
<>
 71
     2
 42
-1.0
  3
SLDDIMSTYLE1
100
AcDbAlignedDimension
 13
44.7156640434
 23
240.1472716451
 33
0.0
 14
170.6756640434
 24
240.1472716451
 34
0.0
 50
0.0
100
AcDbRotatedDimension
  0
DIMENSION
  5
126
330
1F
100
AcDbEntity
  8
LEVEL0
100
AcDbDimension
  2
_D_5
 10
89.2787352396
 20
65.4272716451
 30
0.0
 11
89.2787352396
 21
149.7133744509
 31
0.0
 70
   160
  1
<>
 71
     2
 42
-1.0
  3
SLDDIMSTYLE1
100
AcDbAlignedDimension
 13
46.5156640434
 23
241.9472716451
 33
0.0
 14
46.5156640434
 24
65.4272716451
 34
0.0
 50
90.0
100
AcDbRotatedDimension
  0
DIMENSION
  5
141
330
1F
100
AcDbEntity
  8
LEVEL0
100
AcDbDimension
  2
_D_6
 10
168.8756640434
 20
240.1472716451
 30
0.0
 11
159.4913233481
 21
230.7629309498
 31
0.0
 70
   164
  1
<> TYP
 71
     1
 42
-1.0
  3
SLDDIMSTYLE2
100
AcDbRadialDimension
 15
170.1484562495
 25
241.4200638512
 35
0.0
 40
0.0
  0
INSERT
  5
155
330
1F
100
AcDbEntity
  8
LEVEL0
100
AcDbBlockReference
  2
SW_NOTE_0
 10
172.5906392951
 20
48.570338387
 30
0.0
  0
LEADER
  5
157
330
1F
100
AcDbEntity
  8
LEVEL0
100
AcDbLeader
  3
SLDDIMSTYLE3
 76
     2
 10
179.4005645318
 20
55.3433286269
 30
0.0
 10
172.5906392951
 20
48.570338387
 30
0.0
  0
INSERT
  5
163
330
1F
100
AcDbEntity
  8
LEVEL0
100
AcDbBlockReference
  2
SW_CENTERMARKSYMBOL_0
 10
180.2756640434
 20
251.5472716451
 30
0.0
  0
INSERT
  5
16F
330
1F
100
AcDbEntity
  8
LEVEL0
100
AcDbBlockReference
  2
SW_CENTERMARKSYMBOL_1
 10
180.2756640434
 20
55.8272716451
 30
0.0
  0
INSERT
  5
17B
330
1F
100
AcDbEntity
  8
LEVEL0
100
AcDbBlockReference
  2
SW_CENTERMARKSYMBOL_2
 10
35.1156640434
 20
55.8272716451
 30
0.0
  0
INSERT
  5
187
330
1F
100
AcDbEntity
  8
LEVEL0
100
AcDbBlockReference
  2
SW_CENTERMARKSYMBOL_3
 10
35.1156640434
 20
251.5472716451
 30
0.0
  0
ENDSEC
  0
SECTION
  2
OBJECTS
  0
DICTIONARY
  5
C
330
0
100
AcDbDictionary
281
     1
  3
ACAD_GROUP
350
D
  3
ACAD_LAYOUT
350
1A
  3
ACAD_MLINESTYLE
350
17
  3
ACAD_PLOTSETTINGS
350
19
  3
ACAD_PLOTSTYLENAME
350
E
  3
ACAD_SCALELIST
350
47
  0
DICTIONARY
  5
D
102
{ACAD_REACTORS
330
C
102
}
330
C
100
AcDbDictionary
281
     1
  0
DICTIONARY
  5
1A
102
{ACAD_REACTORS
330
C
102
}
330
C
100
AcDbDictionary
281
     1
  3
Layout1
350
1E
  3
Layout2
350
26
  3
Model
350
22
  0
DICTIONARY
  5
17
102
{ACAD_REACTORS
330
C
102
}
330
C
100
AcDbDictionary
281
     1
  3
Standard
350
18
  0
DICTIONARY
  5
19
102
{ACAD_REACTORS
330
C
102
}
330
C
100
AcDbDictionary
281
     1
  0
ACDBDICTIONARYWDFLT
  5
E
102
{ACAD_REACTORS
330
C
102
}
330
C
100
AcDbDictionary
281
     1
  3
Normal
350
F
100
AcDbDictionaryWithDefault
340
F
  0
DICTIONARY
  5
47
102
{ACAD_REACTORS
330
C
102
}
330
C
100
AcDbDictionary
281
     1
  3
A0
350
48
  3
A1
350
49
  3
A2
350
4A
  3
A3
350
4B
  3
A4
350
4C
  3
A5
350
4D
  3
A6
350
4E
  3
A7
350
4F
  3
A8
350
50
  3
A9
350
51
  3
B0
350
52
  3
B1
350
53
  3
B2
350
54
  3
B3
350
55
  3
B4
350
56
  3
B5
350
57
  3
B6
350
58
  3
B7
350
59
  3
B8
350
5A
  3
B9
350
5B
  3
C0
350
5C
  3
C1
350
5D
  3
C2
350
5E
  3
C3
350
5F
  3
C4
350
60
  3
C5
350
61
  3
C6
350
62
  3
C7
350
63
  3
C8
350
64
  3
C9
350
65
  3
D0
350
66
  3
D1
350
67
  3
D2
350
68
  0
LAYOUT
  5
1E
102
{ACAD_REACTORS
330
1A
102
}
330
1A
100
AcDbPlotSettings
  1

  2
none_device
  4

  6

 40
0.0
 41
0.0
 42
0.0
 43
0.0
 44
0.0
 45
0.0
 46
0.0
 47
0.0
 48
0.0
 49
0.0
140
0.0
141
0.0
142
1.0
143
1.0
 70
   688
 72
     1
 73
     0
 74
     5
  7

 75
    16
147
1.0
148
0.0
149
0.0
100
AcDbLayout
  1
Layout1
 70
     1
 71
     1
 10
0.0
 20
0.0
 11
420.0
 21
297.0
 12
0.0
 22
0.0
 32
0.0
 14
1.0000000000E+20
 24
1.0000000000E+20
 34
1.0000000000E+20
 15
-1.0000000000E+20
 25
-1.0000000000E+20
 35
-1.0000000000E+20
146
0.0
 13
0.0
 23
0.0
 33
0.0
 16
1.0
 26
0.0
 36
0.0
 17
0.0
 27
1.0
 37
0.0
 76
     0
330
1B
  0
LAYOUT
  5
26
102
{ACAD_REACTORS
330
1A
102
}
330
1A
100
AcDbPlotSettings
  1

  2
none_device
  4

  6

 40
0.0
 41
0.0
 42
0.0
 43
0.0
 44
0.0
 45
0.0
 46
0.0
 47
0.0
 48
0.0
 49
0.0
140
0.0
141
0.0
142
1.0
143
1.0
 70
   688
 72
     1
 73
     0
 74
     5
  7

 75
    16
147
1.0
148
0.0
149
0.0
100
AcDbLayout
  1
Layout2
 70
     1
 71
     2
 10
0.0
 20
0.0
 11
0.0
 21
0.0
 12
0.0
 22
0.0
 32
0.0
 14
0.0
 24
0.0
 34
0.0
 15
0.0
 25
0.0
 35
0.0
146
0.0
 13
0.0
 23
0.0
 33
0.0
 16
1.0
 26
0.0
 36
0.0
 17
0.0
 27
1.0
 37
0.0
 76
     0
330
23
  0
LAYOUT
  5
22
102
{ACAD_REACTORS
330
1A
102
}
330
1A
100
AcDbPlotSettings
  1

  2
none_device
  4
Letter_(8.50_x_11.00_Inches)
  6

 40
6.35
 41
6.35
 42
6.35000508
 43
6.35000508
 44
215.9
 45
279.4
 46
0.0
 47
0.0
 48
0.0
 49
0.0
140
0.0
141
0.0
142
1.0
143
1.0
 70
  1712
 72
     1
 73
     0
 74
     0
  7

 75
     0
147
1.0
148
0.0
149
0.0
100
AcDbLayout
  1
Model
 70
     1
 71
     0
 10
0.0
 20
0.0
 11
210.0
 21
297.0
 12
0.0
 22
0.0
 32
0.0
 14
0.0
 24
0.0
 34
0.0
 15
210.0
 25
297.0
 35
0.0
146
0.0
 13
0.0
 23
0.0
 33
0.0
 16
1.0
 26
0.0
 36
0.0
 17
0.0
 27
1.0
 37
0.0
 76
     0
330
1F
331
29
  0
MLINESTYLE
  5
18
102
{ACAD_REACTORS
330
17
102
}
330
17
100
AcDbMlineStyle
  2
Standard
 70
     0
  3

 62
   256
 51
90.0
 52
90.0
 71
     2
 49
0.5
 62
   256
  6
BYLAYER
 49
-0.5
 62
   256
  6
BYLAYER
  0
ACDBPLACEHOLDER
  5
F
102
{ACAD_REACTORS
330
E
102
}
330
E
  0
SCALE
  5
48
102
{ACAD_REACTORS
330
47
102
}
330
47
100
AcDbScale
 70
     0
300
1:1
140
1.0
141
1.0
290
     1
  0
SCALE
  5
49
102
{ACAD_REACTORS
330
47
102
}
330
47
100
AcDbScale
 70
     0
300
1:2
140
1.0
141
2.0
290
     0
  0
SCALE
  5
4A
102
{ACAD_REACTORS
330
47
102
}
330
47
100
AcDbScale
 70
     0
300
1:4
140
1.0
141
4.0
290
     0
  0
SCALE
  5
4B
102
{ACAD_REACTORS
330
47
102
}
330
47
100
AcDbScale
 70
     0
300
1:5
140
1.0
141
5.0
290
     0
  0
SCALE
  5
4C
102
{ACAD_REACTORS
330
47
102
}
330
47
100
AcDbScale
 70
     0
300
1:8
140
1.0
141
8.0
290
     0
  0
SCALE
  5
4D
102
{ACAD_REACTORS
330
47
102
}
330
47
100
AcDbScale
 70
     0
300
1:10
140
1.0
141
10.0
290
     0
  0
SCALE
  5
4E
102
{ACAD_REACTORS
330
47
102
}
330
47
100
AcDbScale
 70
     0
300
1:16
140
1.0
141
16.0
290
     0
  0
SCALE
  5
4F
102
{ACAD_REACTORS
330
47
102
}
330
47
100
AcDbScale
 70
     0
300
1:20
140
1.0
141
20.0
290
     0
  0
SCALE
  5
50
102
{ACAD_REACTORS
330
47
102
}
330
47
100
AcDbScale
 70
     0
300
1:30
140
1.0
141
30.0
290
     0
  0
SCALE
  5
51
102
{ACAD_REACTORS
330
47
102
}
330
47
100
AcDbScale
 70
     0
300
1:40
140
1.0
141
40.0
290
     0
  0
SCALE
  5
52
102
{ACAD_REACTORS
330
47
102
}
330
47
100
AcDbScale
 70
     0
300
1:50
140
1.0
141
50.0
290
     0
  0
SCALE
  5
53
102
{ACAD_REACTORS
330
47
102
}
330
47
100
AcDbScale
 70
     0
300
1:100
140
1.0
141
100.0
290
     0
  0
SCALE
  5
54
102
{ACAD_REACTORS
330
47
102
}
330
47
100
AcDbScale
 70
     0
300
2:1
140
2.0
141
1.0
290
     0
  0
SCALE
  5
55
102
{ACAD_REACTORS
330
47
102
}
330
47
100
AcDbScale
 70
     0
300
4:1
140
4.0
141
1.0
290
     0
  0
SCALE
  5
56
102
{ACAD_REACTORS
330
47
102
}
330
47
100
AcDbScale
 70
     0
300
8:1
140
8.0
141
1.0
290
     0
  0
SCALE
  5
57
102
{ACAD_REACTORS
330
47
102
}
330
47
100
AcDbScale
 70
     0
300
10:1
140
10.0
141
1.0
290
     0
  0
SCALE
  5
58
102
{ACAD_REACTORS
330
47
102
}
330
47
100
AcDbScale
 70
     0
300
100:1
140
100.0
141
1.0
290
     0
  0
SCALE
  5
59
102
{ACAD_REACTORS
330
47
102
}
330
47
100
AcDbScale
 70
     0
300
1/128" = 1'-0"
140
0.0078125
141
12.0
290
     0
  0
SCALE
  5
5A
102
{ACAD_REACTORS
330
47
102
}
330
47
100
AcDbScale
 70
     0
300
1/64" = 1'-0"
140
0.015625
141
12.0
290
     0
  0
SCALE
  5
5B
102
{ACAD_REACTORS
330
47
102
}
330
47
100
AcDbScale
 70
     0
300
1/32" = 1'-0"
140
0.03125
141
12.0
290
     0
  0
SCALE
  5
5C
102
{ACAD_REACTORS
330
47
102
}
330
47
100
AcDbScale
 70
     0
300
1/16" = 1'-0"
140
0.0625
141
12.0
290
     0
  0
SCALE
  5
5D
102
{ACAD_REACTORS
330
47
102
}
330
47
100
AcDbScale
 70
     0
300
3/32" = 1'-0"
140
0.09375
141
12.0
290
     0
  0
SCALE
  5
5E
102
{ACAD_REACTORS
330
47
102
}
330
47
100
AcDbScale
 70
     0
300
1/8" = 1'-0"
140
0.125
141
12.0
290
     0
  0
SCALE
  5
5F
102
{ACAD_REACTORS
330
47
102
}
330
47
100
AcDbScale
 70
     0
300
3/16" = 1'-0"
140
0.1875
141
12.0
290
     0
  0
SCALE
  5
60
102
{ACAD_REACTORS
330
47
102
}
330
47
100
AcDbScale
 70
     0
300
1/4" = 1'-0"
140
0.25
141
12.0
290
     0
  0
SCALE
  5
61
102
{ACAD_REACTORS
330
47
102
}
330
47
100
AcDbScale
 70
     0
300
3/8" = 1'-0"
140
0.375
141
12.0
290
     0
  0
SCALE
  5
62
102
{ACAD_REACTORS
330
47
102
}
330
47
100
AcDbScale
 70
     0
300
1/2" = 1'-0"
140
0.5
141
12.0
290
     0
  0
SCALE
  5
63
102
{ACAD_REACTORS
330
47
102
}
330
47
100
AcDbScale
 70
     0
300
3/4" = 1'-0"
140
0.75
141
12.0
290
     0
  0
SCALE
  5
64
102
{ACAD_REACTORS
330
47
102
}
330
47
100
AcDbScale
 70
     0
300
1" = 1'-0"
140
1.0
141
12.0
290
     0
  0
SCALE
  5
65
102
{ACAD_REACTORS
330
47
102
}
330
47
100
AcDbScale
 70
     0
300
1-1/2" = 1'-0"
140
1.5
141
12.0
290
     0
  0
SCALE
  5
66
102
{ACAD_REACTORS
330
47
102
}
330
47
100
AcDbScale
 70
     0
300
3" = 1'-0"
140
3.0
141
12.0
290
     0
  0
SCALE
  5
67
102
{ACAD_REACTORS
330
47
102
}
330
47
100
AcDbScale
 70
     0
300
6" = 1'-0"
140
6.0
141
12.0
290
     0
  0
SCALE
  5
68
102
{ACAD_REACTORS
330
47
102
}
330
47
100
AcDbScale
 70
     0
300
1'-0" = 1'-0"
140
12.0
141
12.0
290
     0
  0
ENDSEC
  0
EOF
