  0
SECTION
  2
HEADER
  9
$ACADVER
  1
AC1009
  9
$DWGCODEPAGE
  3
ansi_1252
  9
$INSBASE
 10
0.0
 20
0.0
 30
0.0
  9
$EXTMIN
 10
0.0
 20
0.0
 30
0.0
  9
$EXTMAX
 10
210.0
 20
297.0
 30
0.0
  9
$LIMMIN
 10
0.0
 20
0.0
  9
$LIMMAX
 10
210.0
 20
297.0
  9
$ORTHOMODE
 70
     0
  9
$REGENMODE
 70
     1
  9
$FILLMODE
 70
     1
  9
$QTEXTMODE
 70
     0
  9
$MIRRTEXT
 70
     1
  9
$DRAGMODE
 70
     2
  9
$LTSCALE
 40
1.0
  9
$OSMODE
 70
    37
  9
$ATTMODE
 70
     1
  9
$TEXTSIZE
 40
2.0
  9
$TRACEWID
 40
1.0
  9
$TEXTSTYLE
  7
STANDARD
  9
$CLAYER
  8
0
  9
$CELTYPE
  6
BYLAYER
  9
$CECOLOR
 62
   256
  9
$DIMSCALE
 40
1.0
  9
$DIMASZ
 40
2.0
  9
$DIMEXO
 40
1.0
  9
$DIMDLI
 40
3.75
  9
$DIMRND
 40
0.0
  9
$DIMDLE
 40
0.0
  9
$DIMEXE
 40
1.0
  9
$DIMTP
 40
0.0
  9
$DIMTM
 40
0.0
  9
$DIMTXT
 40
2.0
  9
$DIMCEN
 40
2.5
  9
$DIMTSZ
 40
0.0
  9
$DIMTOL
 70
     0
  9
$DIMLIM
 70
     0
  9
$DIMTIH
 70
     1
  9
$DIMTOH
 70
     1
  9
$DIMSE1
 70
     0
  9
$DIMSE2
 70
     0
  9
$DIMTAD
 70
     1
  9
$DIMZIN
 70
     0
  9
$DIMBLK
  1

  9
$DIMASO
 70
     1
  9
$DIMSHO
 70
     1
  9
$DIMPOST
  1

  9
$DIMAPOST
  1

  9
$DIMALT
 70
     0
  9
$DIMALTD
 70
     3
  9
$DIMALTF
 40
0.0393700787
  9
$DIMLFAC
 40
1.0
  9
$DIMTOFL
 70
     1
  9
$DIMTVP
 40
0.0
  9
$DIMTIX
 70
     0
  9
$DIMSOXD
 70
     0
  9
$DIMSAH
 70
     0
  9
$DIMBLK1
  1

  9
$DIMBLK2
  1

  9
$DIMSTYLE
  2
ISO-25
  9
$DIMCLRD
 70
     0
  9
$DIMCLRE
 70
     0
  9
$DIMCLRT
 70
     0
  9
$DIMTFAC
 40
1.0
  9
$DIMGAP
 40
1.524
  9
$LUNITS
 70
     2
  9
$LUPREC
 70
     2
  9
$SKETCHINC
 40
1.0
  9
$FILLETRAD
 40
10.0
  9
$AUNITS
 70
     0
  9
$AUPREC
 70
     2
  9
$MENU
  1
.
  9
$ELEVATION
 40
0.0
  9
$PELEVATION
 40
0.0
  9
$THICKNESS
 40
0.0
  9
$LIMCHECK
 70
     0
  9
$CHAMFERA
 40
0.0
  9
$CHAMFERB
 40
0.0
  9
$SKPOLY
 70
     0
  9
$TDCREATE
 40
2459367.833644792
  9
$TDUPDATE
 40
2459367.833645903
  9
$TDINDWG
 40
0.0000000116
  9
$TDUSRTIMER
 40
0.0000000116
  9
$USRTIMER
 70
     1
  9
$ANGBASE
 50
0.0
  9
$ANGDIR
 70
     0
  9
$PDMODE
 70
     0
  9
$PDSIZE
 40
-1.0
  9
$PLINEWID
 40
0.0
  9
$COORDS
 70
     1
  9
$SPLFRAME
 70
     0
  9
$SPLINETYPE
 70
     6
  9
$SPLINESEGS
 70
     8
  9
$ATTDIA
 70
     0
  9
$ATTREQ
 70
     1
  9
$HANDLING
 70
     1
  9
$HANDSEED
  5
17B
  9
$SURFTAB1
 70
     6
  9
$SURFTAB2
 70
     6
  9
$SURFTYPE
 70
     6
  9
$SURFU
 70
     6
  9
$SURFV
 70
     6
  9
$UCSNAME
  2

  9
$UCSORG
 10
0.0
 20
0.0
 30
0.0
  9
$UCSXDIR
 10
1.0
 20
0.0
 30
0.0
  9
$UCSYDIR
 10
0.0
 20
1.0
 30
0.0
  9
$PUCSNAME
  2

  9
$PUCSORG
 10
0.0
 20
0.0
 30
0.0
  9
$PUCSXDIR
 10
1.0
 20
0.0
 30
0.0
  9
$PUCSYDIR
 10
0.0
 20
1.0
 30
0.0
  9
$USERI1
 70
     0
  9
$USERI2
 70
     0
  9
$USERI3
 70
     0
  9
$USERI4
 70
     0
  9
$USERI5
 70
     0
  9
$USERR1
 40
0.0
  9
$USERR2
 40
0.0
  9
$USERR3
 40
0.0
  9
$USERR4
 40
0.0
  9
$USERR5
 40
0.0
  9
$WORLDVIEW
 70
     1
  9
$SHADEDGE
 70
     3
  9
$SHADEDIF
 70
    70
  9
$TILEMODE
 70
     1
  9
$MAXACTVP
 70
    64
  9
$PLIMCHECK
 70
     0
  9
$PEXTMIN
 10
1.0000000000E+20
 20
1.0000000000E+20
 30
1.0000000000E+20
  9
$PEXTMAX
 10
-1.0000000000E+20
 20
-1.0000000000E+20
 30
-1.0000000000E+20
  9
$PLIMMIN
 10
0.0
 20
0.0
  9
$PLIMMAX
 10
420.0
 20
297.0
  9
$UNITMODE
 70
     0
  9
$VISRETAIN
 70
     1
  9
$PLINEGEN
 70
     0
  9
$PSLTSCALE
 70
     1
  0
ENDSEC
  0
SECTION
  2
TABLES
  0
TABLE
  2
VPORT
 70
     1
  0
VPORT
  2
*ACTIVE
 70
     0
 10
0.0
 20
0.0
 11
1.0
 21
1.0
 12
105.0
 22
148.5
 13
0.0
 23
0.0
 14
10.0
 24
10.0
 15
10.0
 25
10.0
 16
0.0
 26
0.0
 36
1.0
 17
0.0
 27
0.0
 37
0.0
 40
297.0
 41
0.7070707071
 42
50.0
 43
0.0
 44
0.0
 50
0.0
 51
0.0
 71
     0
 72
  2000
 73
     1
 74
     3
 75
     0
 76
     0
 77
     0
 78
     0
  0
ENDTAB
  0
TABLE
  2
LTYPE
 70
     6
  0
LTYPE
  2
CONTINUOUS
 70
     0
  3
Solid line
 72
    65
 73
     0
 40
0.0
  0
LTYPE
  2
HIDDEN
 70
     0
  3
Hidden __ __ __ __ __ __ __ __ __ __ __ __ __ __
 72
    65
 73
     2
 40
1.905
 49
1.27
 49
-0.635
  0
LTYPE
  2
PHANTOM
 70
     0
  3
Phantom ______  __  __  ______  __  __  ______
 72
    65
 73
     6
 40
12.7
 49
6.35
 49
-1.27
 49
1.27
 49
-1.27
 49
1.27
 49
-1.27
  0
LTYPE
  2
CENTER
 70
     0
  3
Center ____ _ ____ _ ____ _ ____ _ ____ _ ____
 72
    65
 73
     4
 40
10.16
 49
6.35
 49
-1.27
 49
1.27
 49
-1.27
  0
LTYPE
  2
CENTERX2
 70
     0
  3
Center (2x) ________  __  ________  __  _____
 72
    65
 73
     4
 40
20.32
 49
12.7
 49
-2.54
 49
2.54
 49
-2.54
  0
LTYPE
  2
DOT2
 70
     0
  3
Dot (.5x) ........................................
 72
    65
 73
     2
 40
0.635
 49
0.0
 49
-0.635
  0
ENDTAB
  0
TABLE
  2
LAYER
 70
    53
  0
LAYER
  2
0
 70
     0
 62
     7
  6
CONTINUOUS
  0
LAYER
  2
SLD-0
 70
     0
 62
     7
  6
CONTINUOUS
  0
LAYER
  2
LEVEL0
 70
     0
 62
     7
  6
CONTINUOUS
  0
LAYER
  2
1
 70
     0
 62
     7
  6
CONTINUOUS
  0
LAYER
  2
2
 70
     0
 62
     7
  6
CONTINUOUS
  0
LAYER
  2
3
 70
     0
 62
     7
  6
CONTINUOUS
  0
LAYER
  2
4
 70
     0
 62
     7
  6
CONTINUOUS
  0
LAYER
  2
5
 70
     0
 62
     7
  6
CONTINUOUS
  0
LAYER
  2
6
 70
     0
 62
     7
  6
CONTINUOUS
  0
LAYER
  2
7
 70
     0
 62
     7
  6
CONTINUOUS
  0
LAYER
  2
8
 70
     0
 62
     7
  6
CONTINUOUS
  0
LAYER
  2
9
 70
     0
 62
     7
  6
CONTINUOUS
  0
LAYER
  2
10
 70
     0
 62
     7
  6
CONTINUOUS
  0
LAYER
  2
11
 70
     0
 62
     7
  6
CONTINUOUS
  0
LAYER
  2
12
 70
     0
 62
     7
  6
CONTINUOUS
  0
LAYER
  2
13
 70
     0
 62
     7
  6
CONTINUOUS
  0
LAYER
  2
14
 70
     0
 62
     7
  6
CONTINUOUS
  0
LAYER
  2
15
 70
     0
 62
     7
  6
CONTINUOUS
  0
LAYER
  2
16
 70
     0
 62
     7
  6
CONTINUOUS
  0
LAYER
  2
17
 70
     0
 62
     7
  6
CONTINUOUS
  0
LAYER
  2
18
 70
     0
 62
     7
  6
CONTINUOUS
  0
LAYER
  2
19
 70
     0
 62
     7
  6
CONTINUOUS
  0
LAYER
  2
20
 70
     0
 62
     7
  6
CONTINUOUS
  0
LAYER
  2
21
 70
     0
 62
     7
  6
CONTINUOUS
  0
LAYER
  2
22
 70
     0
 62
     7
  6
CONTINUOUS
  0
LAYER
  2
23
 70
     0
 62
     7
  6
CONTINUOUS
  0
LAYER
  2
24
 70
     0
 62
     7
  6
CONTINUOUS
  0
LAYER
  2
25
 70
     0
 62
     7
  6
CONTINUOUS
  0
LAYER
  2
26
 70
     0
 62
     7
  6
CONTINUOUS
  0
LAYER
  2
27
 70
     0
 62
     7
  6
CONTINUOUS
  0
LAYER
  2
28
 70
     0
 62
     7
  6
CONTINUOUS
  0
LAYER
  2
29
 70
     0
 62
     7
  6
CONTINUOUS
  0
LAYER
  2
30
 70
     0
 62
     7
  6
CONTINUOUS
  0
LAYER
  2
31
 70
     0
 62
     7
  6
CONTINUOUS
  0
LAYER
  2
32
 70
     0
 62
     7
  6
CONTINUOUS
  0
LAYER
  2
33
 70
     0
 62
     7
  6
CONTINUOUS
  0
LAYER
  2
34
 70
     0
 62
     7
  6
CONTINUOUS
  0
LAYER
  2
35
 70
     0
 62
     7
  6
CONTINUOUS
  0
LAYER
  2
36
 70
     0
 62
     7
  6
CONTINUOUS
  0
LAYER
  2
37
 70
     0
 62
     7
  6
CONTINUOUS
  0
LAYER
  2
38
 70
     0
 62
     7
  6
CONTINUOUS
  0
LAYER
  2
39
 70
     0
 62
     7
  6
CONTINUOUS
  0
LAYER
  2
40
 70
     0
 62
     7
  6
CONTINUOUS
  0
LAYER
  2
41
 70
     0
 62
     7
  6
CONTINUOUS
  0
LAYER
  2
42
 70
     0
 62
     7
  6
CONTINUOUS
  0
LAYER
  2
43
 70
     0
 62
     7
  6
CONTINUOUS
  0
LAYER
  2
44
 70
     0
 62
     7
  6
CONTINUOUS
  0
LAYER
  2
45
 70
     0
 62
     7
  6
CONTINUOUS
  0
LAYER
  2
46
 70
     0
 62
     7
  6
CONTINUOUS
  0
LAYER
  2
47
 70
     0
 62
     7
  6
CONTINUOUS
  0
LAYER
  2
48
 70
     0
 62
     7
  6
CONTINUOUS
  0
LAYER
  2
49
 70
     0
 62
     7
  6
CONTINUOUS
  0
LAYER
  2
50
 70
     0
 62
     7
  6
CONTINUOUS
  0
ENDTAB
  0
TABLE
  2
STYLE
 70
     1
  0
STYLE
  2
STANDARD
 70
     0
 40
0.0
 41
1.0
 50
0.0
 71
     0
 42
2.0
  3
txt
  4

  0
ENDTAB
  0
TABLE
  2
VIEW
 70
     0
  0
ENDTAB
  0
TABLE
  2
UCS
 70
     0
  0
ENDTAB
  0
TABLE
  2
APPID
 70
     1
  0
APPID
  2
ACAD
 70
     0
  0
ENDTAB
  0
TABLE
  2
DIMSTYLE
 70
     4
  0
DIMSTYLE
  2
ISO-25
 70
     0
  3

  4

  5

  6

  7

 40
1.0
 41
2.5
 42
0.625
 43
3.75
 44
1.25
 45
0.0
 46
0.0
 47
0.0
 48
0.0
140
2.5
141
2.5
142
0.0
143
0.0393700787
144
1.0
145
0.0
146
1.0
147
0.625
 71
     0
 72
     0
 73
     0
 74
     0
 75
     0
 76
     0
 77
     1
 78
     8
170
     0
171
     3
172
     1
173
     0
174
     0
175
     0
176
     0
177
     0
178
     0
  0
DIMSTYLE
  2
SLDDIMSTYLE0
 70
     0
  3

  4

  5

  6
CLOSED
  7
CLOSED
 40
1.0
 41
2.0
 42
0.0625
 43
0.38
 44
0.0
 45
0.000000001
 46
0.0
 47
0.3
 48
0.2
140
2.0
141
0.09
142
0.0
143
0.0393700787
144
1.0
145
0.0
146
1.0
147
0.5
 71
     1
 72
     0
 73
     0
 74
     0
 75
     0
 76
     0
 77
     1
 78
    12
170
     1
171
     2
172
     0
173
     1
174
     0
175
     0
176
     0
177
     0
178
     0
  0
DIMSTYLE
  2
SLDDIMSTYLE1
 70
     0
  3

  4

  5

  6
CLOSED
  7
CLOSED
 40
1.0
 41
2.0
 42
0.0625
 43
0.38
 44
0.0
 45
0.000000001
 46
0.0
 47
0.3
 48
0.2
140
2.0
141
0.09
142
0.0
143
0.0393700787
144
1.0
145
0.0
146
1.0
147
0.5
 71
     1
 72
     0
 73
     0
 74
     0
 75
     0
 76
     0
 77
     1
 78
    12
170
     1
171
     2
172
     0
173
     1
174
     0
175
     0
176
     0
177
     0
178
     0
  0
DIMSTYLE
  2
SLDDIMSTYLE2
 70
     0
  3

  4

  5

  6
CLOSED
  7
CLOSED
 40
1.0
 41
2.0
 42
0.0625
 43
0.38
 44
0.0
 45
0.000000001
 46
0.0
 47
0.0
 48
0.0
140
2.0
141
0.09
142
0.0
143
0.0393700787
144
1.0
145
0.0
146
1.0
147
0.5
 71
     0
 72
     0
 73
     0
 74
     0
 75
     0
 76
     0
 77
     1
 78
    12
170
     1
171
     2
172
     0
173
     1
174
     0
175
     0
176
     0
177
     0
178
     0
  0
ENDTAB
  0
ENDSEC
  0
SECTION
  2
BLOCKS
  0
BLOCK
  8
0
  2
$MODEL_SPACE
 70
     0
 10
0.0
 20
0.0
 30
0.0
  3
$MODEL_SPACE
  1

  0
ENDBLK
  5
21
  8
0
  0
BLOCK
 67
     1
  8
0
  2
$PAPER_SPACE
 70
     0
 10
0.0
 20
0.0
 30
0.0
  3
$PAPER_SPACE
  1

  0
ENDBLK
  5
1D
 67
     1
  8
0
  0
BLOCK
  8
0
  2
SW_NOTE_0
 70
     0
 10
0.0
 20
0.0
 30
0.0
  3
SW_NOTE_0
  1

  0
TEXT
  5
AA
  8
LEVEL0
 62
     0
 10
0.0
 20
1.9160461201
 30
0.0
 40
3.7041666667
  1
CUTOUT ROUTING TEMPLATE
 41
0.6695652174
 11
0.0
 21
0.0
 31
0.0
 73
     1
  0
TEXT
  5
AB
  8
LEVEL0
 62
     0
 10
0.0
 20
-4.022842873
 30
0.0
 40
3.7041666667
  1
003-1-127
 41
0.7
 11
0.0
 21
-5.9388889931
 31
0.0
 73
     1
  0
TEXT
  5
AC
  8
LEVEL0
 62
     0
 10
0.0
 20
-15.9006208593
 30
0.0
 40
3.7041666667
  1
SCALE 1:1
 41
0.7
 11
0.0
 21
-17.8166669793
 31
0.0
 73
     1
  0
ENDBLK
  5
A9
  8
0
  0
BLOCK
  8
0
  2
_CLOSED
 70
     0
 10
0.0
 20
0.0
 30
0.0
  3
_CLOSED
  1

  0
LINE
  5
BC
  8
0
  6
BYBLOCK
 62
     0
 10
-1.0
 20
0.166667
 30
0.0
 11
0.0
 21
0.0
 31
0.0
  0
LINE
  5
BD
  8
0
  6
BYBLOCK
 62
     0
 10
0.0
 20
0.0
 30
0.0
 11
-1.0
 21
-0.166667
 31
0.0
  0
LINE
  5
BE
  8
0
  6
BYBLOCK
 62
     0
 10
-1.0
 20
0.166667
 30
0.0
 11
-1.0
 21
-0.166667
 31
0.0
  0
LINE
  5
BF
  8
0
  6
BYBLOCK
 62
     0
 10
0.0
 20
0.0
 30
0.0
 11
-1.0
 21
0.0
 31
0.0
  0
ENDBLK
  5
BB
  8
0
  0
BLOCK
  8
0
  2
_D
 70
     0
 10
0.0
 20
0.0
 30
0.0
  3
_D
  1

  0
INSERT
  5
C3
  8
LEVEL0
  2
_CLOSED
 10
67.8907171023
 20
127.4647792047
 30
9.75
 41
2.0
 42
2.0
 50
180.0
  0
INSERT
  5
C4
  8
LEVEL0
  2
_CLOSED
 10
148.7907171023
 20
127.4647792047
 30
9.75
 41
2.0
 42
2.0
 50
0.0
  0
LINE
  5
C5
  8
LEVEL0
 10
113.7273098095
 20
138.2154738708
 30
0.0
 11
113.1179347969
 21
138.2154738708
 31
0.0
  0
LINE
  5
C6
  8
LEVEL0
 10
113.1179347969
 20
138.2154738708
 30
0.0
 11
113.1179347969
 21
133.0432514837
 31
0.0
  0
LINE
  5
C7
  8
LEVEL0
 10
113.1179347969
 20
133.0432514837
 30
0.0
 11
113.7273098095
 21
133.0432514837
 31
0.0
  0
LINE
  5
C8
  8
LEVEL0
 10
127.9050866826
 20
138.2154738708
 30
0.0
 11
128.5144616952
 21
138.2154738708
 31
0.0
  0
LINE
  5
C9
  8
LEVEL0
 10
128.5144616952
 20
138.2154738708
 30
0.0
 11
128.5144616952
 21
133.0432514837
 31
0.0
  0
LINE
  5
CA
  8
LEVEL0
 10
128.5144616952
 20
133.0432514837
 30
0.0
 11
127.9050866826
 21
133.0432514837
 31
0.0
  0
LINE
  5
CB
  8
LEVEL0
 10
67.8907171023
 20
127.4647792047
 30
0.0
 11
148.7907171023
 21
127.4647792047
 31
0.0
  0
TEXT
  5
CC
  8
LEVEL0
 10
111.0307820593
 20
128.5298703221
 30
9.75
 40
2.0
  1
  
 50
360.0
 41
0.7
 11
111.0307820593
 21
127.4953347342
 31
9.75
 73
     1
  0
TEXT
  5
CD
  8
LEVEL0
 10
113.7273098095
 20
134.1083426011
 30
9.75
 40
2.0
  1
3.19
 50
360.0
 41
0.7
 11
113.7273098095
 21
133.0738070132
 31
9.75
 73
     1
  0
TEXT
  5
CE
  8
LEVEL0
 10
118.8995317309
 20
134.1083426011
 30
9.75
 40
2.0
  1
 
 50
360.0
 41
0.7
 11
118.8995317309
 21
133.0738070132
 31
9.75
 73
     1
  0
TEXT
  5
CF
  8
LEVEL0
 10
119.6384207099
 20
136.6638982651
 30
9.75
 40
2.0
  1
+
 50
360.0
 41
0.7
 11
119.6384207099
 21
135.6293626772
 31
9.75
 73
     1
  0
TEXT
  5
D0
  8
LEVEL0
 10
120.0036984912
 20
134.0777870716
 30
9.75
 40
2.0
  1
-
 50
360.0
 41
0.7
 11
120.0036984912
 21
133.0432514837
 31
9.75
 73
     1
  0
TEXT
  5
D1
  8
LEVEL0
 10
121.255087269
 20
136.6638982651
 30
9.75
 40
2.0
  1
0.012
 50
360.0
 41
0.7
 11
121.255087269
 21
135.6293626772
 31
9.75
 73
     1
  0
TEXT
  5
D2
  8
LEVEL0
 10
121.255087269
 20
134.0777870716
 30
9.75
 40
2.0
  1
0.008
 50
360.0
 41
0.7
 11
121.255087269
 21
133.0432514837
 31
9.75
 73
     1
  0
TEXT
  5
D3
  8
LEVEL0
 10
115.2050874182
 20
128.4993143269
 30
9.75
 40
2.0
  1
80.9
 50
360.0
 41
0.7
 11
115.2050874182
 21
127.464778739
 31
9.75
 73
     1
  0
TEXT
  5
D4
  8
LEVEL0
 10
120.3773093396
 20
128.4993143269
 30
9.75
 40
2.0
  1
 
 50
360.0
 41
0.7
 11
120.3773093396
 21
127.464778739
 31
9.75
 73
     1
  0
TEXT
  5
D5
  8
LEVEL0
 10
121.1161983185
 20
131.0854255205
 30
9.75
 40
2.0
  1
+
 50
360.0
 41
0.7
 11
121.1161983185
 21
130.0508899326
 31
9.75
 73
     1
  0
TEXT
  5
D6
  8
LEVEL0
 10
121.4814760999
 20
128.4993143269
 30
9.75
 40
2.0
  1
-
 50
360.0
 41
0.7
 11
121.4814760999
 21
127.464778739
 31
9.75
 73
     1
  0
TEXT
  5
D7
  8
LEVEL0
 10
122.7328648777
 20
131.0854255205
 30
9.75
 40
2.0
  1
0.3
 50
360.0
 41
0.7
 11
122.7328648777
 21
130.0508899326
 31
9.75
 73
     1
  0
TEXT
  5
D8
  8
LEVEL0
 10
122.7328648777
 20
128.4993143269
 30
9.75
 40
2.0
  1
0.2
 50
360.0
 41
0.7
 11
122.7328648777
 21
127.464778739
 31
9.75
 73
     1
  0
TEXT
  5
D9
  8
LEVEL0
 10
129.1238371734
 20
128.5298703221
 30
9.75
 40
2.0
  1
  
 50
360.0
 41
0.7
 11
129.1238371734
 21
127.4953347342
 31
9.75
 73
     1
  0
ENDBLK
  5
C2
  8
0
  0
BLOCK
  8
0
  2
_D_1
 70
     0
 10
0.0
 20
0.0
 30
0.0
  3
_D_1
  1

  0
INSERT
  5
DF
  8
LEVEL0
  2
_CLOSED
 10
106.8651450125
 20
208.3356872709
 30
9.75
 41
2.0
 42
2.0
 50
90.0
  0
INSERT
  5
E0
  8
LEVEL0
  2
_CLOSED
 10
106.8651450125
 20
87.2856872709
 30
9.75
 41
2.0
 42
2.0
 50
270.0
  0
LINE
  5
E1
  8
LEVEL0
 10
96.1144503464
 20
154.1620549566
 30
0.0
 11
96.1144503464
 21
153.552679944
 31
0.0
  0
LINE
  5
E2
  8
LEVEL0
 10
96.1144503464
 20
153.552679944
 30
0.0
 11
101.2866727334
 21
153.552679944
 31
0.0
  0
LINE
  5
E3
  8
LEVEL0
 10
101.2866727334
 20
153.552679944
 30
0.0
 11
101.2866727334
 21
154.1620549566
 31
0.0
  0
LINE
  5
E4
  8
LEVEL0
 10
96.1144503464
 20
168.3398318297
 30
0.0
 11
96.1144503464
 21
168.9492068422
 31
0.0
  0
LINE
  5
E5
  8
LEVEL0
 10
96.1144503464
 20
168.9492068422
 30
0.0
 11
101.2866727334
 21
168.9492068422
 31
0.0
  0
LINE
  5
E6
  8
LEVEL0
 10
101.2866727334
 20
168.9492068422
 30
0.0
 11
101.2866727334
 21
168.3398318297
 31
0.0
  0
LINE
  5
E7
  8
LEVEL0
 10
106.8651450125
 20
208.3356872709
 30
0.0
 11
106.8651450125
 21
87.2856872709
 31
0.0
  0
TEXT
  5
E8
  8
LEVEL0
 10
105.800053895
 20
151.4655272063
 30
9.75
 40
2.0
  1
  
 50
90.0
 41
0.7
 11
106.8345894829
 21
151.4655272063
 31
9.75
 73
     1
  0
TEXT
  5
E9
  8
LEVEL0
 10
100.221581616
 20
154.1620549566
 30
9.75
 40
2.0
  1
4.77
 50
90.0
 41
0.7
 11
101.2561172039
 21
154.1620549566
 31
9.75
 73
     1
  0
TEXT
  5
EA
  8
LEVEL0
 10
100.221581616
 20
159.3342768779
 30
9.75
 40
2.0
  1
 
 50
90.0
 41
0.7
 11
101.2561172039
 21
159.3342768779
 31
9.75
 73
     1
  0
TEXT
  5
EB
  8
LEVEL0
 10
97.666025952
 20
160.0731658569
 30
9.75
 40
2.0
  1
+
 50
90.0
 41
0.7
 11
98.7005615399
 21
160.0731658569
 31
9.75
 73
     1
  0
TEXT
  5
EC
  8
LEVEL0
 10
100.2521371456
 20
160.4384436383
 30
9.75
 40
2.0
  1
-
 50
90.0
 41
0.7
 11
101.2866727334
 21
160.4384436383
 31
9.75
 73
     1
  0
TEXT
  5
ED
  8
LEVEL0
 10
97.666025952
 20
161.689832416
 30
9.75
 40
2.0
  1
0.012
 50
90.0
 41
0.7
 11
98.7005615399
 21
161.689832416
 31
9.75
 73
     1
  0
TEXT
  5
EE
  8
LEVEL0
 10
100.2521371456
 20
161.689832416
 30
9.75
 40
2.0
  1
0.008
 50
90.0
 41
0.7
 11
101.2866727334
 21
161.689832416
 31
9.75
 73
     1
  0
TEXT
  5
EF
  8
LEVEL0
 10
105.8306098902
 20
154.9009435863
 30
9.75
 40
2.0
  1
121.1
 50
90.0
 41
0.7
 11
106.8651454781
 21
154.9009435863
 31
9.75
 73
     1
  0
TEXT
  5
F0
  8
LEVEL0
 10
105.8306098902
 20
161.5509434656
 30
9.75
 40
2.0
  1
 
 50
90.0
 41
0.7
 11
106.8651454781
 21
161.5509434656
 31
9.75
 73
     1
  0
TEXT
  5
F1
  8
LEVEL0
 10
103.2444986967
 20
162.2898324445
 30
9.75
 40
2.0
  1
+
 50
90.0
 41
0.7
 11
104.2790342846
 21
162.2898324445
 31
9.75
 73
     1
  0
TEXT
  5
F2
  8
LEVEL0
 10
105.8306098902
 20
162.6551102259
 30
9.75
 40
2.0
  1
-
 50
90.0
 41
0.7
 11
106.8651454781
 21
162.6551102259
 31
9.75
 73
     1
  0
TEXT
  5
F3
  8
LEVEL0
 10
103.2444986967
 20
163.906498538
 30
9.75
 40
2.0
  1
0.3
 50
90.0
 41
0.7
 11
104.2790342846
 21
163.906498538
 31
9.75
 73
     1
  0
TEXT
  5
F4
  8
LEVEL0
 10
105.8306098902
 20
163.906498538
 30
9.75
 40
2.0
  1
0.2
 50
90.0
 41
0.7
 11
106.8651454781
 21
163.906498538
 31
9.75
 73
     1
  0
TEXT
  5
F5
  8
LEVEL0
 10
105.800053895
 20
169.5585823205
 30
9.75
 40
2.0
  1
  
 50
90.0
 41
0.7
 11
106.8345894829
 21
169.5585823205
 31
9.75
 73
     1
  0
ENDBLK
  5
DE
  8
0
  0
BLOCK
  8
0
  2
_D_2
 70
     0
 10
0.0
 20
0.0
 30
0.0
  3
_D_2
  1

  0
INSERT
  5
FB
  8
LEVEL0
  2
_CLOSED
 10
59.8907171023
 20
91.0772458665
 30
9.75
 41
2.0
 42
2.0
 50
180.0
  0
INSERT
  5
FC
  8
LEVEL0
  2
_CLOSED
 10
67.8907171023
 20
91.0772458665
 30
9.75
 41
2.0
 42
2.0
 50
0.0
  0
LINE
  5
FD
  8
LEVEL0
 10
46.8620427592
 20
97.2446069136
 30
0.0
 11
46.2526677466
 21
97.2446069136
 31
0.0
  0
LINE
  5
FE
  8
LEVEL0
 10
46.2526677466
 20
97.2446069136
 30
0.0
 11
46.2526677466
 21
94.069606952
 31
0.0
  0
LINE
  5
FF
  8
LEVEL0
 10
46.2526677466
 20
94.069606952
 30
0.0
 11
46.8620427592
 21
94.069606952
 31
0.0
  0
LINE
  5
100
  8
LEVEL0
 10
52.0342646805
 20
97.2446069136
 30
0.0
 11
52.6436396931
 21
97.2446069136
 31
0.0
  0
LINE
  5
101
  8
LEVEL0
 10
52.6436396931
 20
97.2446069136
 30
0.0
 11
52.6436396931
 21
94.069606952
 31
0.0
  0
LINE
  5
102
  8
LEVEL0
 10
52.6436396931
 20
94.069606952
 30
0.0
 11
52.0342646805
 21
94.069606952
 31
0.0
  0
LINE
  5
103
  8
LEVEL0
 10
59.8907171023
 20
83.7856872709
 30
0.0
 11
59.8907171023
 21
92.0772458665
 31
0.0
  0
LINE
  5
104
  8
LEVEL0
 10
59.8907171023
 20
91.0772458665
 30
0.0
 11
44.1655150089
 21
91.0772458665
 31
0.0
  0
LINE
  5
105
  8
LEVEL0
 10
59.8907171023
 20
91.0772458665
 30
0.0
 11
67.8907171023
 21
91.0772458665
 31
0.0
  0
TEXT
  5
106
  8
LEVEL0
 10
44.1655150089
 20
92.1423369839
 30
9.75
 40
2.0
  1
  
 50
360.0
 41
0.7
 11
44.1655150089
 21
91.107801396
 31
9.75
 73
     1
  0
TEXT
  5
107
  8
LEVEL0
 10
46.8620427592
 20
95.1041425399
 30
9.75
 40
2.0
  1
0.31
 50
360.0
 41
0.7
 11
46.8620427592
 21
94.069606952
 31
9.75
 73
     1
  0
TEXT
  5
108
  8
LEVEL0
 10
48.7092649737
 20
92.1117812215
 30
9.75
 40
2.0
  1
8
 50
360.0
 41
0.7
 11
48.7092649737
 21
91.0772456337
 31
9.75
 73
     1
  0
TEXT
  5
109
  8
LEVEL0
 10
53.2530151713
 20
92.1423369839
 30
9.75
 40
2.0
  1
  
 50
360.0
 41
0.7
 11
53.2530151713
 21
91.107801396
 31
9.75
 73
     1
  0
ENDBLK
  5
FA
  8
0
  0
BLOCK
  8
0
  2
_D_3
 70
     0
 10
0.0
 20
0.0
 30
0.0
  3
_D_3
  1

  0
INSERT
  5
10E
  8
LEVEL0
  2
_CLOSED
 10
75.4570239182
 20
79.2856872709
 30
9.75
 41
2.0
 42
2.0
 50
270.0
  0
INSERT
  5
10F
  8
LEVEL0
  2
_CLOSED
 10
75.4570239182
 20
87.2856872709
 30
9.75
 41
2.0
 42
2.0
 50
90.0
  0
LINE
  5
110
  8
LEVEL0
 10
69.2896628711
 20
66.6737804308
 30
0.0
 11
69.2896628711
 21
66.0644054183
 31
0.0
  0
LINE
  5
111
  8
LEVEL0
 10
69.2896628711
 20
66.0644054183
 30
0.0
 11
72.4646628327
 21
66.0644054183
 31
0.0
  0
LINE
  5
112
  8
LEVEL0
 10
72.4646628327
 20
66.0644054183
 30
0.0
 11
72.4646628327
 21
66.6737804308
 31
0.0
  0
LINE
  5
113
  8
LEVEL0
 10
69.2896628711
 20
71.8460023522
 30
0.0
 11
69.2896628711
 21
72.4553773648
 31
0.0
  0
LINE
  5
114
  8
LEVEL0
 10
69.2896628711
 20
72.4553773648
 30
0.0
 11
72.4646628327
 21
72.4553773648
 31
0.0
  0
LINE
  5
115
  8
LEVEL0
 10
72.4646628327
 20
72.4553773648
 30
0.0
 11
72.4646628327
 21
71.8460023522
 31
0.0
  0
LINE
  5
116
  8
LEVEL0
 10
64.3907171023
 20
79.2856872709
 30
0.0
 11
76.4570239182
 21
79.2856872709
 31
0.0
  0
LINE
  5
117
  8
LEVEL0
 10
75.4570239182
 20
79.2856872709
 30
0.0
 11
75.4570239182
 21
63.9772526806
 31
0.0
  0
LINE
  5
118
  8
LEVEL0
 10
75.4570239182
 20
79.2856872709
 30
0.0
 11
75.4570239182
 21
87.2856872709
 31
0.0
  0
TEXT
  5
119
  8
LEVEL0
 10
74.3919328008
 20
63.9772526806
 30
9.75
 40
2.0
  1
  
 50
90.0
 41
0.7
 11
75.4264683887
 21
63.9772526806
 31
9.75
 73
     1
  0
TEXT
  5
11A
  8
LEVEL0
 10
71.4301272448
 20
66.6737804308
 30
9.75
 40
2.0
  1
0.31
 50
90.0
 41
0.7
 11
72.4646628327
 21
66.6737804308
 31
9.75
 73
     1
  0
TEXT
  5
11B
  8
LEVEL0
 10
74.4224885632
 20
68.5210026454
 30
9.75
 40
2.0
  1
8
 50
90.0
 41
0.7
 11
75.4570241511
 21
68.5210026454
 31
9.75
 73
     1
  0
TEXT
  5
11C
  8
LEVEL0
 10
74.3919328008
 20
73.064752843
 30
9.75
 40
2.0
  1
  
 50
90.0
 41
0.7
 11
75.4264683887
 21
73.064752843
 31
9.75
 73
     1
  0
ENDBLK
  5
10D
  8
0
  0
BLOCK
  8
0
  2
_D_4
 70
     0
 10
0.0
 20
0.0
 30
0.0
  3
_D_4
  1

  0
INSERT
  5
121
  8
LEVEL0
  2
_CLOSED
 10
59.8907171023
 20
54.2949714494
 30
9.75
 41
2.0
 42
2.0
 50
180.0
  0
INSERT
  5
122
  8
LEVEL0
  2
_CLOSED
 10
156.7907171023
 20
54.2949714494
 30
9.75
 41
2.0
 42
2.0
 50
0.0
  0
LINE
  5
123
  8
LEVEL0
 10
105.5575989024
 20
60.4623324965
 30
0.0
 11
104.9482238898
 21
60.4623324965
 31
0.0
  0
LINE
  5
124
  8
LEVEL0
 10
104.9482238898
 20
60.4623324965
 30
0.0
 11
104.9482238898
 21
57.2873325349
 31
0.0
  0
LINE
  5
125
  8
LEVEL0
 10
104.9482238898
 20
57.2873325349
 30
0.0
 11
105.5575989024
 21
57.2873325349
 31
0.0
  0
LINE
  5
126
  8
LEVEL0
 10
110.7298208238
 20
60.4623324965
 30
0.0
 11
111.3391958363
 21
60.4623324965
 31
0.0
  0
LINE
  5
127
  8
LEVEL0
 10
111.3391958363
 20
60.4623324965
 30
0.0
 11
111.3391958363
 21
57.2873325349
 31
0.0
  0
LINE
  5
128
  8
LEVEL0
 10
111.3391958363
 20
57.2873325349
 30
0.0
 11
110.7298208238
 21
57.2873325349
 31
0.0
  0
LINE
  5
129
  8
LEVEL0
 10
59.8907171023
 20
74.7856872709
 30
0.0
 11
59.8907171023
 21
53.2949714494
 31
0.0
  0
LINE
  5
12A
  8
LEVEL0
 10
156.7907171023
 20
74.7856872709
 30
0.0
 11
156.7907171023
 21
53.2949714494
 31
0.0
  0
LINE
  5
12B
  8
LEVEL0
 10
59.8907171023
 20
54.2949714494
 30
0.0
 11
156.7907171023
 21
54.2949714494
 31
0.0
  0
TEXT
  5
12C
  8
LEVEL0
 10
102.8610711521
 20
55.3600625668
 30
9.75
 40
2.0
  1
  
 41
0.7
 11
102.8610711521
 21
54.3255269789
 31
9.75
 73
     1
  0
TEXT
  5
12D
  8
LEVEL0
 10
105.5575989024
 20
58.3218681227
 30
9.75
 40
2.0
  1
3.81
 41
0.7
 11
105.5575989024
 21
57.2873325349
 31
9.75
 73
     1
  0
TEXT
  5
12E
  8
LEVEL0
 10
105.5575990188
 20
55.3295068044
 30
9.75
 40
2.0
  1
96.9
 41
0.7
 11
105.5575990188
 21
54.2949712165
 31
9.75
 73
     1
  0
TEXT
  5
12F
  8
LEVEL0
 10
111.9485713146
 20
55.3600625668
 30
9.75
 40
2.0
  1
  
 41
0.7
 11
111.9485713146
 21
54.3255269789
 31
9.75
 73
     1
  0
ENDBLK
  5
120
  8
0
  0
BLOCK
  8
0
  2
_D_5
 70
     0
 10
0.0
 20
0.0
 30
0.0
  3
_D_5
  1

  0
INSERT
  5
134
  8
LEVEL0
  2
_CLOSED
 10
35.4556230139
 20
79.2856872709
 30
9.75
 41
2.0
 42
2.0
 50
270.0
  0
INSERT
  5
135
  8
LEVEL0
  2
_CLOSED
 10
35.4556230139
 20
216.3356872709
 30
9.75
 41
2.0
 42
2.0
 50
90.0
  0
LINE
  5
136
  8
LEVEL0
 10
29.2882619668
 20
153.5992926326
 30
0.0
 11
29.2882619668
 21
152.9899176201
 31
0.0
  0
LINE
  5
137
  8
LEVEL0
 10
29.2882619668
 20
152.9899176201
 30
0.0
 11
32.4632619284
 21
152.9899176201
 31
0.0
  0
LINE
  5
138
  8
LEVEL0
 10
32.4632619284
 20
152.9899176201
 30
0.0
 11
32.4632619284
 21
153.5992926326
 31
0.0
  0
LINE
  5
139
  8
LEVEL0
 10
29.2882619668
 20
158.771514554
 30
0.0
 11
29.2882619668
 21
159.3808895666
 31
0.0
  0
LINE
  5
13A
  8
LEVEL0
 10
29.2882619668
 20
159.3808895666
 30
0.0
 11
32.4632619284
 21
159.3808895666
 31
0.0
  0
LINE
  5
13B
  8
LEVEL0
 10
32.4632619284
 20
159.3808895666
 30
0.0
 11
32.4632619284
 21
158.771514554
 31
0.0
  0
LINE
  5
13C
  8
LEVEL0
 10
55.3907171023
 20
79.2856872709
 30
0.0
 11
34.4556230139
 21
79.2856872709
 31
0.0
  0
LINE
  5
13D
  8
LEVEL0
 10
55.3907171023
 20
216.3356872709
 30
0.0
 11
34.4556230139
 21
216.3356872709
 31
0.0
  0
LINE
  5
13E
  8
LEVEL0
 10
35.4556230139
 20
79.2856872709
 30
0.0
 11
35.4556230139
 21
216.3356872709
 31
0.0
  0
TEXT
  5
13F
  8
LEVEL0
 10
34.3905318965
 20
150.9027648824
 30
9.75
 40
2.0
  1
  
 50
90.0
 41
0.7
 11
35.4250674844
 21
150.9027648824
 31
9.75
 73
     1
  0
TEXT
  5
140
  8
LEVEL0
 10
31.4287263405
 20
153.5992926326
 30
9.75
 40
2.0
  1
5.40
 50
90.0
 41
0.7
 11
32.4632619284
 21
153.5992926326
 31
9.75
 73
     1
  0
TEXT
  5
141
  8
LEVEL0
 10
34.4210876589
 20
152.8604037701
 30
9.75
 40
2.0
  1
137.1
 50
90.0
 41
0.7
 11
35.4556232467
 21
152.8604037701
 31
9.75
 73
     1
  0
TEXT
  5
142
  8
LEVEL0
 10
34.3905318965
 20
159.9902650448
 30
9.75
 40
2.0
  1
  
 50
90.0
 41
0.7
 11
35.4250674844
 21
159.9902650448
 31
9.75
 73
     1
  0
ENDBLK
  5
133
  8
0
  0
BLOCK
  8
0
  2
SW_NOTE_0_1
 70
     0
 10
0.0
 20
0.0
 30
0.0
  3
SW_NOTE_0_1
  1

  0
TEXT
  5
146
  8
LEVEL0
 62
     0
 10
48.3038919086
 20
8.5051606932
 30
0.0
 40
1.8520833333
  1
MARK SCREW
 41
0.7
 11
48.3038919086
 21
7.5471376332
 31
0.0
 73
     1
  0
TEXT
  5
147
  8
LEVEL0
 62
     0
 10
48.3038919086
 20
4.9743619804
 30
0.0
 40
1.8520833333
  1
LOCATIONS
 41
0.7
 11
48.3038919086
 21
4.0163389204
 31
0.0
 73
     1
  0
LINE
  5
148
  8
LEVEL0
 62
     0
 10
47.7357906958
 20
9.4295385699
 30
0.0
 11
0.0
 21
0.0
 31
0.0
  0
SOLID
  5
149
  8
LEVEL0
 62
     0
 10
0.0
 20
0.0
 30
0.0
 11
2.0217136485
 21
0.0857232745
 31
0.0
 12
1.9024574666
 22
0.6894419076
 32
0.0
 13
1.9024574666
 23
0.6894419076
 33
0.0
  0
ENDBLK
  5
145
  8
0
  0
BLOCK
  8
0
  2
SW_CENTERMARKSYMBOL_0
 70
     0
 10
0.0
 20
0.0
 30
0.0
  3
SW_CENTERMARKSYMBOL_0
  1

  0
LINE
  5
14E
  8
LEVEL0
 62
     0
 10
0.0
 20
0.0
 30
0.0
 11
0.0
 21
2.5
 31
0.0
  0
LINE
  5
14F
  8
LEVEL0
 62
     0
 10
0.0
 20
0.0
 30
0.0
 11
-2.5
 21
0.0
 31
0.0
  0
LINE
  5
150
  8
LEVEL0
 62
     0
 10
0.0
 20
0.0
 30
0.0
 11
0.0
 21
-2.5
 31
0.0
  0
LINE
  5
151
  8
LEVEL0
 62
     0
 10
0.0
 20
0.0
 30
0.0
 11
2.5
 21
0.0
 31
0.0
  0
LINE
  5
152
  8
LEVEL0
 62
     0
 10
0.0
 20
2.5
 30
0.0
 11
0.0
 21
3.5
 31
0.0
  0
LINE
  5
153
  8
LEVEL0
 62
     0
 10
-2.5
 20
0.0
 30
0.0
 11
-3.5
 21
0.0
 31
0.0
  0
LINE
  5
154
  8
LEVEL0
 62
     0
 10
0.0
 20
-2.5
 30
0.0
 11
0.0
 21
-3.5
 31
0.0
  0
LINE
  5
155
  8
LEVEL0
 62
     0
 10
2.5
 20
0.0
 30
0.0
 11
3.5
 21
0.0
 31
0.0
  0
ENDBLK
  5
14D
  8
0
  0
BLOCK
  8
0
  2
SW_CENTERMARKSYMBOL_1
 70
     0
 10
0.0
 20
0.0
 30
0.0
  3
SW_CENTERMARKSYMBOL_1
  1

  0
LINE
  5
15A
  8
LEVEL0
 62
     0
 10
0.0
 20
0.0
 30
0.0
 11
0.0
 21
2.5
 31
0.0
  0
LINE
  5
15B
  8
LEVEL0
 62
     0
 10
0.0
 20
0.0
 30
0.0
 11
-2.5
 21
0.0
 31
0.0
  0
LINE
  5
15C
  8
LEVEL0
 62
     0
 10
0.0
 20
0.0
 30
0.0
 11
0.0
 21
-2.5
 31
0.0
  0
LINE
  5
15D
  8
LEVEL0
 62
     0
 10
0.0
 20
0.0
 30
0.0
 11
2.5
 21
0.0
 31
0.0
  0
LINE
  5
15E
  8
LEVEL0
 62
     0
 10
0.0
 20
2.5
 30
0.0
 11
0.0
 21
3.5
 31
0.0
  0
LINE
  5
15F
  8
LEVEL0
 62
     0
 10
-2.5
 20
0.0
 30
0.0
 11
-3.5
 21
0.0
 31
0.0
  0
LINE
  5
160
  8
LEVEL0
 62
     0
 10
0.0
 20
-2.5
 30
0.0
 11
0.0
 21
-3.5
 31
0.0
  0
LINE
  5
161
  8
LEVEL0
 62
     0
 10
2.5
 20
0.0
 30
0.0
 11
3.5
 21
0.0
 31
0.0
  0
ENDBLK
  5
159
  8
0
  0
BLOCK
  8
0
  2
SW_CENTERMARKSYMBOL_2
 70
     0
 10
0.0
 20
0.0
 30
0.0
  3
SW_CENTERMARKSYMBOL_2
  1

  0
LINE
  5
166
  8
LEVEL0
 62
     0
 10
0.0
 20
0.0
 30
0.0
 11
0.0
 21
2.5
 31
0.0
  0
LINE
  5
167
  8
LEVEL0
 62
     0
 10
0.0
 20
0.0
 30
0.0
 11
-2.5
 21
0.0
 31
0.0
  0
LINE
  5
168
  8
LEVEL0
 62
     0
 10
0.0
 20
0.0
 30
0.0
 11
0.0
 21
-2.5
 31
0.0
  0
LINE
  5
169
  8
LEVEL0
 62
     0
 10
0.0
 20
0.0
 30
0.0
 11
2.5
 21
0.0
 31
0.0
  0
LINE
  5
16A
  8
LEVEL0
 62
     0
 10
0.0
 20
2.5
 30
0.0
 11
0.0
 21
3.5
 31
0.0
  0
LINE
  5
16B
  8
LEVEL0
 62
     0
 10
-2.5
 20
0.0
 30
0.0
 11
-3.5
 21
0.0
 31
0.0
  0
LINE
  5
16C
  8
LEVEL0
 62
     0
 10
0.0
 20
-2.5
 30
0.0
 11
0.0
 21
-3.5
 31
0.0
  0
LINE
  5
16D
  8
LEVEL0
 62
     0
 10
2.5
 20
0.0
 30
0.0
 11
3.5
 21
0.0
 31
0.0
  0
ENDBLK
  5
165
  8
0
  0
BLOCK
  8
0
  2
SW_CENTERMARKSYMBOL_3
 70
     0
 10
0.0
 20
0.0
 30
0.0
  3
SW_CENTERMARKSYMBOL_3
  1

  0
LINE
  5
172
  8
LEVEL0
 62
     0
 10
0.0
 20
0.0
 30
0.0
 11
0.0
 21
2.5
 31
0.0
  0
LINE
  5
173
  8
LEVEL0
 62
     0
 10
0.0
 20
0.0
 30
0.0
 11
-2.5
 21
0.0
 31
0.0
  0
LINE
  5
174
  8
LEVEL0
 62
     0
 10
0.0
 20
0.0
 30
0.0
 11
0.0
 21
-2.5
 31
0.0
  0
LINE
  5
175
  8
LEVEL0
 62
     0
 10
0.0
 20
0.0
 30
0.0
 11
2.5
 21
0.0
 31
0.0
  0
LINE
  5
176
  8
LEVEL0
 62
     0
 10
0.0
 20
2.5
 30
0.0
 11
0.0
 21
3.5
 31
0.0
  0
LINE
  5
177
  8
LEVEL0
 62
     0
 10
-2.5
 20
0.0
 30
0.0
 11
-3.5
 21
0.0
 31
0.0
  0
LINE
  5
178
  8
LEVEL0
 62
     0
 10
0.0
 20
-2.5
 30
0.0
 11
0.0
 21
-3.5
 31
0.0
  0
LINE
  5
179
  8
LEVEL0
 62
     0
 10
2.5
 20
0.0
 30
0.0
 11
3.5
 21
0.0
 31
0.0
  0
ENDBLK
  5
171
  8
0
  0
ENDSEC
  0
SECTION
  2
ENTITIES
  0
INSERT
  5
AD
  8
LEVEL0
  2
SW_NOTE_0
 10
17.8484097093
 20
257.1817221739
 30
0.0
  0
TEXT
  5
AE
  8
LEVEL0
 10
70.8599914693
 20
31.8814529967
 30
0.0
 40
3.7041666667
  1
PRINT THIS PAGE 1:1 SCALE
 41
0.644
 11
70.8599914693
 21
29.9654068767
 31
0.0
 73
     1
  0
CIRCLE
  5
AF
  8
0
  6
CONTINUOUS
 62
     7
 10
59.8907171023
 20
79.2856872709
 30
0.0
 40
1.0
  0
CIRCLE
  5
B0
  8
0
  6
CONTINUOUS
 62
     7
 10
156.7907171023
 20
216.3356872709
 30
0.0
 40
1.0
  0
CIRCLE
  5
B1
  8
0
  6
CONTINUOUS
 62
     7
 10
59.8907171023
 20
216.3356872709
 30
0.0
 40
1.0
  0
CIRCLE
  5
B2
  8
0
  6
CONTINUOUS
 62
     7
 10
156.7907171023
 20
79.2856872709
 30
0.0
 40
1.0
  0
LINE
  5
B3
  8
0
  6
CONTINUOUS
 62
     7
 10
67.8907178294
 20
87.2856871755
 30
0.0
 11
148.7907163751
 21
87.2856871755
 31
0.0
  0
LINE
  5
B4
  8
0
  6
CONTINUOUS
 62
     7
 10
148.7907163751
 20
208.3356873662
 30
0.0
 11
67.8907178294
 21
208.3356873662
 31
0.0
  0
LINE
  5
B5
  8
0
  6
CONTINUOUS
 62
     7
 10
148.7907163751
 20
87.2856871755
 30
0.0
 11
148.7907163751
 21
208.3356873662
 31
0.0
  0
LINE
  5
B6
  8
0
  6
CONTINUOUS
 62
     7
 10
67.8907178294
 20
208.3356873662
 30
0.0
 11
67.8907178294
 21
87.2856871755
 31
0.0
  0
DIMENSION
  5
B7
  8
LEVEL0
  2
_D
 10
148.7907171023
 20
127.4647792047
 30
0.0
 11
120.8161985953
 21
127.4647792047
 31
0.0
 70
   160
  1
<>
  3
SLDDIMSTYLE0
 13
67.8907171023
 23
87.2856872709
 33
0.0
 14
148.7907171023
 24
87.2856872709
 34
0.0
 50
0.0
  0
DIMENSION
  5
DA
  8
LEVEL0
  2
_D_1
 10
106.8651450125
 20
87.2856872709
 30
0.0
 11
106.8651450125
 21
161.2509437424
 31
0.0
 70
   160
  1
<>
  3
SLDDIMSTYLE1
 13
67.8907171023
 23
208.3356872709
 33
0.0
 14
67.8907171023
 24
87.2856872709
 34
0.0
 50
90.0
  0
DIMENSION
  5
F6
  8
LEVEL0
  2
_D_2
 10
67.8907171023
 20
91.0772458665
 30
0.0
 11
49.4481540691
 21
91.0772458665
 31
0.0
 70
   160
  1
<>
  3
SLDDIMSTYLE2
 13
59.8907171023
 23
82.7856872709
 33
0.0
 14
67.8907171023
 24
87.2856872709
 34
0.0
  0
DIMENSION
  5
10A
  8
LEVEL0
  2
_D_3
 10
75.4570239182
 20
87.2856872709
 30
0.0
 11
75.4570239182
 21
69.2598917408
 31
0.0
 70
   160
  1
<>
  3
SLDDIMSTYLE2
 13
63.3907171023
 23
79.2856872709
 33
0.0
 14
67.8907171023
 24
87.2856872709
 34
0.0
 50
90.0
  0
DIMENSION
  5
11D
  8
LEVEL0
  2
_D_4
 10
156.7907171023
 20
54.2949714494
 30
0.0
 11
108.1437102123
 21
54.2949714494
 31
0.0
 70
   160
  1
<>
  3
SLDDIMSTYLE2
 13
59.8907171023
 23
75.7856872709
 33
0.0
 14
156.7907171023
 24
75.7856872709
 34
0.0
 50
0.0
  0
DIMENSION
  5
130
  8
LEVEL0
  2
_D_5
 10
35.4556230139
 20
216.3356872709
 30
0.0
 11
35.4556230139
 21
156.1854039426
 31
0.0
 70
   160
  1
<>
  3
SLDDIMSTYLE2
 13
56.3907171023
 23
79.2856872709
 33
0.0
 14
56.3907171023
 24
216.3356872709
 34
0.0
 50
90.0
  0
INSERT
  5
14A
  8
LEVEL0
  2
SW_NOTE_0_1
 10
60.597927549
 20
217.0426903713
 30
0.0
  0
INSERT
  5
156
  8
LEVEL0
  2
SW_CENTERMARKSYMBOL_0
 10
59.8907171023
 20
216.3356872709
 30
0.0
  0
INSERT
  5
162
  8
LEVEL0
  2
SW_CENTERMARKSYMBOL_1
 10
156.7907171023
 20
216.3356872709
 30
0.0
  0
INSERT
  5
16E
  8
LEVEL0
  2
SW_CENTERMARKSYMBOL_2
 10
59.8907171023
 20
79.2856872709
 30
0.0
  0
INSERT
  5
17A
  8
LEVEL0
  2
SW_CENTERMARKSYMBOL_3
 10
156.7907171023
 20
79.2856872709
 30
0.0
  0
ENDSEC
  0
EOF
