  0
SECTION
  2
HEADER
  9
$ACADVER
  1
AC1009
  9
$DWGCODEPAGE
  3
ansi_1252
  9
$INSBASE
 10
0.0
 20
0.0
 30
0.0
  9
$EXTMIN
 10
0.0
 20
0.0
 30
0.0
  9
$EXTMAX
 10
210.0
 20
297.0
 30
0.0
  9
$LIMMIN
 10
0.0
 20
0.0
  9
$LIMMAX
 10
210.0
 20
297.0
  9
$ORTHOMODE
 70
     0
  9
$REGENMODE
 70
     1
  9
$FILLMODE
 70
     1
  9
$QTEXTMODE
 70
     0
  9
$MIRRTEXT
 70
     1
  9
$DRAGMODE
 70
     2
  9
$LTSCALE
 40
1.0
  9
$OSMODE
 70
    37
  9
$ATTMODE
 70
     1
  9
$TEXTSIZE
 40
2.0
  9
$TRACEWID
 40
1.0
  9
$TEXTSTYLE
  7
STANDARD
  9
$CLAYER
  8
0
  9
$CELTYPE
  6
BYLAYER
  9
$CECOLOR
 62
   256
  9
$DIMSCALE
 40
1.0
  9
$DIMASZ
 40
2.0
  9
$DIMEXO
 40
1.0
  9
$DIMDLI
 40
3.75
  9
$DIMRND
 40
0.0
  9
$DIMDLE
 40
0.0
  9
$DIMEXE
 40
1.0
  9
$DIMTP
 40
0.0
  9
$DIMTM
 40
0.0
  9
$DIMTXT
 40
2.0
  9
$DIMCEN
 40
2.5
  9
$DIMTSZ
 40
0.0
  9
$DIMTOL
 70
     0
  9
$DIMLIM
 70
     0
  9
$DIMTIH
 70
     1
  9
$DIMTOH
 70
     1
  9
$DIMSE1
 70
     0
  9
$DIMSE2
 70
     0
  9
$DIMTAD
 70
     1
  9
$DIMZIN
 70
     0
  9
$DIMBLK
  1

  9
$DIMASO
 70
     1
  9
$DIMSHO
 70
     1
  9
$DIMPOST
  1

  9
$DIMAPOST
  1

  9
$DIMALT
 70
     0
  9
$DIMALTD
 70
     3
  9
$DIMALTF
 40
0.0393700787
  9
$DIMLFAC
 40
1.0
  9
$DIMTOFL
 70
     1
  9
$DIMTVP
 40
0.0
  9
$DIMTIX
 70
     0
  9
$DIMSOXD
 70
     0
  9
$DIMSAH
 70
     0
  9
$DIMBLK1
  1

  9
$DIMBLK2
  1

  9
$DIMSTYLE
  2
ISO-25
  9
$DIMCLRD
 70
     0
  9
$DIMCLRE
 70
     0
  9
$DIMCLRT
 70
     0
  9
$DIMTFAC
 40
1.0
  9
$DIMGAP
 40
1.524
  9
$LUNITS
 70
     2
  9
$LUPREC
 70
     2
  9
$SKETCHINC
 40
1.0
  9
$FILLETRAD
 40
10.0
  9
$AUNITS
 70
     0
  9
$AUPREC
 70
     2
  9
$MENU
  1
.
  9
$ELEVATION
 40
0.0
  9
$PELEVATION
 40
0.0
  9
$THICKNESS
 40
0.0
  9
$LIMCHECK
 70
     0
  9
$CHAMFERA
 40
0.0
  9
$CHAMFERB
 40
0.0
  9
$SKPOLY
 70
     0
  9
$TDCREATE
 40
2459367.851112396
  9
$TDUPDATE
 40
2459367.851114606
  9
$TDINDWG
 40
0.0000000116
  9
$TDUSRTIMER
 40
0.0000000116
  9
$USRTIMER
 70
     1
  9
$ANGBASE
 50
0.0
  9
$ANGDIR
 70
     0
  9
$PDMODE
 70
     0
  9
$PDSIZE
 40
-1.0
  9
$PLINEWID
 40
0.0
  9
$COORDS
 70
     1
  9
$SPLFRAME
 70
     0
  9
$SPLINETYPE
 70
     6
  9
$SPLINESEGS
 70
     8
  9
$ATTDIA
 70
     0
  9
$ATTREQ
 70
     1
  9
$HANDLING
 70
     1
  9
$HANDSEED
  5
23F
  9
$SURFTAB1
 70
     6
  9
$SURFTAB2
 70
     6
  9
$SURFTYPE
 70
     6
  9
$SURFU
 70
     6
  9
$SURFV
 70
     6
  9
$UCSNAME
  2

  9
$UCSORG
 10
0.0
 20
0.0
 30
0.0
  9
$UCSXDIR
 10
1.0
 20
0.0
 30
0.0
  9
$UCSYDIR
 10
0.0
 20
1.0
 30
0.0
  9
$PUCSNAME
  2

  9
$PUCSORG
 10
0.0
 20
0.0
 30
0.0
  9
$PUCSXDIR
 10
1.0
 20
0.0
 30
0.0
  9
$PUCSYDIR
 10
0.0
 20
1.0
 30
0.0
  9
$USERI1
 70
     0
  9
$USERI2
 70
     0
  9
$USERI3
 70
     0
  9
$USERI4
 70
     0
  9
$USERI5
 70
     0
  9
$USERR1
 40
0.0
  9
$USERR2
 40
0.0
  9
$USERR3
 40
0.0
  9
$USERR4
 40
0.0
  9
$USERR5
 40
0.0
  9
$WORLDVIEW
 70
     1
  9
$SHADEDGE
 70
     3
  9
$SHADEDIF
 70
    70
  9
$TILEMODE
 70
     1
  9
$MAXACTVP
 70
    64
  9
$PLIMCHECK
 70
     0
  9
$PEXTMIN
 10
1.0000000000E+20
 20
1.0000000000E+20
 30
1.0000000000E+20
  9
$PEXTMAX
 10
-1.0000000000E+20
 20
-1.0000000000E+20
 30
-1.0000000000E+20
  9
$PLIMMIN
 10
0.0
 20
0.0
  9
$PLIMMAX
 10
420.0
 20
297.0
  9
$UNITMODE
 70
     0
  9
$VISRETAIN
 70
     1
  9
$PLINEGEN
 70
     0
  9
$PSLTSCALE
 70
     1
  0
ENDSEC
  0
SECTION
  2
TABLES
  0
TABLE
  2
VPORT
 70
     1
  0
VPORT
  2
*ACTIVE
 70
     0
 10
0.0
 20
0.0
 11
1.0
 21
1.0
 12
105.0
 22
148.5
 13
0.0
 23
0.0
 14
10.0
 24
10.0
 15
10.0
 25
10.0
 16
0.0
 26
0.0
 36
1.0
 17
0.0
 27
0.0
 37
0.0
 40
297.0
 41
0.7070707071
 42
50.0
 43
0.0
 44
0.0
 50
0.0
 51
0.0
 71
     0
 72
  2000
 73
     1
 74
     3
 75
     0
 76
     0
 77
     0
 78
     0
  0
ENDTAB
  0
TABLE
  2
LTYPE
 70
     6
  0
LTYPE
  2
CONTINUOUS
 70
     0
  3
Solid line
 72
    65
 73
     0
 40
0.0
  0
LTYPE
  2
HIDDEN
 70
     0
  3
Hidden __ __ __ __ __ __ __ __ __ __ __ __ __ __
 72
    65
 73
     2
 40
1.905
 49
1.27
 49
-0.635
  0
LTYPE
  2
PHANTOM
 70
     0
  3
Phantom ______  __  __  ______  __  __  ______
 72
    65
 73
     6
 40
12.7
 49
6.35
 49
-1.27
 49
1.27
 49
-1.27
 49
1.27
 49
-1.27
  0
LTYPE
  2
CENTER
 70
     0
  3
Center ____ _ ____ _ ____ _ ____ _ ____ _ ____
 72
    65
 73
     4
 40
10.16
 49
6.35
 49
-1.27
 49
1.27
 49
-1.27
  0
LTYPE
  2
CENTERX2
 70
     0
  3
Center (2x) ________  __  ________  __  _____
 72
    65
 73
     4
 40
20.32
 49
12.7
 49
-2.54
 49
2.54
 49
-2.54
  0
LTYPE
  2
DOT2
 70
     0
  3
Dot (.5x) ........................................
 72
    65
 73
     2
 40
0.635
 49
0.0
 49
-0.635
  0
ENDTAB
  0
TABLE
  2
LAYER
 70
    54
  0
LAYER
  2
0
 70
     0
 62
     7
  6
CONTINUOUS
  0
LAYER
  2
SLD-0
 70
     0
 62
     7
  6
CONTINUOUS
  0
LAYER
  2
LEVEL0
 70
     0
 62
     7
  6
CONTINUOUS
  0
LAYER
  2
1
 70
     0
 62
     7
  6
CONTINUOUS
  0
LAYER
  2
2
 70
     0
 62
     7
  6
CONTINUOUS
  0
LAYER
  2
3
 70
     0
 62
     7
  6
CONTINUOUS
  0
LAYER
  2
4
 70
     0
 62
     7
  6
CONTINUOUS
  0
LAYER
  2
5
 70
     0
 62
     7
  6
CONTINUOUS
  0
LAYER
  2
6
 70
     0
 62
     7
  6
CONTINUOUS
  0
LAYER
  2
7
 70
     0
 62
     7
  6
CONTINUOUS
  0
LAYER
  2
8
 70
     0
 62
     7
  6
CONTINUOUS
  0
LAYER
  2
9
 70
     0
 62
     7
  6
CONTINUOUS
  0
LAYER
  2
10
 70
     0
 62
     7
  6
CONTINUOUS
  0
LAYER
  2
11
 70
     0
 62
     7
  6
CONTINUOUS
  0
LAYER
  2
12
 70
     0
 62
     7
  6
CONTINUOUS
  0
LAYER
  2
13
 70
     0
 62
     7
  6
CONTINUOUS
  0
LAYER
  2
14
 70
     0
 62
     7
  6
CONTINUOUS
  0
LAYER
  2
15
 70
     0
 62
     7
  6
CONTINUOUS
  0
LAYER
  2
16
 70
     0
 62
     7
  6
CONTINUOUS
  0
LAYER
  2
17
 70
     0
 62
     7
  6
CONTINUOUS
  0
LAYER
  2
18
 70
     0
 62
     7
  6
CONTINUOUS
  0
LAYER
  2
19
 70
     0
 62
     7
  6
CONTINUOUS
  0
LAYER
  2
20
 70
     0
 62
     7
  6
CONTINUOUS
  0
LAYER
  2
21
 70
     0
 62
     7
  6
CONTINUOUS
  0
LAYER
  2
22
 70
     0
 62
     7
  6
CONTINUOUS
  0
LAYER
  2
23
 70
     0
 62
     7
  6
CONTINUOUS
  0
LAYER
  2
24
 70
     0
 62
     7
  6
CONTINUOUS
  0
LAYER
  2
25
 70
     0
 62
     7
  6
CONTINUOUS
  0
LAYER
  2
26
 70
     0
 62
     7
  6
CONTINUOUS
  0
LAYER
  2
27
 70
     0
 62
     7
  6
CONTINUOUS
  0
LAYER
  2
28
 70
     0
 62
     7
  6
CONTINUOUS
  0
LAYER
  2
29
 70
     0
 62
     7
  6
CONTINUOUS
  0
LAYER
  2
30
 70
     0
 62
     7
  6
CONTINUOUS
  0
LAYER
  2
31
 70
     0
 62
     7
  6
CONTINUOUS
  0
LAYER
  2
32
 70
     0
 62
     7
  6
CONTINUOUS
  0
LAYER
  2
33
 70
     0
 62
     7
  6
CONTINUOUS
  0
LAYER
  2
34
 70
     0
 62
     7
  6
CONTINUOUS
  0
LAYER
  2
35
 70
     0
 62
     7
  6
CONTINUOUS
  0
LAYER
  2
36
 70
     0
 62
     7
  6
CONTINUOUS
  0
LAYER
  2
37
 70
     0
 62
     7
  6
CONTINUOUS
  0
LAYER
  2
38
 70
     0
 62
     7
  6
CONTINUOUS
  0
LAYER
  2
39
 70
     0
 62
     7
  6
CONTINUOUS
  0
LAYER
  2
40
 70
     0
 62
     7
  6
CONTINUOUS
  0
LAYER
  2
41
 70
     0
 62
     7
  6
CONTINUOUS
  0
LAYER
  2
42
 70
     0
 62
     7
  6
CONTINUOUS
  0
LAYER
  2
43
 70
     0
 62
     7
  6
CONTINUOUS
  0
LAYER
  2
44
 70
     0
 62
     7
  6
CONTINUOUS
  0
LAYER
  2
45
 70
     0
 62
     7
  6
CONTINUOUS
  0
LAYER
  2
46
 70
     0
 62
     7
  6
CONTINUOUS
  0
LAYER
  2
47
 70
     0
 62
     7
  6
CONTINUOUS
  0
LAYER
  2
48
 70
     0
 62
     7
  6
CONTINUOUS
  0
LAYER
  2
49
 70
     0
 62
     7
  6
CONTINUOUS
  0
LAYER
  2
50
 70
     0
 62
     7
  6
CONTINUOUS
  0
LAYER
  2
FORMAT
 70
     0
 62
     7
  6
CONTINUOUS
  0
ENDTAB
  0
TABLE
  2
STYLE
 70
     1
  0
STYLE
  2
STANDARD
 70
     0
 40
0.0
 41
1.0
 50
0.0
 71
     0
 42
2.0
  3
txt
  4

  0
ENDTAB
  0
TABLE
  2
VIEW
 70
     0
  0
ENDTAB
  0
TABLE
  2
UCS
 70
     0
  0
ENDTAB
  0
TABLE
  2
APPID
 70
     1
  0
APPID
  2
ACAD
 70
     0
  0
ENDTAB
  0
TABLE
  2
DIMSTYLE
 70
     5
  0
DIMSTYLE
  2
ISO-25
 70
     0
  3

  4

  5

  6

  7

 40
1.0
 41
2.5
 42
0.625
 43
3.75
 44
1.25
 45
0.0
 46
0.0
 47
0.0
 48
0.0
140
2.5
141
2.5
142
0.0
143
0.0393700787
144
1.0
145
0.0
146
1.0
147
0.625
 71
     0
 72
     0
 73
     0
 74
     0
 75
     0
 76
     0
 77
     1
 78
     8
170
     0
171
     3
172
     1
173
     0
174
     0
175
     0
176
     0
177
     0
178
     0
  0
DIMSTYLE
  2
SLDDIMSTYLE0
 70
     0
  3

  4

  5

  6
CLOSED
  7
CLOSED
 40
1.0
 41
2.0
 42
0.0625
 43
0.38
 44
0.0
 45
0.000000001
 46
0.0
 47
0.0
 48
0.0
140
2.0
141
0.09
142
0.0
143
0.0393700787
144
1.0
145
0.0
146
1.0
147
0.5
 71
     0
 72
     0
 73
     0
 74
     0
 75
     0
 76
     0
 77
     1
 78
    12
170
     1
171
     2
172
     0
173
     1
174
     0
175
     0
176
     0
177
     0
178
     0
  0
DIMSTYLE
  2
SLDDIMSTYLE1
 70
     0
  3

  4

  5

  6
CLOSED
  7
CLOSED
 40
1.0
 41
2.0
 42
0.0625
 43
0.38
 44
0.0
 45
0.000000001
 46
0.0
 47
0.3
 48
0.1
140
2.0
141
0.09
142
0.0
143
0.0393700787
144
1.0
145
0.0
146
1.0
147
0.5
 71
     1
 72
     0
 73
     0
 74
     0
 75
     0
 76
     0
 77
     1
 78
    12
170
     1
171
     3
172
     0
173
     1
174
     0
175
     0
176
     0
177
     0
178
     0
  0
DIMSTYLE
  2
SLDDIMSTYLE2
 70
     0
  3

  4

  5

  6
CLOSED
  7
CLOSED
 40
1.0
 41
2.0
 42
0.0625
 43
0.38
 44
0.0
 45
0.000000001
 46
0.0
 47
0.0
 48
0.0
140
2.0
141
0.09
142
0.0
143
0.0393700787
144
1.0
145
0.0
146
1.0
147
0.5
 71
     0
 72
     0
 73
     0
 74
     0
 75
     0
 76
     0
 77
     1
 78
    12
170
     1
171
     2
172
     0
173
     1
174
     0
175
     0
176
     0
177
     0
178
     0
  0
DIMSTYLE
  2
SLDDIMSTYLE3
 70
     0
  3

  4

  5

  6
CLOSED
  7
CLOSED
 40
1.0
 41
2.0
 42
0.0625
 43
0.38
 44
0.0
 45
0.000000001
 46
0.0
 47
0.0
 48
0.0
140
2.0
141
0.09
142
0.0
143
0.0393700787
144
1.0
145
0.0
146
1.0
147
0.5
 71
     0
 72
     0
 73
     0
 74
     0
 75
     0
 76
     0
 77
     1
 78
     4
170
     1
171
     2
172
     0
173
     1
174
     0
175
     0
176
     0
177
     0
178
     0
  0
ENDTAB
  0
ENDSEC
  0
SECTION
  2
BLOCKS
  0
BLOCK
  8
0
  2
$MODEL_SPACE
 70
     0
 10
0.0
 20
0.0
 30
0.0
  3
$MODEL_SPACE
  1

  0
ENDBLK
  5
21
  8
0
  0
BLOCK
 67
     1
  8
0
  2
$PAPER_SPACE
 70
     0
 10
0.0
 20
0.0
 30
0.0
  3
$PAPER_SPACE
  1

  0
ENDBLK
  5
1D
 67
     1
  8
0
  0
BLOCK
  8
0
  2
_CLOSED
 70
     0
 10
0.0
 20
0.0
 30
0.0
  3
_CLOSED
  1

  0
LINE
  5
CB
  8
0
  6
BYBLOCK
 62
     0
 10
-1.0
 20
0.166667
 30
0.0
 11
0.0
 21
0.0
 31
0.0
  0
LINE
  5
CC
  8
0
  6
BYBLOCK
 62
     0
 10
0.0
 20
0.0
 30
0.0
 11
-1.0
 21
-0.166667
 31
0.0
  0
LINE
  5
CD
  8
0
  6
BYBLOCK
 62
     0
 10
-1.0
 20
0.166667
 30
0.0
 11
-1.0
 21
-0.166667
 31
0.0
  0
LINE
  5
CE
  8
0
  6
BYBLOCK
 62
     0
 10
0.0
 20
0.0
 30
0.0
 11
-1.0
 21
0.0
 31
0.0
  0
ENDBLK
  5
CA
  8
0
  0
BLOCK
  8
0
  2
_D
 70
     0
 10
0.0
 20
0.0
 30
0.0
  3
_D
  1

  0
INSERT
  5
D2
  8
LEVEL0
  2
_CLOSED
 10
53.4686146674
 20
29.386843723
 30
-1.3049875
 41
2.0
 42
2.0
 50
180.0
  0
INSERT
  5
D3
  8
LEVEL0
  2
_CLOSED
 10
361.6059426414
 20
29.386843723
 30
-1.3049875
 41
2.0
 42
2.0
 50
0.0
  0
LINE
  5
D4
  8
LEVEL0
 10
212.602339228
 20
35.5542047701
 30
0.0
 11
211.9929642155
 21
35.5542047701
 31
0.0
  0
LINE
  5
D5
  8
LEVEL0
 10
211.9929642155
 20
35.5542047701
 30
0.0
 11
211.9929642155
 21
32.3792048085
 31
0.0
  0
LINE
  5
D6
  8
LEVEL0
 10
211.9929642155
 20
32.3792048085
 30
0.0
 11
212.602339228
 21
32.3792048085
 31
0.0
  0
LINE
  5
D7
  8
LEVEL0
 10
219.2523391073
 20
35.5542047701
 30
0.0
 11
219.8617141199
 21
35.5542047701
 31
0.0
  0
LINE
  5
D8
  8
LEVEL0
 10
219.8617141199
 20
35.5542047701
 30
0.0
 11
219.8617141199
 21
32.3792048085
 31
0.0
  0
LINE
  5
D9
  8
LEVEL0
 10
219.8617141199
 20
32.3792048085
 30
0.0
 11
219.2523391073
 21
32.3792048085
 31
0.0
  0
LINE
  5
DA
  8
LEVEL0
 10
53.4686146674
 20
34.8955494812
 30
0.0
 11
53.4686146674
 21
28.386843723
 31
0.0
  0
LINE
  5
DB
  8
LEVEL0
 10
361.6059426414
 20
34.8955494812
 30
0.0
 11
361.6059426414
 21
28.386843723
 31
0.0
  0
LINE
  5
DC
  8
LEVEL0
 10
53.4686146674
 20
29.386843723
 30
0.0
 11
361.6059426414
 21
29.386843723
 31
0.0
  0
TEXT
  5
DD
  8
LEVEL0
 10
209.9058114778
 20
30.4519348404
 30
-1.3049875
 40
2.0
  1
  
 41
0.7
 11
209.9058114778
 21
29.4173992525
 31
-1.3049875
 73
     1
  0
TEXT
  5
DE
  8
LEVEL0
 10
212.602339228
 20
33.4137403963
 30
-1.3049875
 40
2.0
  1
12.13
 41
0.7
 11
212.602339228
 21
32.3792048085
 31
-1.3049875
 73
     1
  0
TEXT
  5
DF
  8
LEVEL0
 10
212.6023393445
 20
30.421379078
 30
-1.3049875
 40
2.0
  1
308.1
 41
0.7
 11
212.6023393445
 21
29.3868434901
 31
-1.3049875
 73
     1
  0
TEXT
  5
E0
  8
LEVEL0
 10
220.4710895981
 20
30.4519348404
 30
-1.3049875
 40
2.0
  1
  
 41
0.7
 11
220.4710895981
 21
29.4173992525
 31
-1.3049875
 73
     1
  0
ENDBLK
  5
D1
  8
0
  0
BLOCK
  8
0
  2
_D_1
 70
     0
 10
0.0
 20
0.0
 30
0.0
  3
_D_1
  1

  0
INSERT
  5
E5
  8
LEVEL0
  2
_CLOSED
 10
25.999439478
 20
234.9155499803
 30
-1.3049875
 41
2.0
 42
2.0
 50
90.0
  0
INSERT
  5
E6
  8
LEVEL0
  2
_CLOSED
 10
25.999439478
 20
39.3955494812
 30
-1.3049875
 41
2.0
 42
2.0
 50
270.0
  0
LINE
  5
E7
  8
LEVEL0
 10
19.8320784308
 20
150.9288001727
 30
0.0
 11
19.8320784308
 21
150.3194251601
 31
0.0
  0
LINE
  5
E8
  8
LEVEL0
 10
19.8320784308
 20
150.3194251601
 30
0.0
 11
23.0070783925
 21
150.3194251601
 31
0.0
  0
LINE
  5
E9
  8
LEVEL0
 10
23.0070783925
 20
150.3194251601
 30
0.0
 11
23.0070783925
 21
150.9288001727
 31
0.0
  0
LINE
  5
EA
  8
LEVEL0
 10
19.8320784308
 20
156.1010220941
 30
0.0
 11
19.8320784308
 21
156.7103971066
 31
0.0
  0
LINE
  5
EB
  8
LEVEL0
 10
19.8320784308
 20
156.7103971066
 30
0.0
 11
23.0070783925
 21
156.7103971066
 31
0.0
  0
LINE
  5
EC
  8
LEVEL0
 10
23.0070783925
 20
156.7103971066
 30
0.0
 11
23.0070783925
 21
156.1010220941
 31
0.0
  0
LINE
  5
ED
  8
LEVEL0
 10
48.9686146674
 20
234.9155499803
 30
0.0
 11
24.999439478
 21
234.9155499803
 31
0.0
  0
LINE
  5
EE
  8
LEVEL0
 10
48.9686146674
 20
39.3955494812
 30
0.0
 11
24.999439478
 21
39.3955494812
 31
0.0
  0
LINE
  5
EF
  8
LEVEL0
 10
25.999439478
 20
234.9155499803
 30
0.0
 11
25.999439478
 21
39.3955494812
 31
0.0
  0
TEXT
  5
F0
  8
LEVEL0
 10
24.9343483605
 20
148.2322724224
 30
-1.3049875
 40
2.0
  1
  
 50
90.0
 41
0.7
 11
25.9688839484
 21
148.2322724224
 31
-1.3049875
 73
     1
  0
TEXT
  5
F1
  8
LEVEL0
 10
21.9725428046
 20
150.9288001727
 30
-1.3049875
 40
2.0
  1
7.70
 50
90.0
 41
0.7
 11
23.0070783925
 21
150.9288001727
 31
-1.3049875
 73
     1
  0
TEXT
  5
F2
  8
LEVEL0
 10
24.9649041229
 20
150.1899113101
 30
-1.3049875
 40
2.0
  1
195.5
 50
90.0
 41
0.7
 11
25.9994397108
 21
150.1899113101
 31
-1.3049875
 73
     1
  0
TEXT
  5
F3
  8
LEVEL0
 10
24.9343483605
 20
157.3197725849
 30
-1.3049875
 40
2.0
  1
  
 50
90.0
 41
0.7
 11
25.9688839484
 21
157.3197725849
 31
-1.3049875
 73
     1
  0
ENDBLK
  5
E4
  8
0
  0
BLOCK
  8
0
  2
_D_2
 70
     0
 10
0.0
 20
0.0
 30
0.0
  3
_D_2
  1

  0
INSERT
  5
F8
  8
LEVEL0
  2
_CLOSED
 10
42.3854634856
 20
145.9547818879
 30
-1.3049875
 41
2.0
 42
2.0
 50
90.0
  0
INSERT
  5
F9
  8
LEVEL0
  2
_CLOSED
 10
42.3854634856
 20
46.8955494812
 30
-1.3049875
 41
2.0
 42
2.0
 50
270.0
  0
LINE
  5
FA
  8
LEVEL0
 10
36.2181024384
 20
97.4310781494
 30
0.0
 11
36.2181024384
 21
96.8217031368
 31
0.0
  0
LINE
  5
FB
  8
LEVEL0
 10
36.2181024384
 20
96.8217031368
 30
0.0
 11
39.3931024001
 21
96.8217031368
 31
0.0
  0
LINE
  5
FC
  8
LEVEL0
 10
39.3931024001
 20
96.8217031368
 30
0.0
 11
39.3931024001
 21
97.4310781494
 31
0.0
  0
LINE
  5
FD
  8
LEVEL0
 10
36.2181024384
 20
102.6033000708
 30
0.0
 11
36.2181024384
 21
103.2126750833
 31
0.0
  0
LINE
  5
FE
  8
LEVEL0
 10
36.2181024384
 20
103.2126750833
 30
0.0
 11
39.3931024001
 21
103.2126750833
 31
0.0
  0
LINE
  5
FF
  8
LEVEL0
 10
39.3931024001
 20
103.2126750833
 30
0.0
 11
39.3931024001
 21
102.6033000708
 31
0.0
  0
LINE
  5
100
  8
LEVEL0
 10
67.4686146674
 20
145.9547818879
 30
0.0
 11
41.3854634856
 21
145.9547818879
 31
0.0
  0
LINE
  5
101
  8
LEVEL0
 10
67.4686146674
 20
46.8955494812
 30
0.0
 11
41.3854634856
 21
46.8955494812
 31
0.0
  0
LINE
  5
102
  8
LEVEL0
 10
42.3854634856
 20
145.9547818879
 30
0.0
 11
42.3854634856
 21
46.8955494812
 31
0.0
  0
TEXT
  5
103
  8
LEVEL0
 10
41.3203723682
 20
94.7345503992
 30
-1.3049875
 40
2.0
  1
  
 50
90.0
 41
0.7
 11
42.354907956
 21
94.7345503992
 31
-1.3049875
 73
     1
  0
TEXT
  5
104
  8
LEVEL0
 10
38.3585668122
 20
97.4310781494
 30
-1.3049875
 40
2.0
  1
3.90
 50
90.0
 41
0.7
 11
39.3931024001
 21
97.4310781494
 31
-1.3049875
 73
     1
  0
TEXT
  5
105
  8
LEVEL0
 10
41.3509281305
 20
97.4310782658
 30
-1.3049875
 40
2.0
  1
99.1
 50
90.0
 41
0.7
 11
42.3854637184
 21
97.4310782658
 31
-1.3049875
 73
     1
  0
TEXT
  5
106
  8
LEVEL0
 10
41.3203723682
 20
103.8220505616
 30
-1.3049875
 40
2.0
  1
  
 50
90.0
 41
0.7
 11
42.354907956
 21
103.8220505616
 31
-1.3049875
 73
     1
  0
ENDBLK
  5
F7
  8
0
  0
BLOCK
  8
0
  2
_D_3
 70
     0
 10
0.0
 20
0.0
 30
0.0
  3
_D_3
  1

  0
INSERT
  5
10B
  8
LEVEL0
  2
_CLOSED
 10
82.7217239457
 20
145.9547818879
 30
-1.3049875
 41
2.0
 42
2.0
 50
90.0
  0
INSERT
  5
10C
  8
LEVEL0
  2
_CLOSED
 10
82.7217239457
 20
128.2581441501
 30
-1.3049875
 41
2.0
 42
2.0
 50
270.0
  0
LINE
  5
10D
  8
LEVEL0
 10
70.204363441
 20
178.5901628478
 30
0.0
 11
70.204363441
 21
177.9807878352
 31
0.0
  0
LINE
  5
10E
  8
LEVEL0
 10
70.204363441
 20
177.9807878352
 30
0.0
 11
73.3793634026
 21
177.9807878352
 31
0.0
  0
LINE
  5
10F
  8
LEVEL0
 10
73.3793634026
 20
177.9807878352
 30
0.0
 11
73.3793634026
 21
178.5901628478
 31
0.0
  0
LINE
  5
110
  8
LEVEL0
 10
70.204363441
 20
183.7623847692
 30
0.0
 11
70.204363441
 21
184.3717597818
 31
0.0
  0
LINE
  5
111
  8
LEVEL0
 10
70.204363441
 20
184.3717597818
 30
0.0
 11
73.3793634026
 21
184.3717597818
 31
0.0
  0
LINE
  5
112
  8
LEVEL0
 10
73.3793634026
 20
184.3717597818
 30
0.0
 11
73.3793634026
 21
183.7623847692
 31
0.0
  0
LINE
  5
113
  8
LEVEL0
 10
82.7217239457
 20
145.9547818879
 30
0.0
 11
82.7217239457
 21
196.4582184606
 31
0.0
  0
LINE
  5
114
  8
LEVEL0
 10
82.7217239457
 20
145.9547818879
 30
0.0
 11
82.7217239457
 21
128.2581441501
 31
0.0
  0
TEXT
  5
115
  8
LEVEL0
 10
72.3448278147
 20
178.5901628478
 30
-1.3049875
 40
2.0
  1
0.70
 50
90.0
 41
0.7
 11
73.3793634026
 21
178.5901628478
 31
-1.3049875
 73
     1
  0
TEXT
  5
116
  8
LEVEL0
 10
75.3371891331
 20
178.5901629642
 30
-1.3049875
 40
2.0
  1
17.7
 50
90.0
 41
0.7
 11
76.3717247209
 21
178.5901629642
 31
-1.3049875
 73
     1
  0
TEXT
  5
117
  8
LEVEL0
 10
78.5121888619
 20
165.8943293892
 30
-1.3049875
 40
2.0
  1
ROUTE TO DEPTH 1.2mm
 50
90.0
 41
0.6475
 11
79.5467244497
 21
165.8943293892
 31
-1.3049875
 73
     1
  0
TEXT
  5
118
  8
LEVEL0
 10
81.6871888235
 20
168.041551327
 30
-1.3049875
 40
2.0
  1
OFF FRONT SURFACE
 50
90.0
 41
0.6588235294
 11
82.7217244114
 21
168.041551327
 31
-1.3049875
 73
     1
  0
ENDBLK
  5
10A
  8
0
  0
BLOCK
  8
0
  2
_D_4
 70
     0
 10
0.0
 20
0.0
 30
0.0
  3
_D_4
  1

  0
INSERT
  5
11E
  8
LEVEL0
  2
_CLOSED
 10
160.8240481185
 20
226.9155499803
 30
-1.3049875
 41
2.0
 42
2.0
 50
90.0
  0
INSERT
  5
11F
  8
LEVEL0
  2
_CLOSED
 10
160.8240481185
 20
47.3955494812
 30
-1.3049875
 41
2.0
 42
2.0
 50
270.0
  0
LINE
  5
120
  8
LEVEL0
 10
146.8983537236
 20
127.4006179455
 30
0.0
 11
146.8983537236
 21
126.791242933
 31
0.0
  0
LINE
  5
121
  8
LEVEL0
 10
146.8983537236
 20
126.791242933
 30
0.0
 11
152.0705761107
 21
126.791242933
 31
0.0
  0
LINE
  5
122
  8
LEVEL0
 10
152.0705761107
 20
126.791242933
 30
0.0
 11
152.0705761107
 21
127.4006179455
 31
0.0
  0
LINE
  5
123
  8
LEVEL0
 10
146.8983537236
 20
143.0561727766
 30
0.0
 11
146.8983537236
 21
143.6655477891
 31
0.0
  0
LINE
  5
124
  8
LEVEL0
 10
146.8983537236
 20
143.6655477891
 30
0.0
 11
152.0705761107
 21
143.6655477891
 31
0.0
  0
LINE
  5
125
  8
LEVEL0
 10
152.0705761107
 20
143.6655477891
 30
0.0
 11
152.0705761107
 21
143.0561727766
 31
0.0
  0
LINE
  5
126
  8
LEVEL0
 10
160.8240481185
 20
226.9155499803
 30
0.0
 11
160.8240481185
 21
47.3955494812
 31
0.0
  0
TEXT
  5
127
  8
LEVEL0
 10
151.0054849933
 20
127.4006179455
 30
-1.3049875
 40
2.0
  1
7.068
 50
90.0
 41
0.7
 11
152.0400205812
 21
127.4006179455
 31
-1.3049875
 73
     1
  0
TEXT
  5
128
  8
LEVEL0
 10
151.0054849933
 20
134.0506178248
 30
-1.3049875
 40
2.0
  1
 
 50
90.0
 41
0.7
 11
152.0400205812
 21
134.0506178248
 31
-1.3049875
 73
     1
  0
TEXT
  5
129
  8
LEVEL0
 10
148.4499293293
 20
134.7895068038
 30
-1.3049875
 40
2.0
  1
+
 50
90.0
 41
0.7
 11
149.4844649172
 21
134.7895068038
 31
-1.3049875
 73
     1
  0
TEXT
  5
12A
  8
LEVEL0
 10
151.0360405228
 20
135.1547845852
 30
-1.3049875
 40
2.0
  1
-
 50
90.0
 41
0.7
 11
152.0705761107
 21
135.1547845852
 31
-1.3049875
 73
     1
  0
TEXT
  5
12B
  8
LEVEL0
 10
148.4499293293
 20
136.4061728973
 30
-1.3049875
 40
2.0
  1
0.012
 50
90.0
 41
0.7
 11
149.4844649172
 21
136.4061728973
 31
-1.3049875
 73
     1
  0
TEXT
  5
12C
  8
LEVEL0
 10
151.0360405228
 20
136.4061728973
 30
-1.3049875
 40
2.0
  1
0.004
 50
90.0
 41
0.7
 11
152.0705761107
 21
136.4061728973
 31
-1.3049875
 73
     1
  0
TEXT
  5
12D
  8
LEVEL0
 10
156.6145132675
 20
128.8783955542
 30
-1.3049875
 40
2.0
  1
179.5
 50
90.0
 41
0.7
 11
157.6490488554
 21
128.8783955542
 31
-1.3049875
 73
     1
  0
TEXT
  5
12E
  8
LEVEL0
 10
156.6145132675
 20
135.5283954335
 30
-1.3049875
 40
2.0
  1
 
 50
90.0
 41
0.7
 11
157.6490488554
 21
135.5283954335
 31
-1.3049875
 73
     1
  0
TEXT
  5
12F
  8
LEVEL0
 10
154.0284020739
 20
136.2672844125
 30
-1.3049875
 40
2.0
  1
+
 50
90.0
 41
0.7
 11
155.0629376618
 21
136.2672844125
 31
-1.3049875
 73
     1
  0
TEXT
  5
130
  8
LEVEL0
 10
156.6145132675
 20
136.6325621938
 30
-1.3049875
 40
2.0
  1
-
 50
90.0
 41
0.7
 11
157.6490488554
 21
136.6325621938
 31
-1.3049875
 73
     1
  0
TEXT
  5
131
  8
LEVEL0
 10
154.0284020739
 20
137.8839505059
 30
-1.3049875
 40
2.0
  1
0.3
 50
90.0
 41
0.7
 11
155.0629376618
 21
137.8839505059
 31
-1.3049875
 73
     1
  0
TEXT
  5
132
  8
LEVEL0
 10
156.6145132675
 20
137.8839505059
 30
-1.3049875
 40
2.0
  1
0.1
 50
90.0
 41
0.7
 11
157.6490488554
 21
137.8839505059
 31
-1.3049875
 73
     1
  0
TEXT
  5
133
  8
LEVEL0
 10
159.7895127634
 20
127.5714510275
 30
-1.3049875
 40
2.0
  1
ROUTE THRU
 50
90.0
 41
0.7
 11
160.8240483513
 21
127.5714510275
 31
-1.3049875
 73
     1
  0
ENDBLK
  5
11D
  8
0
  0
BLOCK
  8
0
  2
_D_5
 70
     0
 10
0.0
 20
0.0
 30
0.0
  3
_D_5
  1

  0
INSERT
  5
138
  8
LEVEL0
  2
_CLOSED
 10
104.9686146674
 20
172.7180408214
 30
-1.3049875
 41
2.0
 42
2.0
 50
180.0
  0
INSERT
  5
139
  8
LEVEL0
  2
_CLOSED
 10
353.6059426414
 20
172.7180408214
 30
-1.3049875
 41
2.0
 42
2.0
 50
0.0
  0
LINE
  5
13A
  8
LEVEL0
 10
249.4215199463
 20
186.6437352162
 30
0.0
 11
248.8121449337
 21
186.6437352162
 31
0.0
  0
LINE
  5
13B
  8
LEVEL0
 10
248.8121449337
 20
186.6437352162
 30
0.0
 11
248.8121449337
 21
181.4715128292
 31
0.0
  0
LINE
  5
13C
  8
LEVEL0
 10
248.8121449337
 20
181.4715128292
 30
0.0
 11
249.4215199463
 21
181.4715128292
 31
0.0
  0
LINE
  5
13D
  8
LEVEL0
 10
265.0770747773
 20
186.6437352162
 30
0.0
 11
265.6864497899
 21
186.6437352162
 31
0.0
  0
LINE
  5
13E
  8
LEVEL0
 10
265.6864497899
 20
186.6437352162
 30
0.0
 11
265.6864497899
 21
181.4715128292
 31
0.0
  0
LINE
  5
13F
  8
LEVEL0
 10
265.6864497899
 20
181.4715128292
 30
0.0
 11
265.0770747773
 21
181.4715128292
 31
0.0
  0
LINE
  5
140
  8
LEVEL0
 10
104.9686146674
 20
172.7180408214
 30
0.0
 11
353.6059426414
 21
172.7180408214
 31
0.0
  0
TEXT
  5
141
  8
LEVEL0
 10
249.4215199463
 20
182.5366039466
 30
-1.3049875
 40
2.0
  1
9.789
 50
360.0
 41
0.7
 11
249.4215199463
 21
181.5020683587
 31
-1.3049875
 73
     1
  0
TEXT
  5
142
  8
LEVEL0
 10
256.0715198256
 20
182.5366039466
 30
-1.3049875
 40
2.0
  1
 
 50
360.0
 41
0.7
 11
256.0715198256
 21
181.5020683587
 31
-1.3049875
 73
     1
  0
TEXT
  5
143
  8
LEVEL0
 10
256.8104088046
 20
185.0921596106
 30
-1.3049875
 40
2.0
  1
+
 50
360.0
 41
0.7
 11
256.8104088046
 21
184.0576240227
 31
-1.3049875
 73
     1
  0
TEXT
  5
144
  8
LEVEL0
 10
257.175686586
 20
182.5060484171
 30
-1.3049875
 40
2.0
  1
-
 50
360.0
 41
0.7
 11
257.175686586
 21
181.4715128292
 31
-1.3049875
 73
     1
  0
TEXT
  5
145
  8
LEVEL0
 10
258.427074898
 20
185.0921596106
 30
-1.3049875
 40
2.0
  1
0.012
 50
360.0
 41
0.7
 11
258.427074898
 21
184.0576240227
 31
-1.3049875
 73
     1
  0
TEXT
  5
146
  8
LEVEL0
 10
258.427074898
 20
182.5060484171
 30
-1.3049875
 40
2.0
  1
0.004
 50
360.0
 41
0.7
 11
258.427074898
 21
181.4715128292
 31
-1.3049875
 73
     1
  0
TEXT
  5
147
  8
LEVEL0
 10
250.899297555
 20
176.9275756724
 30
-1.3049875
 40
2.0
  1
248.6
 50
360.0
 41
0.7
 11
250.899297555
 21
175.8930400845
 31
-1.3049875
 73
     1
  0
TEXT
  5
148
  8
LEVEL0
 10
257.5492974343
 20
176.9275756724
 30
-1.3049875
 40
2.0
  1
 
 50
360.0
 41
0.7
 11
257.5492974343
 21
175.8930400845
 31
-1.3049875
 73
     1
  0
TEXT
  5
149
  8
LEVEL0
 10
258.2881864132
 20
179.5136868659
 30
-1.3049875
 40
2.0
  1
+
 50
360.0
 41
0.7
 11
258.2881864132
 21
178.479151278
 31
-1.3049875
 73
     1
  0
TEXT
  5
14A
  8
LEVEL0
 10
258.6534641946
 20
176.9275756724
 30
-1.3049875
 40
2.0
  1
-
 50
360.0
 41
0.7
 11
258.6534641946
 21
175.8930400845
 31
-1.3049875
 73
     1
  0
TEXT
  5
14B
  8
LEVEL0
 10
259.9048525067
 20
179.5136868659
 30
-1.3049875
 40
2.0
  1
0.3
 50
360.0
 41
0.7
 11
259.9048525067
 21
178.479151278
 31
-1.3049875
 73
     1
  0
TEXT
  5
14C
  8
LEVEL0
 10
259.9048525067
 20
176.9275756724
 30
-1.3049875
 40
2.0
  1
0.1
 50
360.0
 41
0.7
 11
259.9048525067
 21
175.8930400845
 31
-1.3049875
 73
     1
  0
TEXT
  5
14D
  8
LEVEL0
 10
249.5923530283
 20
173.7525761764
 30
-1.3049875
 40
2.0
  1
ROUTE THRU
 50
360.0
 41
0.7
 11
249.5923530283
 21
172.7180405885
 31
-1.3049875
 73
     1
  0
ENDBLK
  5
137
  8
0
  0
BLOCK
  8
0
  2
_D_6
 70
     0
 10
0.0
 20
0.0
 30
0.0
  3
_D_6
  1

  0
INSERT
  5
153
  8
LEVEL0
  2
_CLOSED
 10
103.5843320294
 20
234.9155499803
 30
-1.3049875
 41
2.0
 42
2.0
 50
90.0
  0
INSERT
  5
154
  8
LEVEL0
  2
_CLOSED
 10
103.5843320294
 20
226.9155499803
 30
-1.3049875
 41
2.0
 42
2.0
 50
270.0
  0
LINE
  5
155
  8
LEVEL0
 10
97.4169709823
 20
246.5867513586
 30
0.0
 11
97.4169709823
 21
245.977376346
 31
0.0
  0
LINE
  5
156
  8
LEVEL0
 10
97.4169709823
 20
245.977376346
 30
0.0
 11
100.5919709439
 21
245.977376346
 31
0.0
  0
LINE
  5
157
  8
LEVEL0
 10
100.5919709439
 20
245.977376346
 30
0.0
 11
100.5919709439
 21
246.5867513586
 31
0.0
  0
LINE
  5
158
  8
LEVEL0
 10
97.4169709823
 20
251.75897328
 30
0.0
 11
97.4169709823
 21
252.3683482926
 31
0.0
  0
LINE
  5
159
  8
LEVEL0
 10
97.4169709823
 20
252.3683482926
 30
0.0
 11
100.5919709439
 21
252.3683482926
 31
0.0
  0
LINE
  5
15A
  8
LEVEL0
 10
100.5919709439
 20
252.3683482926
 30
0.0
 11
100.5919709439
 21
251.75897328
 31
0.0
  0
LINE
  5
15B
  8
LEVEL0
 10
57.9686146674
 20
234.9155499803
 30
0.0
 11
104.5843320294
 21
234.9155499803
 31
0.0
  0
LINE
  5
15C
  8
LEVEL0
 10
120.4630104551
 20
226.9155499803
 30
0.0
 11
102.5843320294
 21
226.9155499803
 31
0.0
  0
LINE
  5
15D
  8
LEVEL0
 10
103.5843320294
 20
234.9155499803
 30
0.0
 11
103.5843320294
 21
254.4555017287
 31
0.0
  0
LINE
  5
15E
  8
LEVEL0
 10
103.5843320294
 20
234.9155499803
 30
0.0
 11
103.5843320294
 21
226.9155499803
 31
0.0
  0
TEXT
  5
15F
  8
LEVEL0
 10
102.519240912
 20
243.8902236084
 30
-1.3049875
 40
2.0
  1
  
 50
90.0
 41
0.7
 11
103.5537764999
 21
243.8902236084
 31
-1.3049875
 73
     1
  0
TEXT
  5
160
  8
LEVEL0
 10
99.5574353561
 20
246.5867513586
 30
-1.3049875
 40
2.0
  1
0.31
 50
90.0
 41
0.7
 11
100.5919709439
 21
246.5867513586
 31
-1.3049875
 73
     1
  0
TEXT
  5
161
  8
LEVEL0
 10
102.5497966744
 20
248.4339735732
 30
-1.3049875
 40
2.0
  1
8
 50
90.0
 41
0.7
 11
103.5843322623
 21
248.4339735732
 31
-1.3049875
 73
     1
  0
TEXT
  5
162
  8
LEVEL0
 10
102.519240912
 20
252.9777237708
 30
-1.3049875
 40
2.0
  1
  
 50
90.0
 41
0.7
 11
103.5537764999
 21
252.9777237708
 31
-1.3049875
 73
     1
  0
ENDBLK
  5
152
  8
0
  0
BLOCK
  8
0
  2
_D_7
 70
     0
 10
0.0
 20
0.0
 30
0.0
  3
_D_7
  1

  0
INSERT
  5
167
  8
LEVEL0
  2
_CLOSED
 10
361.6059426414
 20
54.4157438352
 30
-1.3049875
 41
2.0
 42
2.0
 50
0.0
  0
INSERT
  5
168
  8
LEVEL0
  2
_CLOSED
 10
353.6059426414
 20
54.4157438352
 30
-1.3049875
 41
2.0
 42
2.0
 50
180.0
  0
LINE
  5
169
  8
LEVEL0
 10
372.1698662271
 20
60.5831048823
 30
0.0
 11
371.5604912145
 21
60.5831048823
 31
0.0
  0
LINE
  5
16A
  8
LEVEL0
 10
371.5604912145
 20
60.5831048823
 30
0.0
 11
371.5604912145
 21
57.4081049207
 31
0.0
  0
LINE
  5
16B
  8
LEVEL0
 10
371.5604912145
 20
57.4081049207
 30
0.0
 11
372.1698662271
 21
57.4081049207
 31
0.0
  0
LINE
  5
16C
  8
LEVEL0
 10
377.3420881484
 20
60.5831048823
 30
0.0
 11
377.951463161
 21
60.5831048823
 31
0.0
  0
LINE
  5
16D
  8
LEVEL0
 10
377.951463161
 20
60.5831048823
 30
0.0
 11
377.951463161
 21
57.4081049207
 31
0.0
  0
LINE
  5
16E
  8
LEVEL0
 10
377.951463161
 20
57.4081049207
 30
0.0
 11
377.3420881484
 21
57.4081049207
 31
0.0
  0
LINE
  5
16F
  8
LEVEL0
 10
361.6059426414
 20
43.8955494812
 30
0.0
 11
361.6059426414
 21
55.4157438352
 31
0.0
  0
LINE
  5
170
  8
LEVEL0
 10
353.6059426414
 20
63.7133740598
 30
0.0
 11
353.6059426414
 21
53.4157438352
 31
0.0
  0
LINE
  5
171
  8
LEVEL0
 10
361.6059426414
 20
54.4157438352
 30
0.0
 11
380.0386165972
 21
54.4157438352
 31
0.0
  0
LINE
  5
172
  8
LEVEL0
 10
361.6059426414
 20
54.4157438352
 30
0.0
 11
353.6059426414
 21
54.4157438352
 31
0.0
  0
TEXT
  5
173
  8
LEVEL0
 10
369.4733384768
 20
55.4808349526
 30
-1.3049875
 40
2.0
  1
  
 50
0.0
 41
0.7
 11
369.4733384768
 21
54.4462993647
 31
-1.3049875
 73
     1
  0
TEXT
  5
174
  8
LEVEL0
 10
372.1698662271
 20
58.4426405085
 30
-1.3049875
 40
2.0
  1
0.31
 50
0.0
 41
0.7
 11
372.1698662271
 21
57.4081049207
 31
-1.3049875
 73
     1
  0
TEXT
  5
175
  8
LEVEL0
 10
374.0170884416
 20
55.4502791902
 30
-1.3049875
 40
2.0
  1
8
 50
0.0
 41
0.7
 11
374.0170884416
 21
54.4157436023
 31
-1.3049875
 73
     1
  0
TEXT
  5
176
  8
LEVEL0
 10
378.5608386393
 20
55.4808349526
 30
-1.3049875
 40
2.0
  1
  
 50
0.0
 41
0.7
 11
378.5608386393
 21
54.4462993647
 31
-1.3049875
 73
     1
  0
ENDBLK
  5
166
  8
0
  0
BLOCK
  8
0
  2
_D_8
 70
     0
 10
0.0
 20
0.0
 30
0.0
  3
_D_8
  1

  0
INSERT
  5
17C
  8
LEVEL0
  2
_CLOSED
 10
61.4686146674
 20
76.0021924253
 30
-1.3049875
 41
2.0
 42
2.0
 50
180.0
  0
INSERT
  5
17D
  8
LEVEL0
  2
_CLOSED
 10
104.9686146674
 20
76.0021924253
 30
-1.3049875
 41
2.0
 42
2.0
 50
0.0
  0
LINE
  5
17E
  8
LEVEL0
 10
80.1356128686
 20
91.6945535902
 30
0.0
 11
79.526237856
 21
91.6945535902
 31
0.0
  0
LINE
  5
17F
  8
LEVEL0
 10
79.526237856
 20
91.6945535902
 30
0.0
 11
79.526237856
 21
88.5195536285
 31
0.0
  0
LINE
  5
180
  8
LEVEL0
 10
79.526237856
 20
88.5195536285
 30
0.0
 11
80.1356128686
 21
88.5195536285
 31
0.0
  0
LINE
  5
181
  8
LEVEL0
 10
85.30783479
 20
91.6945535902
 30
0.0
 11
85.9172098026
 21
91.6945535902
 31
0.0
  0
LINE
  5
182
  8
LEVEL0
 10
85.9172098026
 20
91.6945535902
 30
0.0
 11
85.9172098026
 21
88.5195536285
 31
0.0
  0
LINE
  5
183
  8
LEVEL0
 10
85.9172098026
 20
88.5195536285
 30
0.0
 11
85.30783479
 21
88.5195536285
 31
0.0
  0
LINE
  5
184
  8
LEVEL0
 10
61.4686146674
 20
76.0021924253
 30
0.0
 11
104.9686146674
 21
76.0021924253
 31
0.0
  0
TEXT
  5
185
  8
LEVEL0
 10
80.1356128686
 20
89.5540892164
 30
-1.3049875
 40
2.0
  1
1.71
 50
360.0
 41
0.7
 11
80.1356128686
 21
88.5195536285
 31
-1.3049875
 73
     1
  0
TEXT
  5
186
  8
LEVEL0
 10
78.6578350271
 20
86.5617278981
 30
-1.3049875
 40
2.0
  1
43.500
 50
360.0
 41
0.7
 11
78.6578350271
 21
85.5271923102
 31
-1.3049875
 73
     1
  0
TEXT
  5
187
  8
LEVEL0
 10
72.1564458254
 20
83.3867281693
 30
-1.3049875
 40
2.0
  1
ROUTE TO DEPTH
 50
360.0
 41
0.65
 11
72.1564458254
 21
82.3521925814
 31
-1.3049875
 73
     1
  0
TEXT
  5
188
  8
LEVEL0
 10
76.2939469459
 20
80.2117282077
 30
-1.3049875
 40
2.0
  1
 3mm OFF
 50
360.0
 41
0.6125
 11
76.2939469459
 21
79.1771926198
 31
-1.3049875
 73
     1
  0
TEXT
  5
189
  8
LEVEL0
 10
72.0370009112
 20
77.036728246
 30
-1.3049875
 40
2.0
  1
 FRONT SURFACE
 50
360.0
 41
0.65
 11
72.0370009112
 21
76.0021926582
 31
-1.3049875
 73
     1
  0
ENDBLK
  5
17B
  8
0
  0
BLOCK
  8
0
  2
SW_NOTE_0
 70
     0
 10
0.0
 20
0.0
 30
0.0
  3
SW_NOTE_0
  1

  0
TEXT
  5
18D
  8
LEVEL0
 62
     0
 10
-52.9571704082
 20
-5.2395839203
 30
0.0
 40
3.5
  1
[0.53]
 41
0.7
 11
-52.9571704082
 21
-7.0500211991
 31
0.0
 73
     1
  0
TEXT
  5
18E
  8
LEVEL0
 62
     0
 10
-57.1377261057
 20
-9.7652784508
 30
0.0
 40
3.5
  1
R13.5 TYP
 41
0.7
 11
-57.1377261057
 21
-11.5757157296
 31
0.0
 73
     1
  0
LINE
  5
18F
  8
LEVEL0
 62
     0
 10
-36.0448827401
 20
-8.8357748257
 30
0.0
 11
0.0
 21
0.0
 31
0.0
  0
SOLID
  5
190
  8
LEVEL0
 62
     0
 10
0.0
 20
0.0
 30
0.0
 11
-2.0157458047
 21
-0.1773228896
 31
0.0
 12
-1.8692327602
 22
-0.7750118995
 32
0.0
 13
-1.8692327602
 23
-0.7750118995
 33
0.0
  0
ENDBLK
  5
18C
  8
0
  0
BLOCK
  8
0
  2
SW_NOTE_0_1
 70
     0
 10
0.0
 20
0.0
 30
0.0
  3
SW_NOTE_0_1
  1

  0
TEXT
  5
19A
  8
LEVEL0
 62
     0
 10
-61.8692436145
 20
13.0096167786
 30
0.0
 40
2.6458333333
  1
MARK SCREW POSITION
 41
0.6631578947
 11
-61.8692436145
 21
11.6410124071
 31
0.0
 73
     1
  0
LINE
  5
19B
  8
LEVEL0
 62
     0
 10
-19.314263383
 20
13.7389366779
 30
0.0
 11
0.0
 21
0.0
 31
0.0
  0
SOLID
  5
19C
  8
LEVEL0
 62
     0
 10
0.0
 20
0.0
 30
0.0
 11
-1.4513847932
 21
1.4100201198
 31
0.0
 12
-1.8080898099
 22
0.9085624886
 32
0.0
 13
-1.8080898099
 23
0.9085624886
 33
0.0
  0
ENDBLK
  5
199
  8
0
  0
BLOCK
  8
0
  2
SW_CENTERMARKSYMBOL_0
 70
     0
 10
0.0
 20
0.0
 30
0.0
  3
SW_CENTERMARKSYMBOL_0
  1

  0
LINE
  5
1A1
  8
LEVEL0
 62
     0
 10
0.0
 20
0.0
 30
0.0
 11
0.0
 21
2.5
 31
0.0
  0
LINE
  5
1A2
  8
LEVEL0
 62
     0
 10
0.0
 20
0.0
 30
0.0
 11
-2.5
 21
0.0
 31
0.0
  0
LINE
  5
1A3
  8
LEVEL0
 62
     0
 10
0.0
 20
0.0
 30
0.0
 11
0.0
 21
-2.5
 31
0.0
  0
LINE
  5
1A4
  8
LEVEL0
 62
     0
 10
0.0
 20
0.0
 30
0.0
 11
2.5
 21
0.0
 31
0.0
  0
LINE
  5
1A5
  8
LEVEL0
 62
     0
 10
0.0
 20
2.5
 30
0.0
 11
0.0
 21
3.5
 31
0.0
  0
LINE
  5
1A6
  8
LEVEL0
 62
     0
 10
-2.5
 20
0.0
 30
0.0
 11
-3.5
 21
0.0
 31
0.0
  0
LINE
  5
1A7
  8
LEVEL0
 62
     0
 10
0.0
 20
-2.5
 30
0.0
 11
0.0
 21
-3.5
 31
0.0
  0
LINE
  5
1A8
  8
LEVEL0
 62
     0
 10
2.5
 20
0.0
 30
0.0
 11
3.5
 21
0.0
 31
0.0
  0
ENDBLK
  5
1A0
  8
0
  0
BLOCK
  8
0
  2
SW_CENTERMARKSYMBOL_1
 70
     0
 10
0.0
 20
0.0
 30
0.0
  3
SW_CENTERMARKSYMBOL_1
  1

  0
LINE
  5
1AD
  8
LEVEL0
 62
     0
 10
0.0
 20
0.0
 30
0.0
 11
0.0
 21
2.5
 31
0.0
  0
LINE
  5
1AE
  8
LEVEL0
 62
     0
 10
0.0
 20
0.0
 30
0.0
 11
-2.5
 21
0.0
 31
0.0
  0
LINE
  5
1AF
  8
LEVEL0
 62
     0
 10
0.0
 20
0.0
 30
0.0
 11
0.0
 21
-2.5
 31
0.0
  0
LINE
  5
1B0
  8
LEVEL0
 62
     0
 10
0.0
 20
0.0
 30
0.0
 11
2.5
 21
0.0
 31
0.0
  0
LINE
  5
1B1
  8
LEVEL0
 62
     0
 10
0.0
 20
2.5
 30
0.0
 11
0.0
 21
3.5
 31
0.0
  0
LINE
  5
1B2
  8
LEVEL0
 62
     0
 10
-2.5
 20
0.0
 30
0.0
 11
-3.5
 21
0.0
 31
0.0
  0
LINE
  5
1B3
  8
LEVEL0
 62
     0
 10
0.0
 20
-2.5
 30
0.0
 11
0.0
 21
-3.5
 31
0.0
  0
LINE
  5
1B4
  8
LEVEL0
 62
     0
 10
2.5
 20
0.0
 30
0.0
 11
3.5
 21
0.0
 31
0.0
  0
ENDBLK
  5
1AC
  8
0
  0
BLOCK
  8
0
  2
SW_CENTERMARKSYMBOL_2
 70
     0
 10
0.0
 20
0.0
 30
0.0
  3
SW_CENTERMARKSYMBOL_2
  1

  0
LINE
  5
1B9
  8
LEVEL0
 62
     0
 10
0.0
 20
0.0
 30
0.0
 11
0.0
 21
2.5
 31
0.0
  0
LINE
  5
1BA
  8
LEVEL0
 62
     0
 10
0.0
 20
0.0
 30
0.0
 11
-2.5
 21
0.0
 31
0.0
  0
LINE
  5
1BB
  8
LEVEL0
 62
     0
 10
0.0
 20
0.0
 30
0.0
 11
0.0
 21
-2.5
 31
0.0
  0
LINE
  5
1BC
  8
LEVEL0
 62
     0
 10
0.0
 20
0.0
 30
0.0
 11
2.5
 21
0.0
 31
0.0
  0
LINE
  5
1BD
  8
LEVEL0
 62
     0
 10
0.0
 20
2.5
 30
0.0
 11
0.0
 21
3.5
 31
0.0
  0
LINE
  5
1BE
  8
LEVEL0
 62
     0
 10
-2.5
 20
0.0
 30
0.0
 11
-3.5
 21
0.0
 31
0.0
  0
LINE
  5
1BF
  8
LEVEL0
 62
     0
 10
0.0
 20
-2.5
 30
0.0
 11
0.0
 21
-3.5
 31
0.0
  0
LINE
  5
1C0
  8
LEVEL0
 62
     0
 10
2.5
 20
0.0
 30
0.0
 11
3.5
 21
0.0
 31
0.0
  0
ENDBLK
  5
1B8
  8
0
  0
BLOCK
  8
0
  2
SW_CENTERMARKSYMBOL_3
 70
     0
 10
0.0
 20
0.0
 30
0.0
  3
SW_CENTERMARKSYMBOL_3
  1

  0
LINE
  5
1C5
  8
LEVEL0
 62
     0
 10
0.0
 20
0.0
 30
0.0
 11
0.0
 21
2.5
 31
0.0
  0
LINE
  5
1C6
  8
LEVEL0
 62
     0
 10
0.0
 20
0.0
 30
0.0
 11
-2.5
 21
0.0
 31
0.0
  0
LINE
  5
1C7
  8
LEVEL0
 62
     0
 10
0.0
 20
0.0
 30
0.0
 11
0.0
 21
-2.5
 31
0.0
  0
LINE
  5
1C8
  8
LEVEL0
 62
     0
 10
0.0
 20
0.0
 30
0.0
 11
2.5
 21
0.0
 31
0.0
  0
LINE
  5
1C9
  8
LEVEL0
 62
     0
 10
0.0
 20
2.5
 30
0.0
 11
0.0
 21
3.5
 31
0.0
  0
LINE
  5
1CA
  8
LEVEL0
 62
     0
 10
-2.5
 20
0.0
 30
0.0
 11
-3.5
 21
0.0
 31
0.0
  0
LINE
  5
1CB
  8
LEVEL0
 62
     0
 10
0.0
 20
-2.5
 30
0.0
 11
0.0
 21
-3.5
 31
0.0
  0
LINE
  5
1CC
  8
LEVEL0
 62
     0
 10
2.5
 20
0.0
 30
0.0
 11
3.5
 21
0.0
 31
0.0
  0
ENDBLK
  5
1C4
  8
0
  0
BLOCK
  8
0
  2
SW_CENTERMARKSYMBOL_4
 70
     0
 10
0.0
 20
0.0
 30
0.0
  3
SW_CENTERMARKSYMBOL_4
  1

  0
LINE
  5
1D1
  8
LEVEL0
 62
     0
 10
0.0
 20
0.0
 30
0.0
 11
0.0
 21
2.5
 31
0.0
  0
LINE
  5
1D2
  8
LEVEL0
 62
     0
 10
0.0
 20
0.0
 30
0.0
 11
-2.5
 21
0.0
 31
0.0
  0
LINE
  5
1D3
  8
LEVEL0
 62
     0
 10
0.0
 20
0.0
 30
0.0
 11
0.0
 21
-2.5
 31
0.0
  0
LINE
  5
1D4
  8
LEVEL0
 62
     0
 10
0.0
 20
0.0
 30
0.0
 11
2.5
 21
0.0
 31
0.0
  0
LINE
  5
1D5
  8
LEVEL0
 62
     0
 10
0.0
 20
2.5
 30
0.0
 11
0.0
 21
3.5
 31
0.0
  0
LINE
  5
1D6
  8
LEVEL0
 62
     0
 10
-2.5
 20
0.0
 30
0.0
 11
-3.5
 21
0.0
 31
0.0
  0
LINE
  5
1D7
  8
LEVEL0
 62
     0
 10
0.0
 20
-2.5
 30
0.0
 11
0.0
 21
-3.5
 31
0.0
  0
LINE
  5
1D8
  8
LEVEL0
 62
     0
 10
2.5
 20
0.0
 30
0.0
 11
3.5
 21
0.0
 31
0.0
  0
ENDBLK
  5
1D0
  8
0
  0
BLOCK
  8
0
  2
SW_CENTERMARKSYMBOL_5
 70
     0
 10
0.0
 20
0.0
 30
0.0
  3
SW_CENTERMARKSYMBOL_5
  1

  0
LINE
  5
1DD
  8
LEVEL0
 62
     0
 10
0.0
 20
0.0
 30
0.0
 11
0.0
 21
2.5
 31
0.0
  0
LINE
  5
1DE
  8
LEVEL0
 62
     0
 10
0.0
 20
0.0
 30
0.0
 11
-2.5
 21
0.0
 31
0.0
  0
LINE
  5
1DF
  8
LEVEL0
 62
     0
 10
0.0
 20
0.0
 30
0.0
 11
0.0
 21
-2.5
 31
0.0
  0
LINE
  5
1E0
  8
LEVEL0
 62
     0
 10
0.0
 20
0.0
 30
0.0
 11
2.5
 21
0.0
 31
0.0
  0
LINE
  5
1E1
  8
LEVEL0
 62
     0
 10
0.0
 20
2.5
 30
0.0
 11
0.0
 21
3.5
 31
0.0
  0
LINE
  5
1E2
  8
LEVEL0
 62
     0
 10
-2.5
 20
0.0
 30
0.0
 11
-3.5
 21
0.0
 31
0.0
  0
LINE
  5
1E3
  8
LEVEL0
 62
     0
 10
0.0
 20
-2.5
 30
0.0
 11
0.0
 21
-3.5
 31
0.0
  0
LINE
  5
1E4
  8
LEVEL0
 62
     0
 10
2.5
 20
0.0
 30
0.0
 11
3.5
 21
0.0
 31
0.0
  0
ENDBLK
  5
1DC
  8
0
  0
BLOCK
  8
0
  2
SW_CENTERMARKSYMBOL_6
 70
     0
 10
0.0
 20
0.0
 30
0.0
  3
SW_CENTERMARKSYMBOL_6
  1

  0
LINE
  5
1E9
  8
LEVEL0
 62
     0
 10
0.0
 20
0.0
 30
0.0
 11
0.0
 21
2.5
 31
0.0
  0
LINE
  5
1EA
  8
LEVEL0
 62
     0
 10
0.0
 20
0.0
 30
0.0
 11
-2.5
 21
0.0
 31
0.0
  0
LINE
  5
1EB
  8
LEVEL0
 62
     0
 10
0.0
 20
0.0
 30
0.0
 11
0.0
 21
-2.5
 31
0.0
  0
LINE
  5
1EC
  8
LEVEL0
 62
     0
 10
0.0
 20
0.0
 30
0.0
 11
2.5
 21
0.0
 31
0.0
  0
LINE
  5
1ED
  8
LEVEL0
 62
     0
 10
0.0
 20
2.5
 30
0.0
 11
0.0
 21
3.5
 31
0.0
  0
LINE
  5
1EE
  8
LEVEL0
 62
     0
 10
-2.5
 20
0.0
 30
0.0
 11
-3.5
 21
0.0
 31
0.0
  0
LINE
  5
1EF
  8
LEVEL0
 62
     0
 10
0.0
 20
-2.5
 30
0.0
 11
0.0
 21
-3.5
 31
0.0
  0
LINE
  5
1F0
  8
LEVEL0
 62
     0
 10
2.5
 20
0.0
 30
0.0
 11
3.5
 21
0.0
 31
0.0
  0
ENDBLK
  5
1E8
  8
0
  0
BLOCK
  8
0
  2
SW_CENTERMARKSYMBOL_7
 70
     0
 10
0.0
 20
0.0
 30
0.0
  3
SW_CENTERMARKSYMBOL_7
  1

  0
LINE
  5
1F5
  8
LEVEL0
 62
     0
 10
0.0
 20
0.0
 30
0.0
 11
0.0
 21
2.5
 31
0.0
  0
LINE
  5
1F6
  8
LEVEL0
 62
     0
 10
0.0
 20
0.0
 30
0.0
 11
-2.5
 21
0.0
 31
0.0
  0
LINE
  5
1F7
  8
LEVEL0
 62
     0
 10
0.0
 20
0.0
 30
0.0
 11
0.0
 21
-2.5
 31
0.0
  0
LINE
  5
1F8
  8
LEVEL0
 62
     0
 10
0.0
 20
0.0
 30
0.0
 11
2.5
 21
0.0
 31
0.0
  0
LINE
  5
1F9
  8
LEVEL0
 62
     0
 10
0.0
 20
2.5
 30
0.0
 11
0.0
 21
3.5
 31
0.0
  0
LINE
  5
1FA
  8
LEVEL0
 62
     0
 10
-2.5
 20
0.0
 30
0.0
 11
-3.5
 21
0.0
 31
0.0
  0
LINE
  5
1FB
  8
LEVEL0
 62
     0
 10
0.0
 20
-2.5
 30
0.0
 11
0.0
 21
-3.5
 31
0.0
  0
LINE
  5
1FC
  8
LEVEL0
 62
     0
 10
2.5
 20
0.0
 30
0.0
 11
3.5
 21
0.0
 31
0.0
  0
ENDBLK
  5
1F4
  8
0
  0
ENDSEC
  0
SECTION
  2
ENTITIES
  0
POLYLINE
  5
A8
  8
0
  6
CONTINUOUS
 62
     7
 66
     1
 10
0.0
 20
0.0
 30
0.0
 70
   128
  0
VERTEX
  5
1FE
  8
0
  6
CONTINUOUS
 62
     7
 10
353.6059422206
 20
210.218991969
 30
0.0
  0
VERTEX
  5
1FF
  8
0
  6
CONTINUOUS
 62
     7
 10
353.5951537799
 20
211.9364104012
 30
0.0
  0
VERTEX
  5
200
  8
0
  6
CONTINUOUS
 62
     7
 10
353.5327104639
 20
213.6518022755
 30
0.0
  0
VERTEX
  5
201
  8
0
  6
CONTINUOUS
 62
     7
 10
353.3711669754
 20
215.3525984625
 30
0.0
  0
VERTEX
  5
202
  8
0
  6
CONTINUOUS
 62
     7
 10
353.059829564
 20
217.0290163497
 30
0.0
  0
VERTEX
  5
203
  8
0
  6
CONTINUOUS
 62
     7
 10
352.5466857266
 20
218.692179654
 30
0.0
  0
VERTEX
  5
204
  8
0
  6
CONTINUOUS
 62
     7
 10
351.8442747902
 20
220.2293908933
 30
0.0
  0
VERTEX
  5
205
  8
0
  6
CONTINUOUS
 62
     7
 10
349.8105792117
 20
222.9813969473
 30
0.0
  0
VERTEX
  5
206
  8
0
  6
CONTINUOUS
 62
     7
 10
347.0977483105
 20
225.0579035619
 30
0.0
  0
VERTEX
  5
207
  8
0
  6
CONTINUOUS
 62
     7
 10
343.9255444121
 20
226.3178861479
 30
0.0
  0
VERTEX
  5
208
  8
0
  6
CONTINUOUS
 62
     7
 10
342.5894466948
 20
226.5982365946
 30
0.0
  0
VERTEX
  5
209
  8
0
  6
CONTINUOUS
 62
     7
 10
341.2433726501
 20
226.7728409508
 30
0.0
  0
VERTEX
  5
20A
  8
0
  6
CONTINUOUS
 62
     7
 10
339.8879928302
 20
226.8657869438
 30
0.0
  0
VERTEX
  5
20B
  8
0
  6
CONTINUOUS
 62
     7
 10
338.5280681562
 20
226.9032410124
 30
0.0
  0
VERTEX
  5
20C
  8
0
  6
CONTINUOUS
 62
     7
 10
337.1131432962
 20
226.9155493716
 30
0.0
  0
SEQEND
  5
237
  8
0
  6
CONTINUOUS
 62
     7
  0
LINE
  5
A9
  8
0
  6
CONTINUOUS
 62
     7
 10
337.1131432962
 20
226.9155493716
 30
0.0
 11
121.4630095076
 21
226.9155493716
 31
0.0
  0
POLYLINE
  5
AA
  8
0
  6
CONTINUOUS
 62
     7
 66
     1
 10
0.0
 20
0.0
 30
0.0
 70
   128
  0
VERTEX
  5
20D
  8
0
  6
CONTINUOUS
 62
     7
 10
121.4630095076
 20
226.9155493716
 30
0.0
  0
VERTEX
  5
20E
  8
0
  6
CONTINUOUS
 62
     7
 10
119.7016624522
 20
226.8974519113
 30
0.0
  0
VERTEX
  5
20F
  8
0
  6
CONTINUOUS
 62
     7
 10
118.0287239861
 20
226.8289363722
 30
0.0
  0
VERTEX
  5
210
  8
0
  6
CONTINUOUS
 62
     7
 10
116.3294104647
 20
226.653654013
 30
0.0
  0
VERTEX
  5
211
  8
0
  6
CONTINUOUS
 62
     7
 10
114.656643362
 20
226.3193390111
 30
0.0
  0
VERTEX
  5
212
  8
0
  6
CONTINUOUS
 62
     7
 10
112.9994032692
 20
225.7823533157
 30
0.0
  0
VERTEX
  5
213
  8
0
  6
CONTINUOUS
 62
     7
 10
111.4733604502
 20
225.0550872425
 30
0.0
  0
VERTEX
  5
214
  8
0
  6
CONTINUOUS
 62
     7
 10
108.7587861132
 20
222.9753470758
 30
0.0
  0
VERTEX
  5
215
  8
0
  6
CONTINUOUS
 62
     7
 10
106.7299483132
 20
220.2271035651
 30
0.0
  0
VERTEX
  5
216
  8
0
  6
CONTINUOUS
 62
     7
 10
105.5168596815
 20
217.0363700727
 30
0.0
  0
VERTEX
  5
217
  8
0
  6
CONTINUOUS
 62
     7
 10
105.1373718094
 20
214.811954532
 30
0.0
  0
VERTEX
  5
218
  8
0
  6
CONTINUOUS
 62
     7
 10
104.9951476764
 20
212.5381788949
 30
0.0
  0
VERTEX
  5
219
  8
0
  6
CONTINUOUS
 62
     7
 10
104.9686161589
 20
210.218991969
 30
0.0
  0
SEQEND
  5
238
  8
0
  6
CONTINUOUS
 62
     7
  0
LINE
  5
AB
  8
0
  6
CONTINUOUS
 62
     7
 10
104.9686161589
 20
210.218991969
 30
0.0
 11
104.9686161589
 21
148.4547815064
 31
0.0
  0
ARC
  5
AC
  8
0
  6
CONTINUOUS
 62
     7
 10
102.4686146674
 20
148.4547818879
 30
0.0
 40
2.499999999999986
 50
270.0
 51
0.0
  0
LINE
  5
AD
  8
0
  6
CONTINUOUS
 62
     7
 10
102.4686185431
 20
145.954782028
 30
0.0
 11
68.4686092448
 21
145.954782028
 31
0.0
  0
ARC
  5
AE
  8
0
  6
CONTINUOUS
 62
     7
 10
68.4686146674
 20
138.9547818879
 30
0.0
 40
7.000000000000014
 50
90.0
 51
180.0
  0
LINE
  5
AF
  8
0
  6
CONTINUOUS
 62
     7
 10
61.46860996
 20
138.9547819283
 30
0.0
 11
61.46860996
 21
53.895551596
 31
0.0
  0
ARC
  5
B0
  8
0
  6
CONTINUOUS
 62
     7
 10
68.4686146674
 20
53.8955494812
 30
0.0
 40
7.000000000000014
 50
180.0
 51
270.0
  0
LINE
  5
B1
  8
0
  6
CONTINUOUS
 62
     7
 10
68.4686092448
 20
46.8955523113
 30
0.0
 11
119.0489841413
 21
46.8955523113
 31
0.0
  0
ARC
  5
B2
  8
0
  6
CONTINUOUS
 62
     7
 10
119.048987512
 20
56.8955494812
 30
0.0
 40
9.999999999999996
 50
270.0
 51
288.1948723388
  0
LINE
  5
B3
  8
0
  6
CONTINUOUS
 62
     7
 10
122.1714852166
 20
47.395545874
 30
0.0
 11
336.8477163624
 21
47.395545874
 31
0.0
  0
POLYLINE
  5
B4
  8
0
  6
CONTINUOUS
 62
     7
 66
     1
 10
0.0
 20
0.0
 30
0.0
 70
   128
  0
VERTEX
  5
21A
  8
0
  6
CONTINUOUS
 62
     7
 10
336.8477163624
 20
47.395545874
 30
0.0
  0
VERTEX
  5
21B
  8
0
  6
CONTINUOUS
 62
     7
 10
340.3945056509
 20
47.4761611561
 30
0.0
  0
VERTEX
  5
21C
  8
0
  6
CONTINUOUS
 62
     7
 10
343.8795296263
 20
47.9798651079
 30
0.0
  0
VERTEX
  5
21D
  8
0
  6
CONTINUOUS
 62
     7
 10
345.5824566793
 20
48.5322586039
 30
0.0
  0
VERTEX
  5
21E
  8
0
  6
CONTINUOUS
 62
     7
 10
347.158299179
 20
49.2939091066
 30
0.0
  0
VERTEX
  5
21F
  8
0
  6
CONTINUOUS
 62
     7
 10
349.9407855582
 20
51.4668411354
 30
0.0
  0
VERTEX
  5
220
  8
0
  6
CONTINUOUS
 62
     7
 10
351.979361267
 20
54.3409622053
 30
0.0
  0
VERTEX
  5
221
  8
0
  6
CONTINUOUS
 62
     7
 10
352.6610521387
 20
55.9330469707
 30
0.0
  0
VERTEX
  5
222
  8
0
  6
CONTINUOUS
 62
     7
 10
353.146770389
 20
57.6652920583
 30
0.0
  0
VERTEX
  5
223
  8
0
  6
CONTINUOUS
 62
     7
 10
353.4843114924
 20
59.9722153286
 30
0.0
  0
VERTEX
  5
224
  8
0
  6
CONTINUOUS
 62
     7
 10
353.5916147541
 20
62.2812247614
 30
0.0
  0
VERTEX
  5
225
  8
0
  6
CONTINUOUS
 62
     7
 10
353.6059422206
 20
64.7133773903
 30
0.0
  0
SEQEND
  5
239
  8
0
  6
CONTINUOUS
 62
     7
  0
LINE
  5
B5
  8
0
  6
CONTINUOUS
 62
     7
 10
353.6059422206
 20
64.7133773903
 30
0.0
 11
353.6059422206
 21
210.218991969
 31
0.0
  0
CIRCLE
  5
B6
  8
0
  6
CONTINUOUS
 62
     7
 10
53.4686146674
 20
234.9155499803
 30
0.0
 40
1.0
  0
CIRCLE
  5
B7
  8
0
  6
CONTINUOUS
 62
     7
 10
53.4686146674
 20
39.3955494812
 30
0.0
 40
1.0
  0
CIRCLE
  5
B8
  8
0
  6
CONTINUOUS
 62
     7
 10
361.6059426414
 20
39.3955494812
 30
0.0
 40
1.0
  0
CIRCLE
  5
B9
  8
0
  6
CONTINUOUS
 62
     7
 10
361.6059426414
 20
234.9155499803
 30
0.0
 40
1.0
  0
ARC
  5
BA
  8
0
  6
CONTINUOUS
 62
     7
 10
68.4686146674
 20
135.2581441501
 30
0.0
 40
7.000000000000028
 50
180.0
 51
270.0
  0
LINE
  5
BB
  8
0
  6
CONTINUOUS
 62
     7
 10
68.4686092448
 20
128.2581443677
 30
0.0
 11
102.4686185431
 21
128.2581443677
 31
0.0
  0
ARC
  5
BC
  8
0
  6
CONTINUOUS
 62
     7
 10
102.4686146674
 20
125.7581441501
 30
0.0
 40
2.499999999999986
 50
0.0
 51
90.0
  0
POLYLINE
  5
BD
  8
0
  6
CONTINUOUS
 62
     7
 66
     1
 10
0.0
 20
0.0
 30
0.0
 70
   128
  0
VERTEX
  5
226
  8
0
  6
CONTINUOUS
 62
     7
 10
122.1714852166
 20
47.395545874
 30
0.0
  0
VERTEX
  5
227
  8
0
  6
CONTINUOUS
 62
     7
 10
118.5768110465
 20
47.4537051061
 30
0.0
  0
VERTEX
  5
228
  8
0
  6
CONTINUOUS
 62
     7
 10
115.0093389463
 20
47.9051357845
 30
0.0
  0
VERTEX
  5
229
  8
0
  6
CONTINUOUS
 62
     7
 10
112.3420310926
 20
48.8151347974
 30
0.0
  0
VERTEX
  5
22A
  8
0
  6
CONTINUOUS
 62
     7
 10
109.9312988829
 20
50.2896270493
 30
0.0
  0
SEQEND
  5
23A
  8
0
  6
CONTINUOUS
 62
     7
  0
POLYLINE
  5
BE
  8
0
  6
CONTINUOUS
 62
     7
 66
     1
 10
0.0
 20
0.0
 30
0.0
 70
   128
  0
VERTEX
  5
22B
  8
0
  6
CONTINUOUS
 62
     7
 10
109.9312988829
 20
50.2896270493
 30
0.0
  0
VERTEX
  5
22C
  8
0
  6
CONTINUOUS
 62
     7
 10
107.5156120371
 20
52.8251341323
 30
0.0
  0
VERTEX
  5
22D
  8
0
  6
CONTINUOUS
 62
     7
 10
105.9045282912
 20
55.9606290201
 30
0.0
  0
SEQEND
  5
23B
  8
0
  6
CONTINUOUS
 62
     7
  0
POLYLINE
  5
BF
  8
0
  6
CONTINUOUS
 62
     7
 66
     1
 10
0.0
 20
0.0
 30
0.0
 70
   128
  0
VERTEX
  5
22E
  8
0
  6
CONTINUOUS
 62
     7
 10
105.9045282912
 20
55.9606290201
 30
0.0
  0
VERTEX
  5
22F
  8
0
  6
CONTINUOUS
 62
     7
 10
105.6446073365
 20
56.790936623
 30
0.0
  0
VERTEX
  5
230
  8
0
  6
CONTINUOUS
 62
     7
 10
105.4771108341
 20
57.4497542123
 30
0.0
  0
SEQEND
  5
23C
  8
0
  6
CONTINUOUS
 62
     7
  0
LINE
  5
C0
  8
0
  6
CONTINUOUS
 62
     7
 10
105.4771108341
 20
57.4497542123
 30
0.0
 11
105.4204566192
 21
57.705376182
 31
0.0
  0
POLYLINE
  5
C1
  8
0
  6
CONTINUOUS
 62
     7
 66
     1
 10
0.0
 20
0.0
 30
0.0
 70
   128
  0
VERTEX
  5
231
  8
0
  6
CONTINUOUS
 62
     7
 10
105.4204566192
 20
57.705376182
 30
0.0
  0
VERTEX
  5
232
  8
0
  6
CONTINUOUS
 62
     7
 10
105.2721230101
 20
58.4970525244
 30
0.0
  0
VERTEX
  5
233
  8
0
  6
CONTINUOUS
 62
     7
 10
105.181151421
 20
59.1235643963
 30
0.0
  0
SEQEND
  5
23D
  8
0
  6
CONTINUOUS
 62
     7
  0
LINE
  5
C2
  8
0
  6
CONTINUOUS
 62
     7
 10
105.181151421
 20
59.1235643963
 30
0.0
 11
105.1579726648
 21
59.3115797976
 31
0.0
  0
POLYLINE
  5
C3
  8
0
  6
CONTINUOUS
 62
     7
 66
     1
 10
0.0
 20
0.0
 30
0.0
 70
   128
  0
VERTEX
  5
234
  8
0
  6
CONTINUOUS
 62
     7
 10
105.1579726648
 20
59.3115797976
 30
0.0
  0
VERTEX
  5
235
  8
0
  6
CONTINUOUS
 62
     7
 10
104.9836067271
 20
62.3610353807
 30
0.0
  0
VERTEX
  5
236
  8
0
  6
CONTINUOUS
 62
     7
 10
104.9686161589
 20
64.7672599891
 30
0.0
  0
SEQEND
  5
23E
  8
0
  6
CONTINUOUS
 62
     7
  0
LINE
  5
C4
  8
0
  6
CONTINUOUS
 62
     7
 10
104.9686161589
 20
64.7672599891
 30
0.0
 11
104.9686161589
 21
125.7581439579
 31
0.0
  0
LINE
  5
C5
  8
0
  6
CONTINUOUS
 62
     7
 10
104.9686161589
 20
125.7581439579
 30
0.0
 11
104.9686161589
 21
148.4547815064
 31
0.0
  0
DIMENSION
  5
C6
  8
LEVEL0
  2
_D
 10
361.6059426414
 20
29.386843723
 30
0.0
 11
215.9273395169
 21
29.386843723
 31
0.0
 70
   160
  1
<>
  3
SLDDIMSTYLE0
 13
53.4686146674
 23
35.8955494812
 33
0.0
 14
361.6059426414
 24
35.8955494812
 34
0.0
 50
0.0
  0
DIMENSION
  5
E1
  8
LEVEL0
  2
_D_1
 10
25.999439478
 20
39.3955494812
 30
0.0
 11
25.999439478
 21
153.5149114826
 31
0.0
 70
   160
  1
<>
  3
SLDDIMSTYLE0
 13
49.9686146674
 23
234.9155499803
 33
0.0
 14
49.9686146674
 24
39.3955494812
 34
0.0
 50
90.0
  0
DIMENSION
  5
F4
  8
LEVEL0
  2
_D_2
 10
42.3854634856
 20
46.8955494812
 30
0.0
 11
42.3854634856
 21
100.0171894593
 31
0.0
 70
   160
  1
<>
  3
SLDDIMSTYLE0
 13
68.4686146674
 23
145.9547818879
 33
0.0
 14
68.4686146674
 24
46.8955494812
 34
0.0
 50
90.0
  0
DIMENSION
  5
107
  8
LEVEL0
  2
_D_3
 10
82.7217239457
 20
128.2581441501
 30
0.0
 11
82.7217239457
 21
181.1762739249
 31
0.0
 70
   160
  1
<>\PROUTE TO DEPTH 1.2mm\POFF FRONT SURFACE
  3
SLDDIMSTYLE0
 13
68.4686146674
 23
145.9547818879
 33
0.0
 14
68.4686146674
 24
128.2581441501
 34
0.0
 50
90.0
  0
DIMENSION
  5
119
  8
LEVEL0
  2
_D_4
 10
160.8240481185
 20
47.3955494812
 30
0.0
 11
160.8240481185
 21
135.2283954775
 31
0.0
 70
   160
  1
<>\PROUTE THRU
  3
SLDDIMSTYLE1
 13
121.4630104551
 23
226.9155499803
 33
0.0
 14
122.1714865112
 24
47.3955494812
 34
0.0
 50
90.0
  0
DIMENSION
  5
134
  8
LEVEL0
  2
_D_5
 10
353.6059426414
 20
172.7180408214
 30
0.0
 11
257.2492974782
 21
172.7180408214
 31
0.0
 70
   160
  1
<>\PROUTE THRU
  3
SLDDIMSTYLE1
 13
104.9686146674
 23
210.2189890532
 33
0.0
 14
353.6059426414
 24
210.2189890532
 34
0.0
  0
DIMENSION
  5
14E
  8
LEVEL0
  2
_D_6
 10
103.5843320294
 20
226.9155499803
 30
0.0
 11
103.5843320294
 21
249.1728626686
 31
0.0
 70
   160
  1
<>
  3
SLDDIMSTYLE2
 13
56.9686146674
 23
234.9155499803
 33
0.0
 14
121.4630104551
 24
226.9155499803
 34
0.0
 50
90.0
  0
DIMENSION
  5
163
  8
LEVEL0
  2
_D_7
 10
353.6059426414
 20
54.4157438352
 30
0.0
 11
374.755977537
 21
54.4157438352
 31
0.0
 70
   160
  1
<>
  3
SLDDIMSTYLE2
 13
361.6059426414
 23
42.8955494812
 33
0.0
 14
353.6059426414
 24
64.7133740598
 34
0.0
  0
DIMENSION
  5
177
  8
LEVEL0
  2
_D_8
 10
104.9686146674
 20
76.0021924253
 30
0.0
 11
82.7217239457
 21
76.0021924253
 31
0.0
 70
   160
  1
<>\PROUTE TO DEPTH\P 3mm OFF\P FRONT SURFACE
  3
SLDDIMSTYLE3
 13
61.4686146674
 23
53.8955494812
 33
0.0
 14
104.9686146674
 24
64.7672581542
 34
0.0
  0
INSERT
  5
191
  8
LEVEL0
  2
SW_NOTE_0
 10
350.1225838652
 20
222.6524589941
 30
0.0
  0
TEXT
  5
192
  8
LEVEL0
 10
184.3736830911
 20
107.2885332876
 30
0.0
 40
4.2333333333
  1
PRINT IN 100% SCALE ON A3 PAPER!
 41
0.634375
 11
184.3736830911
 21
105.0987662932
 31
0.0
 73
     1
  0
TEXT
  5
193
  8
LEVEL0
 10
178.5629335397
 20
248.4839354992
 30
0.0
 40
4.2333333333
  1
ROUTING TEMPLATE
 41
0.7
 11
178.5629335397
 21
246.2941685048
 31
0.0
 73
     1
  0
TEXT
  5
194
  8
LEVEL0
 10
196.2644399794
 20
242.2536427926
 30
0.0
 40
2.9104166667
  1
SCALE 1:1
 41
0.7
 11
196.2644399794
 21
240.748177984
 31
0.0
 73
     1
  0
TEXT
  5
195
  8
LEVEL0
 10
172.5692539521
 20
268.7206286624
 30
0.0
 40
4.7625
  1
WS SB FOR IPAD PRO 11" 2nd GEN
 41
0.6183333333
 11
172.5692539521
 21
266.2571407938
 31
0.0
 73
     1
  0
TEXT
  5
196
  8
LEVEL0
 10
184.6049973126
 20
139.5406810441
 30
0.0
 40
2.6458333333
  1
CONTACT WALL-SMART FOR COMPLETE TEMPLATE IN DXF FORMAT
 41
0.6546296296
 11
184.6049973126
 21
138.1720766726
 31
0.0
 73
     1
  0
INSERT
  5
19D
  8
LEVEL0
  2
SW_NOTE_0_1
 10
360.6236585215
 20
235.1029477065
 30
0.0
  0
INSERT
  5
1A9
  8
LEVEL0
  2
SW_CENTERMARKSYMBOL_0
 10
53.4686146674
 20
234.9155499803
 30
0.0
  0
INSERT
  5
1B5
  8
LEVEL0
  2
SW_CENTERMARKSYMBOL_1
 10
53.4686146674
 20
39.3955494812
 30
0.0
  0
INSERT
  5
1C1
  8
LEVEL0
  2
SW_CENTERMARKSYMBOL_2
 10
361.6059426414
 20
39.3955494812
 30
0.0
  0
INSERT
  5
1CD
  8
LEVEL0
  2
SW_CENTERMARKSYMBOL_3
 10
361.6059426414
 20
234.9155499803
 30
0.0
  0
INSERT
  5
1D9
  8
LEVEL0
  2
SW_CENTERMARKSYMBOL_4
 10
53.4686146674
 20
234.9155499803
 30
0.0
  0
INSERT
  5
1E5
  8
LEVEL0
  2
SW_CENTERMARKSYMBOL_5
 10
53.4686146674
 20
39.3955494812
 30
0.0
  0
INSERT
  5
1F1
  8
LEVEL0
  2
SW_CENTERMARKSYMBOL_6
 10
361.6059426414
 20
39.3955494812
 30
0.0
  0
INSERT
  5
1FD
  8
LEVEL0
  2
SW_CENTERMARKSYMBOL_7
 10
361.6059426414
 20
234.9155499803
 30
0.0
  0
ENDSEC
  0
EOF
