  0
SECTION
  2
HEADER
  9
$ACADVER
  1
AC1015
  9
$ACADMAINTVER
 70
     6
  9
$DWGCODEPAGE
  3
ANSI_1252
  9
$INSBASE
 10
0.0
 20
0.0
 30
0.0
  9
$EXTMIN
 10
0.0
 20
0.0
 30
0.0
  9
$EXTMAX
 10
210.0
 20
297.0
 30
0.0
  9
$LIMMIN
 10
0.0
 20
0.0
  9
$LIMMAX
 10
210.0
 20
297.0
  9
$ORTHOMODE
 70
     0
  9
$REGENMODE
 70
     1
  9
$FILLMODE
 70
     1
  9
$QTEXTMODE
 70
     0
  9
$MIRRTEXT
 70
     1
  9
$LTSCALE
 40
1.0
  9
$ATTMODE
 70
     1
  9
$TEXTSIZE
 40
2.0
  9
$TRACEWID
 40
1.0
  9
$TEXTSTYLE
  7
Standard
  9
$CLAYER
  8
0
  9
$CELTYPE
  6
ByLayer
  9
$CECOLOR
 62
   256
  9
$CELTSCALE
 40
1.0
  9
$DISPSILH
 70
     0
  9
$DIMSCALE
 40
1.0
  9
$DIMASZ
 40
2.0
  9
$DIMEXO
 40
1.0
  9
$DIMDLI
 40
3.75
  9
$DIMRND
 40
0.0
  9
$DIMDLE
 40
0.0
  9
$DIMEXE
 40
1.0
  9
$DIMTP
 40
0.0
  9
$DIMTM
 40
0.0
  9
$DIMTXT
 40
2.0
  9
$DIMCEN
 40
2.5
  9
$DIMTSZ
 40
0.0
  9
$DIMTOL
 70
     0
  9
$DIMLIM
 70
     0
  9
$DIMTIH
 70
     1
  9
$DIMTOH
 70
     1
  9
$DIMSE1
 70
     0
  9
$DIMSE2
 70
     0
  9
$DIMTAD
 70
     1
  9
$DIMZIN
 70
     0
  9
$DIMBLK
  1

  9
$DIMASO
 70
     1
  9
$DIMSHO
 70
     1
  9
$DIMPOST
  1

  9
$DIMAPOST
  1

  9
$DIMALT
 70
     0
  9
$DIMALTD
 70
     3
  9
$DIMALTF
 40
0.0393700787
  9
$DIMLFAC
 40
1.0
  9
$DIMTOFL
 70
     1
  9
$DIMTVP
 40
0.0
  9
$DIMTIX
 70
     0
  9
$DIMSOXD
 70
     0
  9
$DIMSAH
 70
     0
  9
$DIMBLK1
  1

  9
$DIMBLK2
  1

  9
$DIMSTYLE
  2
ISO-25
  9
$DIMCLRD
 70
     0
  9
$DIMCLRE
 70
     0
  9
$DIMCLRT
 70
     0
  9
$DIMTFAC
 40
1.0
  9
$DIMGAP
 40
1.524
  9
$DIMJUST
 70
     0
  9
$DIMSD1
 70
     0
  9
$DIMSD2
 70
     0
  9
$DIMTOLJ
 70
     0
  9
$DIMTZIN
 70
     0
  9
$DIMALTZ
 70
     0
  9
$DIMALTTZ
 70
     0
  9
$DIMUPT
 70
     0
  9
$DIMDEC
 70
     3
  9
$DIMTDEC
 70
     3
  9
$DIMALTU
 70
     2
  9
$DIMALTTD
 70
     3
  9
$DIMTXSTY
  7
Standard
  9
$DIMAUNIT
 70
     0
  9
$DIMADEC
 70
     2
  9
$DIMALTRND
 40
0.0
  9
$DIMAZIN
 70
     0
  9
$DIMDSEP
 70
    44
  9
$DIMATFIT
 70
     3
  9
$DIMFRAC
 70
     0
  9
$DIMLDRBLK
  1

  9
$DIMLUNIT
 70
     2
  9
$DIMLWD
 70
    -2
  9
$DIMLWE
 70
    -2
  9
$DIMTMOVE
 70
     0
  9
$LUNITS
 70
     2
  9
$LUPREC
 70
     2
  9
$SKETCHINC
 40
1.0
  9
$FILLETRAD
 40
10.0
  9
$AUNITS
 70
     0
  9
$AUPREC
 70
     2
  9
$MENU
  1
.
  9
$ELEVATION
 40
0.0
  9
$PELEVATION
 40
0.0
  9
$THICKNESS
 40
0.0
  9
$LIMCHECK
 70
     0
  9
$CHAMFERA
 40
0.0
  9
$CHAMFERB
 40
0.0
  9
$CHAMFERC
 40
0.0
  9
$CHAMFERD
 40
0.0
  9
$SKPOLY
 70
     0
  9
$TDCREATE
 40
2458963.691085914
  9
$TDUCREATE
 40
2458963.566085914
  9
$TDUPDATE
 40
2458963.691088032
  9
$TDUUPDATE
 40
2458963.566088032
  9
$TDINDWG
 40
0.0000000116
  9
$TDUSRTIMER
 40
0.0000000116
  9
$USRTIMER
 70
     1
  9
$ANGBASE
 50
0.0
  9
$ANGDIR
 70
     0
  9
$PDMODE
 70
     0
  9
$PDSIZE
 40
-1.0
  9
$PLINEWID
 40
0.0
  9
$SPLFRAME
 70
     0
  9
$SPLINETYPE
 70
     6
  9
$SPLINESEGS
 70
     8
  9
$HANDSEED
  5
1DC
  9
$SURFTAB1
 70
     6
  9
$SURFTAB2
 70
     6
  9
$SURFTYPE
 70
     6
  9
$SURFU
 70
     6
  9
$SURFV
 70
     6
  9
$UCSBASE
  2

  9
$UCSNAME
  2

  9
$UCSORG
 10
0.0
 20
0.0
 30
0.0
  9
$UCSXDIR
 10
1.0
 20
0.0
 30
0.0
  9
$UCSYDIR
 10
0.0
 20
1.0
 30
0.0
  9
$UCSORTHOREF
  2

  9
$UCSORTHOVIEW
 70
     0
  9
$UCSORGTOP
 10
0.0
 20
0.0
 30
0.0
  9
$UCSORGBOTTOM
 10
0.0
 20
0.0
 30
0.0
  9
$UCSORGLEFT
 10
0.0
 20
0.0
 30
0.0
  9
$UCSORGRIGHT
 10
0.0
 20
0.0
 30
0.0
  9
$UCSORGFRONT
 10
0.0
 20
0.0
 30
0.0
  9
$UCSORGBACK
 10
0.0
 20
0.0
 30
0.0
  9
$PUCSBASE
  2

  9
$PUCSNAME
  2

  9
$PUCSORG
 10
0.0
 20
0.0
 30
0.0
  9
$PUCSXDIR
 10
1.0
 20
0.0
 30
0.0
  9
$PUCSYDIR
 10
0.0
 20
1.0
 30
0.0
  9
$PUCSORTHOREF
  2

  9
$PUCSORTHOVIEW
 70
     0
  9
$PUCSORGTOP
 10
0.0
 20
0.0
 30
0.0
  9
$PUCSORGBOTTOM
 10
0.0
 20
0.0
 30
0.0
  9
$PUCSORGLEFT
 10
0.0
 20
0.0
 30
0.0
  9
$PUCSORGRIGHT
 10
0.0
 20
0.0
 30
0.0
  9
$PUCSORGFRONT
 10
0.0
 20
0.0
 30
0.0
  9
$PUCSORGBACK
 10
0.0
 20
0.0
 30
0.0
  9
$USERI1
 70
     0
  9
$USERI2
 70
     0
  9
$USERI3
 70
     0
  9
$USERI4
 70
     0
  9
$USERI5
 70
     0
  9
$USERR1
 40
0.0
  9
$USERR2
 40
0.0
  9
$USERR3
 40
0.0
  9
$USERR4
 40
0.0
  9
$USERR5
 40
0.0
  9
$WORLDVIEW
 70
     1
  9
$SHADEDGE
 70
     3
  9
$SHADEDIF
 70
    70
  9
$TILEMODE
 70
     1
  9
$MAXACTVP
 70
    64
  9
$PINSBASE
 10
0.0
 20
0.0
 30
0.0
  9
$PLIMCHECK
 70
     0
  9
$PEXTMIN
 10
1.0000000000E+20
 20
1.0000000000E+20
 30
1.0000000000E+20
  9
$PEXTMAX
 10
-1.0000000000E+20
 20
-1.0000000000E+20
 30
-1.0000000000E+20
  9
$PLIMMIN
 10
0.0
 20
0.0
  9
$PLIMMAX
 10
420.0
 20
297.0
  9
$UNITMODE
 70
     0
  9
$VISRETAIN
 70
     1
  9
$PLINEGEN
 70
     0
  9
$PSLTSCALE
 70
     1
  9
$TREEDEPTH
 70
  3020
  9
$CMLSTYLE
  2
Standard
  9
$CMLJUST
 70
     0
  9
$CMLSCALE
 40
20.0
  9
$PROXYGRAPHICS
 70
     1
  9
$MEASUREMENT
 70
     1
  9
$CELWEIGHT
370
    -1
  9
$ENDCAPS
280
     0
  9
$JOINSTYLE
280
     0
  9
$LWDISPLAY
290
     1
  9
$INSUNITS
 70
     4
  9
$HYPERLINKBASE
  1

  9
$STYLESHEET
  1

  9
$XEDIT
290
     1
  9
$CEPSNTYPE
380
     0
  9
$PSTYLEMODE
290
     1
  9
$FINGERPRINTGUID
  2
{95bdca4a-1217-44bd-8723-6cef3f53e848}
  9
$VERSIONGUID
  2
{FAEB1C32-E019-11D5-929B-00C0DF256EC4}
  9
$EXTNAMES
290
     1
  9
$PSVPSCALE
 40
0.0
  9
$OLESTARTUP
290
     0
  0
ENDSEC
  0
SECTION
  2
CLASSES
  0
CLASS
  1
ACDBDICTIONARYWDFLT
  2
AcDbDictionaryWithDefault
  3
ObjectDBX Classes
 90
        0
280
     0
281
     0
  0
CLASS
  1
VISUALSTYLE
  2
AcDbVisualStyle
  3
ObjectDBX Classes
 90
     4095
280
     0
281
     0
  0
CLASS
  1
MATERIAL
  2
AcDbMaterial
  3
ObjectDBX Classes
 90
     1153
280
     0
281
     0
  0
CLASS
  1
SCALE
  2
AcDbScale
  3
ObjectDBX Classes
 90
     1153
280
     0
281
     0
  0
CLASS
  1
TABLESTYLE
  2
AcDbTableStyle
  3
ObjectDBX Classes
 90
     4095
280
     0
281
     0
  0
CLASS
  1
MLEADERSTYLE
  2
AcDbMLeaderStyle
  3
ACDB_MLEADERSTYLE_CLASS
 90
     4095
280
     0
281
     0
  0
CLASS
  1
SUN
  2
AcDbSun
  3
SCENEOE
 90
     1153
280
     0
281
     0
  0
CLASS
  1
ACDBPLACEHOLDER
  2
AcDbPlaceHolder
  3
ObjectDBX Classes
 90
        0
280
     0
281
     0
  0
CLASS
  1
LAYOUT
  2
AcDbLayout
  3
ObjectDBX Classes
 90
        0
280
     0
281
     0
  0
ENDSEC
  0
SECTION
  2
TABLES
  0
TABLE
  2
VPORT
  5
8
330
0
100
AcDbSymbolTable
 70
     1
  0
VPORT
  5
29
330
8
100
AcDbSymbolTableRecord
100
AcDbViewportTableRecord
  2
*Active
 70
     0
 10
0.0
 20
0.0
 11
1.0
 21
1.0
 12
105.0
 22
148.5
 13
0.0
 23
0.0
 14
10.0
 24
10.0
 15
10.0
 25
10.0
 16
0.0
 26
0.0
 36
1.0
 17
0.0
 27
0.0
 37
0.0
 40
297.0
 41
0.7070707071
 42
50.0
 43
0.0
 44
0.0
 50
0.0
 51
0.0
 71
     0
 72
  2000
 73
     1
 74
     3
 75
     0
 76
     0
 77
     0
 78
     0
281
     0
 65
     1
110
0.0
120
0.0
130
0.0
111
1.0
121
0.0
131
0.0
112
0.0
122
1.0
132
0.0
 79
     0
146
0.0
  0
ENDTAB
  0
TABLE
  2
LTYPE
  5
5
330
0
100
AcDbSymbolTable
 70
     6
  0
LTYPE
  5
14
330
5
100
AcDbSymbolTableRecord
100
AcDbLinetypeTableRecord
  2
ByBlock
 70
     0
  3

 72
    65
 73
     0
 40
0.0
  0
LTYPE
  5
15
330
5
100
AcDbSymbolTableRecord
100
AcDbLinetypeTableRecord
  2
ByLayer
 70
     0
  3

 72
    65
 73
     0
 40
0.0
  0
LTYPE
  5
16
330
5
100
AcDbSymbolTableRecord
100
AcDbLinetypeTableRecord
  2
Continuous
 70
     0
  3
Solid line
 72
    65
 73
     0
 40
0.0
  0
LTYPE
  5
6E
330
5
100
AcDbSymbolTableRecord
100
AcDbLinetypeTableRecord
  2
HIDDEN
 70
     0
  3
Hidden __ __ __ __ __ __ __ __ __ __ __ __ __ __
 72
    65
 73
     2
 40
1.905
 49
1.27
 74
     0
 49
-0.635
 74
     0
  0
LTYPE
  5
6F
330
5
100
AcDbSymbolTableRecord
100
AcDbLinetypeTableRecord
  2
PHANTOM
 70
     0
  3
Phantom ______  __  __  ______  __  __  ______
 72
    65
 73
     6
 40
12.7
 49
6.35
 74
     0
 49
-1.27
 74
     0
 49
1.27
 74
     0
 49
-1.27
 74
     0
 49
1.27
 74
     0
 49
-1.27
 74
     0
  0
LTYPE
  5
70
330
5
100
AcDbSymbolTableRecord
100
AcDbLinetypeTableRecord
  2
CENTER
 70
     0
  3
Center ____ _ ____ _ ____ _ ____ _ ____ _ ____
 72
    65
 73
     4
 40
10.16
 49
6.35
 74
     0
 49
-1.27
 74
     0
 49
1.27
 74
     0
 49
-1.27
 74
     0
  0
LTYPE
  5
71
330
5
100
AcDbSymbolTableRecord
100
AcDbLinetypeTableRecord
  2
CENTERX2
 70
     0
  3
Center (2x) ________  __  ________  __  _____
 72
    65
 73
     4
 40
20.32
 49
12.7
 74
     0
 49
-2.54
 74
     0
 49
2.54
 74
     0
 49
-2.54
 74
     0
  0
LTYPE
  5
72
330
5
100
AcDbSymbolTableRecord
100
AcDbLinetypeTableRecord
  2
DOT2
 70
     0
  3
Dot (.5x) ........................................
 72
    65
 73
     2
 40
0.635
 49
0.0
 74
     0
 49
-0.635
 74
     0
  0
ENDTAB
  0
TABLE
  2
LAYER
  5
2
330
0
100
AcDbSymbolTable
 70
    53
  0
LAYER
  5
10
330
2
100
AcDbSymbolTableRecord
100
AcDbLayerTableRecord
  2
0
 70
     0
 62
     7
  6
Continuous
370
    -3
390
F
  0
LAYER
  5
73
330
2
100
AcDbSymbolTableRecord
100
AcDbLayerTableRecord
  2
SLD-0
 70
     0
 62
     7
  6
Continuous
370
    -3
390
F
  0
LAYER
  5
74
330
2
100
AcDbSymbolTableRecord
100
AcDbLayerTableRecord
  2
LEVEL0
 70
     0
 62
     7
  6
Continuous
370
    -3
390
F
  0
LAYER
  5
75
330
2
100
AcDbSymbolTableRecord
100
AcDbLayerTableRecord
  2
1
 70
     0
 62
     7
  6
Continuous
370
    -3
390
F
  0
LAYER
  5
76
330
2
100
AcDbSymbolTableRecord
100
AcDbLayerTableRecord
  2
2
 70
     0
 62
     7
  6
Continuous
370
    -3
390
F
  0
LAYER
  5
77
330
2
100
AcDbSymbolTableRecord
100
AcDbLayerTableRecord
  2
3
 70
     0
 62
     7
  6
Continuous
370
    -3
390
F
  0
LAYER
  5
78
330
2
100
AcDbSymbolTableRecord
100
AcDbLayerTableRecord
  2
4
 70
     0
 62
     7
  6
Continuous
370
    -3
390
F
  0
LAYER
  5
79
330
2
100
AcDbSymbolTableRecord
100
AcDbLayerTableRecord
  2
5
 70
     0
 62
     7
  6
Continuous
370
    -3
390
F
  0
LAYER
  5
7A
330
2
100
AcDbSymbolTableRecord
100
AcDbLayerTableRecord
  2
6
 70
     0
 62
     7
  6
Continuous
370
    -3
390
F
  0
LAYER
  5
7B
330
2
100
AcDbSymbolTableRecord
100
AcDbLayerTableRecord
  2
7
 70
     0
 62
     7
  6
Continuous
370
    -3
390
F
  0
LAYER
  5
7C
330
2
100
AcDbSymbolTableRecord
100
AcDbLayerTableRecord
  2
8
 70
     0
 62
     7
  6
Continuous
370
    -3
390
F
  0
LAYER
  5
7D
330
2
100
AcDbSymbolTableRecord
100
AcDbLayerTableRecord
  2
9
 70
     0
 62
     7
  6
Continuous
370
    -3
390
F
  0
LAYER
  5
7E
330
2
100
AcDbSymbolTableRecord
100
AcDbLayerTableRecord
  2
10
 70
     0
 62
     7
  6
Continuous
370
    -3
390
F
  0
LAYER
  5
7F
330
2
100
AcDbSymbolTableRecord
100
AcDbLayerTableRecord
  2
11
 70
     0
 62
     7
  6
Continuous
370
    -3
390
F
  0
LAYER
  5
80
330
2
100
AcDbSymbolTableRecord
100
AcDbLayerTableRecord
  2
12
 70
     0
 62
     7
  6
Continuous
370
    -3
390
F
  0
LAYER
  5
81
330
2
100
AcDbSymbolTableRecord
100
AcDbLayerTableRecord
  2
13
 70
     0
 62
     7
  6
Continuous
370
    -3
390
F
  0
LAYER
  5
82
330
2
100
AcDbSymbolTableRecord
100
AcDbLayerTableRecord
  2
14
 70
     0
 62
     7
  6
Continuous
370
    -3
390
F
  0
LAYER
  5
83
330
2
100
AcDbSymbolTableRecord
100
AcDbLayerTableRecord
  2
15
 70
     0
 62
     7
  6
Continuous
370
    -3
390
F
  0
LAYER
  5
84
330
2
100
AcDbSymbolTableRecord
100
AcDbLayerTableRecord
  2
16
 70
     0
 62
     7
  6
Continuous
370
    -3
390
F
  0
LAYER
  5
85
330
2
100
AcDbSymbolTableRecord
100
AcDbLayerTableRecord
  2
17
 70
     0
 62
     7
  6
Continuous
370
    -3
390
F
  0
LAYER
  5
86
330
2
100
AcDbSymbolTableRecord
100
AcDbLayerTableRecord
  2
18
 70
     0
 62
     7
  6
Continuous
370
    -3
390
F
  0
LAYER
  5
87
330
2
100
AcDbSymbolTableRecord
100
AcDbLayerTableRecord
  2
19
 70
     0
 62
     7
  6
Continuous
370
    -3
390
F
  0
LAYER
  5
88
330
2
100
AcDbSymbolTableRecord
100
AcDbLayerTableRecord
  2
20
 70
     0
 62
     7
  6
Continuous
370
    -3
390
F
  0
LAYER
  5
89
330
2
100
AcDbSymbolTableRecord
100
AcDbLayerTableRecord
  2
21
 70
     0
 62
     7
  6
Continuous
370
    -3
390
F
  0
LAYER
  5
8A
330
2
100
AcDbSymbolTableRecord
100
AcDbLayerTableRecord
  2
22
 70
     0
 62
     7
  6
Continuous
370
    -3
390
F
  0
LAYER
  5
8B
330
2
100
AcDbSymbolTableRecord
100
AcDbLayerTableRecord
  2
23
 70
     0
 62
     7
  6
Continuous
370
    -3
390
F
  0
LAYER
  5
8C
330
2
100
AcDbSymbolTableRecord
100
AcDbLayerTableRecord
  2
24
 70
     0
 62
     7
  6
Continuous
370
    -3
390
F
  0
LAYER
  5
8D
330
2
100
AcDbSymbolTableRecord
100
AcDbLayerTableRecord
  2
25
 70
     0
 62
     7
  6
Continuous
370
    -3
390
F
  0
LAYER
  5
8E
330
2
100
AcDbSymbolTableRecord
100
AcDbLayerTableRecord
  2
26
 70
     0
 62
     7
  6
Continuous
370
    -3
390
F
  0
LAYER
  5
8F
330
2
100
AcDbSymbolTableRecord
100
AcDbLayerTableRecord
  2
27
 70
     0
 62
     7
  6
Continuous
370
    -3
390
F
  0
LAYER
  5
90
330
2
100
AcDbSymbolTableRecord
100
AcDbLayerTableRecord
  2
28
 70
     0
 62
     7
  6
Continuous
370
    -3
390
F
  0
LAYER
  5
91
330
2
100
AcDbSymbolTableRecord
100
AcDbLayerTableRecord
  2
29
 70
     0
 62
     7
  6
Continuous
370
    -3
390
F
  0
LAYER
  5
92
330
2
100
AcDbSymbolTableRecord
100
AcDbLayerTableRecord
  2
30
 70
     0
 62
     7
  6
Continuous
370
    -3
390
F
  0
LAYER
  5
93
330
2
100
AcDbSymbolTableRecord
100
AcDbLayerTableRecord
  2
31
 70
     0
 62
     7
  6
Continuous
370
    -3
390
F
  0
LAYER
  5
94
330
2
100
AcDbSymbolTableRecord
100
AcDbLayerTableRecord
  2
32
 70
     0
 62
     7
  6
Continuous
370
    -3
390
F
  0
LAYER
  5
95
330
2
100
AcDbSymbolTableRecord
100
AcDbLayerTableRecord
  2
33
 70
     0
 62
     7
  6
Continuous
370
    -3
390
F
  0
LAYER
  5
96
330
2
100
AcDbSymbolTableRecord
100
AcDbLayerTableRecord
  2
34
 70
     0
 62
     7
  6
Continuous
370
    -3
390
F
  0
LAYER
  5
97
330
2
100
AcDbSymbolTableRecord
100
AcDbLayerTableRecord
  2
35
 70
     0
 62
     7
  6
Continuous
370
    -3
390
F
  0
LAYER
  5
98
330
2
100
AcDbSymbolTableRecord
100
AcDbLayerTableRecord
  2
36
 70
     0
 62
     7
  6
Continuous
370
    -3
390
F
  0
LAYER
  5
99
330
2
100
AcDbSymbolTableRecord
100
AcDbLayerTableRecord
  2
37
 70
     0
 62
     7
  6
Continuous
370
    -3
390
F
  0
LAYER
  5
9A
330
2
100
AcDbSymbolTableRecord
100
AcDbLayerTableRecord
  2
38
 70
     0
 62
     7
  6
Continuous
370
    -3
390
F
  0
LAYER
  5
9B
330
2
100
AcDbSymbolTableRecord
100
AcDbLayerTableRecord
  2
39
 70
     0
 62
     7
  6
Continuous
370
    -3
390
F
  0
LAYER
  5
9C
330
2
100
AcDbSymbolTableRecord
100
AcDbLayerTableRecord
  2
40
 70
     0
 62
     7
  6
Continuous
370
    -3
390
F
  0
LAYER
  5
9D
330
2
100
AcDbSymbolTableRecord
100
AcDbLayerTableRecord
  2
41
 70
     0
 62
     7
  6
Continuous
370
    -3
390
F
  0
LAYER
  5
9E
330
2
100
AcDbSymbolTableRecord
100
AcDbLayerTableRecord
  2
42
 70
     0
 62
     7
  6
Continuous
370
    -3
390
F
  0
LAYER
  5
9F
330
2
100
AcDbSymbolTableRecord
100
AcDbLayerTableRecord
  2
43
 70
     0
 62
     7
  6
Continuous
370
    -3
390
F
  0
LAYER
  5
A0
330
2
100
AcDbSymbolTableRecord
100
AcDbLayerTableRecord
  2
44
 70
     0
 62
     7
  6
Continuous
370
    -3
390
F
  0
LAYER
  5
A1
330
2
100
AcDbSymbolTableRecord
100
AcDbLayerTableRecord
  2
45
 70
     0
 62
     7
  6
Continuous
370
    -3
390
F
  0
LAYER
  5
A2
330
2
100
AcDbSymbolTableRecord
100
AcDbLayerTableRecord
  2
46
 70
     0
 62
     7
  6
Continuous
370
    -3
390
F
  0
LAYER
  5
A3
330
2
100
AcDbSymbolTableRecord
100
AcDbLayerTableRecord
  2
47
 70
     0
 62
     7
  6
Continuous
370
    -3
390
F
  0
LAYER
  5
A4
330
2
100
AcDbSymbolTableRecord
100
AcDbLayerTableRecord
  2
48
 70
     0
 62
     7
  6
Continuous
370
    -3
390
F
  0
LAYER
  5
A5
330
2
100
AcDbSymbolTableRecord
100
AcDbLayerTableRecord
  2
49
 70
     0
 62
     7
  6
Continuous
370
    -3
390
F
  0
LAYER
  5
A6
330
2
100
AcDbSymbolTableRecord
100
AcDbLayerTableRecord
  2
50
 70
     0
 62
     7
  6
Continuous
370
    -3
390
F
  0
ENDTAB
  0
TABLE
  2
STYLE
  5
3
330
0
100
AcDbSymbolTable
 70
     2
  0
STYLE
  5
11
330
3
100
AcDbSymbolTableRecord
100
AcDbTextStyleTableRecord
  2
Standard
 70
     0
 40
0.0
 41
1.0
 50
0.0
 71
     0
 42
2.0
  3
txt
  4

  0
STYLE
  5
C2
330
3
100
AcDbSymbolTableRecord
100
AcDbTextStyleTableRecord
  2
SLDTEXTSTYLE0
 70
     0
 40
0.0
 41
0.75
 50
0.0
 71
     0
 42
2.0
  3
TXT
  4

  0
ENDTAB
  0
TABLE
  2
VIEW
  5
6
330
0
100
AcDbSymbolTable
 70
     0
  0
ENDTAB
  0
TABLE
  2
UCS
  5
7
330
0
100
AcDbSymbolTable
 70
     0
  0
ENDTAB
  0
TABLE
  2
APPID
  5
9
330
0
100
AcDbSymbolTable
 70
     1
  0
APPID
  5
12
330
9
100
AcDbSymbolTableRecord
100
AcDbRegAppTableRecord
  2
ACAD
 70
     0
  0
ENDTAB
  0
TABLE
  2
DIMSTYLE
  5
A
330
0
100
AcDbSymbolTable
 70
     7
100
AcDbDimStyleTable
  0
DIMSTYLE
105
27
330
A
100
AcDbSymbolTableRecord
100
AcDbDimStyleTableRecord
  2
ISO-25
 70
     0
 41
2.5
 42
0.625
 43
3.75
 44
1.25
 73
     0
 74
     0
 77
     1
 78
     8
140
2.5
141
2.5
143
0.0393700787
147
0.625
171
     3
172
     1
178
     0
271
     2
272
     2
274
     3
278
    44
283
     0
284
     8
340
11
  0
DIMSTYLE
105
C3
102
{ACAD_REACTORS
330
C1
330
DD
330
160
102
}
330
A
100
AcDbSymbolTableRecord
100
AcDbDimStyleTableRecord
  2
SLDDIMSTYLE0
 70
     0
 41
2.0
 44
0.0
 45
0.000000001
 73
     0
 74
     0
 77
     1
 78
    12
 79
     3
140
2.0
143
0.0393700787
147
0.5
148
0.000000001
170
     1
173
     1
178
     0
271
     1
272
     1
276
     2
284
    12
340
C2
341
C4
343
C4
344
C4
  0
DIMSTYLE
105
F1
102
{ACAD_REACTORS
330
F0
102
}
330
A
100
AcDbSymbolTableRecord
100
AcDbDimStyleTableRecord
  2
SLDDIMSTYLE1
 70
     0
 41
2.0
 44
0.0
 45
0.000000001
 47
0.3
 48
0.2
 71
     1
 73
     0
 74
     0
 77
     1
 78
    12
 79
     3
140
2.0
143
0.0393700787
147
0.5
148
0.000000001
170
     1
173
     1
178
     0
271
     1
272
     2
276
     2
284
     8
340
C2
341
C4
343
C4
344
C4
  0
DIMSTYLE
105
10C
102
{ACAD_REACTORS
330
10B
102
}
330
A
100
AcDbSymbolTableRecord
100
AcDbDimStyleTableRecord
  2
SLDDIMSTYLE2
 70
     0
 41
2.0
 44
0.0
 45
0.000000001
 47
0.3
 48
0.2
 71
     1
 73
     0
 74
     0
 77
     1
 78
    12
 79
     3
140
2.0
143
0.0393700787
147
0.5
148
0.000000001
170
     1
173
     1
178
     0
271
     1
272
     2
276
     2
284
     8
340
C2
341
C4
343
C4
344
C4
  0
DIMSTYLE
105
127
102
{ACAD_REACTORS
330
126
330
13B
330
187
102
}
330
A
100
AcDbSymbolTableRecord
100
AcDbDimStyleTableRecord
  2
SLDDIMSTYLE3
 70
     0
 41
2.0
 44
0.0
 45
0.000000001
 73
     0
 74
     0
 77
     1
 78
    12
 79
     3
140
2.0
143
0.0393700787
147
0.5
148
0.000000001
170
     1
173
     1
178
     0
271
     3
272
     3
276
     2
284
    12
340
C2
341
C4
343
C4
344
C4
  0
DIMSTYLE
105
14E
102
{ACAD_REACTORS
330
14D
330
173
102
}
330
A
100
AcDbSymbolTableRecord
100
AcDbDimStyleTableRecord
  2
SLDDIMSTYLE4
 70
     0
 41
2.0
 44
0.0
 45
0.000000001
 73
     0
 74
     0
 77
     1
 78
    12
 79
     3
140
2.0
143
0.0393700787
147
0.5
148
0.000000001
170
     1
173
     1
178
     0
271
     1
272
     2
276
     2
284
    12
340
C2
341
C4
343
C4
344
C4
  0
DIMSTYLE
105
1AA
330
A
100
AcDbSymbolTableRecord
100
AcDbDimStyleTableRecord
  2
SLDDIMSTYLE5
 70
     0
 41
2.0
 44
0.0
 45
0.000000001
146
2.0
147
0.0
173
     1
178
     0
271
     0
272
     0
276
     2
340
11
  0
ENDTAB
  0
TABLE
  2
BLOCK_RECORD
  5
1
330
0
100
AcDbSymbolTable
 70
    18
  0
BLOCK_RECORD
  5
1F
330
1
100
AcDbSymbolTableRecord
100
AcDbBlockTableRecord
  2
*Model_Space
340
22
  0
BLOCK_RECORD
  5
1B
330
1
100
AcDbSymbolTableRecord
100
AcDbBlockTableRecord
  2
*Paper_Space
340
1E
  0
BLOCK_RECORD
  5
23
330
1
100
AcDbSymbolTableRecord
100
AcDbBlockTableRecord
  2
*Paper_Space0
340
26
  0
BLOCK_RECORD
  5
C4
330
1
100
AcDbSymbolTableRecord
100
AcDbBlockTableRecord
  2
_Closed
340
0
102
{BLKREFS
331
CE
331
CF
331
E1
331
E2
331
F5
331
F6
331
110
331
111
331
12B
331
12C
331
13F
331
140
331
152
331
153
331
164
331
165
331
177
331
178
331
18B
331
18C
102
}
  0
BLOCK_RECORD
  5
CB
330
1
100
AcDbSymbolTableRecord
100
AcDbBlockTableRecord
  2
_D
340
0
  0
BLOCK_RECORD
  5
DE
330
1
100
AcDbSymbolTableRecord
100
AcDbBlockTableRecord
  2
_D_1
340
0
  0
BLOCK_RECORD
  5
F2
330
1
100
AcDbSymbolTableRecord
100
AcDbBlockTableRecord
  2
_D_2
340
0
  0
BLOCK_RECORD
  5
10D
330
1
100
AcDbSymbolTableRecord
100
AcDbBlockTableRecord
  2
_D_3
340
0
  0
BLOCK_RECORD
  5
128
330
1
100
AcDbSymbolTableRecord
100
AcDbBlockTableRecord
  2
_D_4
340
0
  0
BLOCK_RECORD
  5
13C
330
1
100
AcDbSymbolTableRecord
100
AcDbBlockTableRecord
  2
_D_5
340
0
  0
BLOCK_RECORD
  5
14F
330
1
100
AcDbSymbolTableRecord
100
AcDbBlockTableRecord
  2
_D_6
340
0
  0
BLOCK_RECORD
  5
161
330
1
100
AcDbSymbolTableRecord
100
AcDbBlockTableRecord
  2
_D_7
340
0
  0
BLOCK_RECORD
  5
174
330
1
100
AcDbSymbolTableRecord
100
AcDbBlockTableRecord
  2
_D_8
340
0
  0
BLOCK_RECORD
  5
188
330
1
100
AcDbSymbolTableRecord
100
AcDbBlockTableRecord
  2
_D_9
340
0
  0
BLOCK_RECORD
  5
19A
330
1
100
AcDbSymbolTableRecord
100
AcDbBlockTableRecord
  2
SW_NOTE_0
340
0
102
{BLKREFS
331
1A3
102
}
  0
BLOCK_RECORD
  5
1A4
330
1
100
AcDbSymbolTableRecord
100
AcDbBlockTableRecord
  2
SW_NOTE_0_1
340
0
102
{BLKREFS
331
1A9
102
}
  0
BLOCK_RECORD
  5
1AC
330
1
100
AcDbSymbolTableRecord
100
AcDbBlockTableRecord
  2
SW_CENTERMARKSYMBOL_0
340
0
102
{BLKREFS
331
1B7
102
}
  0
BLOCK_RECORD
  5
1B8
330
1
100
AcDbSymbolTableRecord
100
AcDbBlockTableRecord
  2
SW_CENTERMARKSYMBOL_1
340
0
102
{BLKREFS
331
1C3
102
}
  0
BLOCK_RECORD
  5
1C4
330
1
100
AcDbSymbolTableRecord
100
AcDbBlockTableRecord
  2
SW_CENTERMARKSYMBOL_2
340
0
102
{BLKREFS
331
1CF
102
}
  0
BLOCK_RECORD
  5
1D0
330
1
100
AcDbSymbolTableRecord
100
AcDbBlockTableRecord
  2
SW_CENTERMARKSYMBOL_3
340
0
102
{BLKREFS
331
1DB
102
}
  0
ENDTAB
  0
ENDSEC
  0
SECTION
  2
BLOCKS
  0
BLOCK
  5
20
330
1F
100
AcDbEntity
  8
0
100
AcDbBlockBegin
  2
*Model_Space
 70
     0
 10
0.0
 20
0.0
 30
0.0
  3
*Model_Space
  1

  0
ENDBLK
  5
21
330
1F
100
AcDbEntity
  8
0
100
AcDbBlockEnd
  0
BLOCK
  5
1C
330
1B
100
AcDbEntity
 67
     1
  8
0
100
AcDbBlockBegin
  2
*Paper_Space
 70
     0
 10
0.0
 20
0.0
 30
0.0
  3
*Paper_Space
  1

  0
ENDBLK
  5
1D
330
1B
100
AcDbEntity
 67
     1
  8
0
100
AcDbBlockEnd
  0
BLOCK
  5
24
330
23
100
AcDbEntity
  8
0
100
AcDbBlockBegin
  2
*Paper_Space0
 70
     0
 10
0.0
 20
0.0
 30
0.0
  3
*Paper_Space0
  1

  0
ENDBLK
  5
25
330
23
100
AcDbEntity
  8
0
100
AcDbBlockEnd
  0
BLOCK
  5
C5
330
C4
100
AcDbEntity
  8
0
100
AcDbBlockBegin
  2
_Closed
 70
     0
 10
0.0
 20
0.0
 30
0.0
  3
_Closed
  1

  0
LINE
  5
C7
330
C4
100
AcDbEntity
  8
0
  6
ByBlock
 62
     0
370
    -2
100
AcDbLine
 10
-1.0
 20
0.166667
 30
0.0
 11
0.0
 21
0.0
 31
0.0
  0
LINE
  5
C8
330
C4
100
AcDbEntity
  8
0
  6
ByBlock
 62
     0
370
    -2
100
AcDbLine
 10
0.0
 20
0.0
 30
0.0
 11
-1.0
 21
-0.166667
 31
0.0
  0
LINE
  5
C9
330
C4
100
AcDbEntity
  8
0
  6
ByBlock
 62
     0
370
    -2
100
AcDbLine
 10
-1.0
 20
0.166667
 30
0.0
 11
-1.0
 21
-0.166667
 31
0.0
  0
LINE
  5
CA
330
C4
100
AcDbEntity
  8
0
  6
ByBlock
 62
     0
370
    -2
100
AcDbLine
 10
0.0
 20
0.0
 30
0.0
 11
-1.0
 21
0.0
 31
0.0
  0
ENDBLK
  5
C6
330
C4
100
AcDbEntity
  8
0
100
AcDbBlockEnd
  0
BLOCK
  5
CC
330
CB
100
AcDbEntity
  8
0
100
AcDbBlockBegin
  2
_D
 70
     0
 10
0.0
 20
0.0
 30
0.0
  3
_D
  1

  0
INSERT
  5
CE
330
CB
100
AcDbEntity
  8
LEVEL0
100
AcDbBlockReference
  2
_Closed
 10
38.2078975151
 20
31.4671896633
 30
-7.098270395
 41
2.0
 42
2.0
 50
180.0
  0
INSERT
  5
CF
330
CB
100
AcDbEntity
  8
LEVEL0
100
AcDbBlockReference
  2
_Closed
 10
186.4078975151
 20
31.4671896633
 30
-7.098270395
 41
2.0
 42
2.0
 50
0.0
  0
LINE
  5
D0
330
CB
100
AcDbEntity
  8
LEVEL0
100
AcDbLine
 10
111.3263995915
 20
37.6345507104
 30
0.0
 11
110.7170245789
 21
37.6345507104
 31
0.0
  0
LINE
  5
D1
330
CB
100
AcDbEntity
  8
LEVEL0
100
AcDbLine
 10
110.7170245789
 20
37.6345507104
 30
0.0
 11
110.7170245789
 21
34.4595507488
 31
0.0
  0
LINE
  5
D2
330
CB
100
AcDbEntity
  8
LEVEL0
100
AcDbLine
 10
110.7170245789
 20
34.4595507488
 30
0.0
 11
111.3263995915
 21
34.4595507488
 31
0.0
  0
LINE
  5
D3
330
CB
100
AcDbEntity
  8
LEVEL0
100
AcDbLine
 10
117.9763994708
 20
37.6345507104
 30
0.0
 11
118.5857744834
 21
37.6345507104
 31
0.0
  0
LINE
  5
D4
330
CB
100
AcDbEntity
  8
LEVEL0
100
AcDbLine
 10
118.5857744834
 20
37.6345507104
 30
0.0
 11
118.5857744834
 21
34.4595507488
 31
0.0
  0
LINE
  5
D5
330
CB
100
AcDbEntity
  8
LEVEL0
100
AcDbLine
 10
118.5857744834
 20
34.4595507488
 30
0.0
 11
117.9763994708
 21
34.4595507488
 31
0.0
  0
LINE
  5
D6
330
CB
100
AcDbEntity
  8
LEVEL0
100
AcDbLine
 10
38.2078975151
 20
38.438486608
 30
0.0
 11
38.2078975151
 21
30.4671896633
 31
0.0
  0
LINE
  5
D7
330
CB
100
AcDbEntity
  8
LEVEL0
100
AcDbLine
 10
186.4078975151
 20
38.438486608
 30
0.0
 11
186.4078975151
 21
30.4671896633
 31
0.0
  0
LINE
  5
D8
330
CB
100
AcDbEntity
  8
LEVEL0
100
AcDbLine
 10
38.2078975151
 20
31.4671896633
 30
0.0
 11
186.4078975151
 21
31.4671896633
 31
0.0
  0
MTEXT
  5
D9
330
CB
100
AcDbEntity
  8
LEVEL0
100
AcDbMText
 10
110.1298718412
 20
34.0758806724
 30
0.0
 40
2.0
 41
0.0
 71
     1
 72
     1
  1

  7
SLDTEXTSTYLE0
 73
     1
 44
1.0
  0
MTEXT
  5
DA
330
CB
100
AcDbEntity
  8
LEVEL0
100
AcDbMText
 10
111.3263995915
 20
37.0376862284
 30
0.0
 40
2.0
 41
0.0
 71
     1
 72
     1
  1
5.835
  7
SLDTEXTSTYLE0
 73
     1
 44
1.0
  0
MTEXT
  5
DB
330
CB
100
AcDbEntity
  8
LEVEL0
100
AcDbMText
 10
111.3263997079
 20
34.04532491
 30
0.0
 40
2.0
 41
0.0
 71
     1
 72
     1
  1
148.2
  7
SLDTEXTSTYLE0
 73
     1
 44
1.0
  0
MTEXT
  5
DC
330
CB
100
AcDbEntity
  8
LEVEL0
100
AcDbMText
 10
120.6951499616
 20
34.0758806724
 30
0.0
 40
2.0
 41
0.0
 71
     1
 72
     1
  1

  7
SLDTEXTSTYLE0
 73
     1
 44
1.0
  0
ENDBLK
  5
CD
330
CB
100
AcDbEntity
  8
0
100
AcDbBlockEnd
  0
BLOCK
  5
DF
330
DE
100
AcDbEntity
  8
0
100
AcDbBlockBegin
  2
_D_1
 70
     0
 10
0.0
 20
0.0
 30
0.0
  3
_D_1
  1

  0
INSERT
  5
E1
330
DE
100
AcDbEntity
  8
LEVEL0
100
AcDbBlockReference
  2
_Closed
 10
26.0903581794
 20
42.938486608
 30
-7.098270395
 41
2.0
 42
2.0
 50
270.0
  0
INSERT
  5
E2
330
DE
100
AcDbEntity
  8
LEVEL0
100
AcDbBlockReference
  2
_Closed
 10
26.0903581794
 20
269.8784866083
 30
-7.098270395
 41
2.0
 42
2.0
 50
90.0
  0
LINE
  5
E3
330
DE
100
AcDbEntity
  8
LEVEL0
100
AcDbLine
 10
19.9229971322
 20
157.0315982243
 30
0.0
 11
19.9229971322
 21
156.4222232117
 31
0.0
  0
LINE
  5
E4
330
DE
100
AcDbEntity
  8
LEVEL0
100
AcDbLine
 10
19.9229971322
 20
156.4222232117
 30
0.0
 11
23.0979970939
 21
156.4222232117
 31
0.0
  0
LINE
  5
E5
330
DE
100
AcDbEntity
  8
LEVEL0
100
AcDbLine
 10
23.0979970939
 20
156.4222232117
 30
0.0
 11
23.0979970939
 21
157.0315982243
 31
0.0
  0
LINE
  5
E6
330
DE
100
AcDbEntity
  8
LEVEL0
100
AcDbLine
 10
19.9229971322
 20
163.6815981036
 30
0.0
 11
19.9229971322
 21
164.2909731161
 31
0.0
  0
LINE
  5
E7
330
DE
100
AcDbEntity
  8
LEVEL0
100
AcDbLine
 10
19.9229971322
 20
164.2909731161
 30
0.0
 11
23.0979970939
 21
164.2909731161
 31
0.0
  0
LINE
  5
E8
330
DE
100
AcDbEntity
  8
LEVEL0
100
AcDbLine
 10
23.0979970939
 20
164.2909731161
 30
0.0
 11
23.0979970939
 21
163.6815981036
 31
0.0
  0
LINE
  5
E9
330
DE
100
AcDbEntity
  8
LEVEL0
100
AcDbLine
 10
33.7078975151
 20
42.938486608
 30
0.0
 11
25.0903581794
 21
42.938486608
 31
0.0
  0
LINE
  5
EA
330
DE
100
AcDbEntity
  8
LEVEL0
100
AcDbLine
 10
33.7078975151
 20
269.8784866083
 30
0.0
 11
25.0903581794
 21
269.8784866083
 31
0.0
  0
LINE
  5
EB
330
DE
100
AcDbEntity
  8
LEVEL0
100
AcDbLine
 10
26.0903581794
 20
42.938486608
 30
0.0
 11
26.0903581794
 21
269.8784866083
 31
0.0
  0
MTEXT
  5
EC
330
DE
100
AcDbEntity
  8
LEVEL0
100
AcDbMText
 10
23.4816671703
 20
155.835070474
 30
0.0
 40
2.0
 41
0.0
 71
     1
 72
     1
  1

  7
SLDTEXTSTYLE0
 11
2.832769448823990E-16
 21
1.0
 31
0.0
 73
     1
 44
1.0
  0
MTEXT
  5
ED
330
DE
100
AcDbEntity
  8
LEVEL0
100
AcDbMText
 10
20.5198616143
 20
157.0315982243
 30
0.0
 40
2.0
 41
0.0
 71
     1
 72
     1
  1
8.935
  7
SLDTEXTSTYLE0
 11
2.832769448823990E-16
 21
1.0
 31
0.0
 73
     1
 44
1.0
  0
MTEXT
  5
EE
330
DE
100
AcDbEntity
  8
LEVEL0
100
AcDbMText
 10
23.5122229326
 20
157.0315983407
 30
0.0
 40
2.0
 41
0.0
 71
     1
 72
     1
  1
226.9
  7
SLDTEXTSTYLE0
 11
2.832769448823990E-16
 21
1.0
 31
0.0
 73
     1
 44
1.0
  0
MTEXT
  5
EF
330
DE
100
AcDbEntity
  8
LEVEL0
100
AcDbMText
 10
23.4816671703
 20
166.4003485944
 30
0.0
 40
2.0
 41
0.0
 71
     1
 72
     1
  1

  7
SLDTEXTSTYLE0
 11
2.832769448823990E-16
 21
1.0
 31
0.0
 73
     1
 44
1.0
  0
ENDBLK
  5
E0
330
DE
100
AcDbEntity
  8
0
100
AcDbBlockEnd
  0
BLOCK
  5
F3
330
F2
100
AcDbEntity
  8
0
100
AcDbBlockBegin
  2
_D_2
 70
     0
 10
0.0
 20
0.0
 30
0.0
  3
_D_2
  1

  0
INSERT
  5
F5
330
F2
100
AcDbEntity
  8
LEVEL0
100
AcDbBlockReference
  2
_Closed
 10
44.4578975151
 20
162.5895743955
 30
-7.098270395
 41
2.0
 42
2.0
 50
180.0
  0
INSERT
  5
F6
330
F2
100
AcDbEntity
  8
LEVEL0
100
AcDbBlockReference
  2
_Closed
 10
180.1578975151
 20
162.5895743955
 30
-7.098270395
 41
2.0
 42
2.0
 50
0.0
  0
LINE
  5
F7
330
F2
100
AcDbEntity
  8
LEVEL0
100
AcDbLine
 10
113.3349244128
 20
176.5152687903
 30
0.0
 11
112.7255494003
 21
176.5152687903
 31
0.0
  0
LINE
  5
F8
330
F2
100
AcDbEntity
  8
LEVEL0
100
AcDbLine
 10
112.7255494003
 20
176.5152687903
 30
0.0
 11
112.7255494003
 21
171.3430464033
 31
0.0
  0
LINE
  5
F9
330
F2
100
AcDbEntity
  8
LEVEL0
100
AcDbLine
 10
112.7255494003
 20
171.3430464033
 30
0.0
 11
113.3349244128
 21
171.3430464033
 31
0.0
  0
LINE
  5
FA
330
F2
100
AcDbEntity
  8
LEVEL0
100
AcDbLine
 10
128.9904792439
 20
176.5152687903
 30
0.0
 11
129.5998542564
 21
176.5152687903
 31
0.0
  0
LINE
  5
FB
330
F2
100
AcDbEntity
  8
LEVEL0
100
AcDbLine
 10
129.5998542564
 20
176.5152687903
 30
0.0
 11
129.5998542564
 21
171.3430464033
 31
0.0
  0
LINE
  5
FC
330
F2
100
AcDbEntity
  8
LEVEL0
100
AcDbLine
 10
129.5998542564
 20
171.3430464033
 30
0.0
 11
128.9904792439
 21
171.3430464033
 31
0.0
  0
LINE
  5
FD
330
F2
100
AcDbEntity
  8
LEVEL0
100
AcDbLine
 10
44.4578975151
 20
162.5895743955
 30
0.0
 11
180.1578975151
 21
162.5895743955
 31
0.0
  0
MTEXT
  5
FE
330
F2
100
AcDbEntity
  8
LEVEL0
100
AcDbMText
 10
113.3349244128
 20
173.9517374123
 30
0.0
 40
2.0
 41
0.0
 71
     1
 72
     1
  1
5.343
  7
SLDTEXTSTYLE0
 73
     1
 44
1.0
  0
MTEXT
  5
FF
330
F2
100
AcDbEntity
  8
LEVEL0
100
AcDbMText
 10
120.7349242921
 20
173.9517374123
 30
0.0
 40
2.0
 41
0.0
 71
     1
 72
     1
  1

  7
SLDTEXTSTYLE0
 73
     1
 44
1.0
  0
MTEXT
  5
100
330
F2
100
AcDbEntity
  8
LEVEL0
100
AcDbMText
 10
120.7238132711
 20
176.5072930763
 30
0.0
 40
2.0
 41
0.0
 71
     1
 72
     1
  1
+
  7
SLDTEXTSTYLE0
 73
     1
 44
1.0
  0
MTEXT
  5
101
330
F2
100
AcDbEntity
  8
LEVEL0
100
AcDbMText
 10
121.0890910525
 20
173.9211818828
 30
0.0
 40
2.0
 41
0.0
 71
     1
 72
     1
  1
-
  7
SLDTEXTSTYLE0
 73
     1
 44
1.0
  0
MTEXT
  5
102
330
F2
100
AcDbEntity
  8
LEVEL0
100
AcDbMText
 10
122.3404793646
 20
176.5072930763
 30
0.0
 40
2.0
 41
0.0
 71
     1
 72
     1
  1
0.012
  7
SLDTEXTSTYLE0
 73
     1
 44
1.0
  0
MTEXT
  5
103
330
F2
100
AcDbEntity
  8
LEVEL0
100
AcDbMText
 10
122.3404793646
 20
173.9211818828
 30
0.0
 40
2.0
 41
0.0
 71
     1
 72
     1
  1
0.008
  7
SLDTEXTSTYLE0
 73
     1
 44
1.0
  0
MTEXT
  5
104
330
F2
100
AcDbEntity
  8
LEVEL0
100
AcDbMText
 10
114.0738130425
 20
168.3427091382
 30
0.0
 40
2.0
 41
0.0
 71
     1
 72
     1
  1
135.7
  7
SLDTEXTSTYLE0
 73
     1
 44
1.0
  0
MTEXT
  5
105
330
F2
100
AcDbEntity
  8
LEVEL0
100
AcDbMText
 10
121.4738129218
 20
168.3427091382
 30
0.0
 40
2.0
 41
0.0
 71
     1
 72
     1
  1

  7
SLDTEXTSTYLE0
 73
     1
 44
1.0
  0
MTEXT
  5
106
330
F2
100
AcDbEntity
  8
LEVEL0
100
AcDbMText
 10
121.4627019008
 20
170.9288203317
 30
0.0
 40
2.0
 41
0.0
 71
     1
 72
     1
  1
+
  7
SLDTEXTSTYLE0
 73
     1
 44
1.0
  0
MTEXT
  5
107
330
F2
100
AcDbEntity
  8
LEVEL0
100
AcDbMText
 10
121.8279796822
 20
168.3427091382
 30
0.0
 40
2.0
 41
0.0
 71
     1
 72
     1
  1
-
  7
SLDTEXTSTYLE0
 73
     1
 44
1.0
  0
MTEXT
  5
108
330
F2
100
AcDbEntity
  8
LEVEL0
100
AcDbMText
 10
123.0793679943
 20
170.9288203317
 30
0.0
 40
2.0
 41
0.0
 71
     1
 72
     1
  1
0.30
  7
SLDTEXTSTYLE0
 73
     1
 44
1.0
  0
MTEXT
  5
109
330
F2
100
AcDbEntity
  8
LEVEL0
100
AcDbMText
 10
123.0793679943
 20
168.3427091382
 30
0.0
 40
2.0
 41
0.0
 71
     1
 72
     1
  1
0.20
  7
SLDTEXTSTYLE0
 73
     1
 44
1.0
  0
MTEXT
  5
10A
330
F2
100
AcDbEntity
  8
LEVEL0
100
AcDbMText
 10
113.5057574948
 20
165.1677096422
 30
0.0
 40
2.0
 41
0.0
 71
     1
 72
     1
  1
ROUTE THRU
  7
SLDTEXTSTYLE0
 73
     1
 44
1.0
  0
ENDBLK
  5
F4
330
F2
100
AcDbEntity
  8
0
100
AcDbBlockEnd
  0
BLOCK
  5
10E
330
10D
100
AcDbEntity
  8
0
100
AcDbBlockBegin
  2
_D_3
 70
     0
 10
0.0
 20
0.0
 30
0.0
  3
_D_3
  1

  0
INSERT
  5
110
330
10D
100
AcDbEntity
  8
LEVEL0
100
AcDbBlockReference
  2
_Closed
 10
135.243686168
 20
262.378486608
 30
-7.098270395
 41
2.0
 42
2.0
 50
89.9999999997
  0
INSERT
  5
111
330
10D
100
AcDbEntity
  8
LEVEL0
100
AcDbBlockReference
  2
_Closed
 10
135.243686167
 20
58.2184866095
 30
-7.098270395
 41
2.0
 42
2.0
 50
269.9999999997
  0
LINE
  5
112
330
10D
100
AcDbEntity
  8
LEVEL0
100
AcDbLine
 10
121.3179917728
 20
186.3045539288
 30
0.0
 11
121.3179917728
 21
185.6951789162
 31
0.0
  0
LINE
  5
113
330
10D
100
AcDbEntity
  8
LEVEL0
100
AcDbLine
 10
121.3179917728
 20
185.6951789162
 30
0.0
 11
126.4902141598
 21
185.6951789162
 31
0.0
  0
LINE
  5
114
330
10D
100
AcDbEntity
  8
LEVEL0
100
AcDbLine
 10
126.4902141598
 20
185.6951789162
 30
0.0
 11
126.4902141598
 21
186.3045539288
 31
0.0
  0
LINE
  5
115
330
10D
100
AcDbEntity
  8
LEVEL0
100
AcDbLine
 10
121.3179917729
 20
201.9601087598
 30
0.0
 11
121.3179917729
 21
202.5694837724
 31
0.0
  0
LINE
  5
116
330
10D
100
AcDbEntity
  8
LEVEL0
100
AcDbLine
 10
121.3179917729
 20
202.5694837724
 30
0.0
 11
126.4902141599
 21
202.5694837724
 31
0.0
  0
LINE
  5
117
330
10D
100
AcDbEntity
  8
LEVEL0
100
AcDbLine
 10
126.4902141599
 20
202.5694837724
 30
0.0
 11
126.4902141599
 21
201.9601087598
 31
0.0
  0
LINE
  5
118
330
10D
100
AcDbEntity
  8
LEVEL0
100
AcDbLine
 10
135.243686168
 20
262.378486608
 30
0.0
 11
135.243686167
 21
58.2184866095
 31
0.0
  0
MTEXT
  5
119
330
10D
100
AcDbEntity
  8
LEVEL0
100
AcDbMText
 10
123.8815231508
 20
186.3045539288
 30
0.0
 40
2.0
 41
0.0
 71
     1
 72
     1
  1
8.038
  7
SLDTEXTSTYLE0
 11
4.830863657088938E-12
 21
1.0
 31
0.0
 73
     1
 44
1.0
  0
MTEXT
  5
11A
330
10D
100
AcDbEntity
  8
LEVEL0
100
AcDbMText
 10
123.8815231508
 20
193.7045538081
 30
0.0
 40
2.0
 41
0.0
 71
     1
 72
     1
  1

  7
SLDTEXTSTYLE0
 11
4.830863657088938E-12
 21
1.0
 31
0.0
 73
     1
 44
1.0
  0
MTEXT
  5
11B
330
10D
100
AcDbEntity
  8
LEVEL0
100
AcDbMText
 10
121.3259674868
 20
193.6934427871
 30
0.0
 40
2.0
 41
0.0
 71
     1
 72
     1
  1
+
  7
SLDTEXTSTYLE0
 11
4.830863657088938E-12
 21
1.0
 31
0.0
 73
     1
 44
1.0
  0
MTEXT
  5
11C
330
10D
100
AcDbEntity
  8
LEVEL0
100
AcDbMText
 10
123.9120786803
 20
194.0587205685
 30
0.0
 40
2.0
 41
0.0
 71
     1
 72
     1
  1
-
  7
SLDTEXTSTYLE0
 11
4.830863657088938E-12
 21
1.0
 31
0.0
 73
     1
 44
1.0
  0
MTEXT
  5
11D
330
10D
100
AcDbEntity
  8
LEVEL0
100
AcDbMText
 10
121.3259674868
 20
195.3101088805
 30
0.0
 40
2.0
 41
0.0
 71
     1
 72
     1
  1
0.012
  7
SLDTEXTSTYLE0
 11
4.830863657088938E-12
 21
1.0
 31
0.0
 73
     1
 44
1.0
  0
MTEXT
  5
11E
330
10D
100
AcDbEntity
  8
LEVEL0
100
AcDbMText
 10
123.9120786803
 20
195.3101088805
 30
0.0
 40
2.0
 41
0.0
 71
     1
 72
     1
  1
0.008
  7
SLDTEXTSTYLE0
 11
4.830863657088938E-12
 21
1.0
 31
0.0
 73
     1
 44
1.0
  0
MTEXT
  5
11F
330
10D
100
AcDbEntity
  8
LEVEL0
100
AcDbMText
 10
129.490551425
 20
187.0434425585
 30
0.0
 40
2.0
 41
0.0
 71
     1
 72
     1
  1
204.2
  7
SLDTEXTSTYLE0
 11
4.830863657088938E-12
 21
1.0
 31
0.0
 73
     1
 44
1.0
  0
MTEXT
  5
120
330
10D
100
AcDbEntity
  8
LEVEL0
100
AcDbMText
 10
129.490551425
 20
194.4434424378
 30
0.0
 40
2.0
 41
0.0
 71
     1
 72
     1
  1

  7
SLDTEXTSTYLE0
 11
4.830863657088938E-12
 21
1.0
 31
0.0
 73
     1
 44
1.0
  0
MTEXT
  5
121
330
10D
100
AcDbEntity
  8
LEVEL0
100
AcDbMText
 10
126.9044402315
 20
194.4323314168
 30
0.0
 40
2.0
 41
0.0
 71
     1
 72
     1
  1
+
  7
SLDTEXTSTYLE0
 11
4.830863657088938E-12
 21
1.0
 31
0.0
 73
     1
 44
1.0
  0
MTEXT
  5
122
330
10D
100
AcDbEntity
  8
LEVEL0
100
AcDbMText
 10
129.490551425
 20
194.7976091981
 30
0.0
 40
2.0
 41
0.0
 71
     1
 72
     1
  1
-
  7
SLDTEXTSTYLE0
 11
4.830863657088938E-12
 21
1.0
 31
0.0
 73
     1
 44
1.0
  0
MTEXT
  5
123
330
10D
100
AcDbEntity
  8
LEVEL0
100
AcDbMText
 10
126.9044402315
 20
196.0489975102
 30
0.0
 40
2.0
 41
0.0
 71
     1
 72
     1
  1
0.30
  7
SLDTEXTSTYLE0
 11
4.830863657088938E-12
 21
1.0
 31
0.0
 73
     1
 44
1.0
  0
MTEXT
  5
124
330
10D
100
AcDbEntity
  8
LEVEL0
100
AcDbMText
 10
129.490551425
 20
196.0489975102
 30
0.0
 40
2.0
 41
0.0
 71
     1
 72
     1
  1
0.20
  7
SLDTEXTSTYLE0
 11
4.830863657088938E-12
 21
1.0
 31
0.0
 73
     1
 44
1.0
  0
MTEXT
  5
125
330
10D
100
AcDbEntity
  8
LEVEL0
100
AcDbMText
 10
132.6655509209
 20
186.4753870107
 30
0.0
 40
2.0
 41
0.0
 71
     1
 72
     1
  1
ROUTE THRU
  7
SLDTEXTSTYLE0
 11
4.830863657088938E-12
 21
1.0
 31
0.0
 73
     1
 44
1.0
  0
ENDBLK
  5
10F
330
10D
100
AcDbEntity
  8
0
100
AcDbBlockEnd
  0
BLOCK
  5
129
330
128
100
AcDbEntity
  8
0
100
AcDbBlockBegin
  2
_D_4
 70
     0
 10
0.0
 20
0.0
 30
0.0
  3
_D_4
  1

  0
INSERT
  5
12B
330
128
100
AcDbEntity
  8
LEVEL0
100
AcDbBlockReference
  2
_Closed
 10
99.1578975151
 20
71.0880891251
 30
-7.098270395
 41
2.0
 42
2.0
 50
180.0
  0
INSERT
  5
12C
330
128
100
AcDbEntity
  8
LEVEL0
100
AcDbBlockReference
  2
_Closed
 10
134.1578975151
 20
71.0880891251
 30
-7.098270395
 41
2.0
 42
2.0
 50
0.0
  0
LINE
  5
12D
330
128
100
AcDbEntity
  8
LEVEL0
100
AcDbLine
 10
73.8635183273
 20
83.6054496299
 30
0.0
 11
73.2541433147
 21
83.6054496299
 31
0.0
  0
LINE
  5
12E
330
128
100
AcDbEntity
  8
LEVEL0
100
AcDbLine
 10
73.2541433147
 20
83.6054496299
 30
0.0
 11
73.2541433147
 21
80.4304496682
 31
0.0
  0
LINE
  5
12F
330
128
100
AcDbEntity
  8
LEVEL0
100
AcDbLine
 10
73.2541433147
 20
80.4304496682
 30
0.0
 11
73.8635183273
 21
80.4304496682
 31
0.0
  0
LINE
  5
130
330
128
100
AcDbEntity
  8
LEVEL0
100
AcDbLine
 10
80.5135182066
 20
83.6054496299
 30
0.0
 11
81.1228932191
 21
83.6054496299
 31
0.0
  0
LINE
  5
131
330
128
100
AcDbEntity
  8
LEVEL0
100
AcDbLine
 10
81.1228932191
 20
83.6054496299
 30
0.0
 11
81.1228932191
 21
80.4304496682
 31
0.0
  0
LINE
  5
132
330
128
100
AcDbEntity
  8
LEVEL0
100
AcDbLine
 10
81.1228932191
 20
80.4304496682
 30
0.0
 11
80.5135182066
 21
80.4304496682
 31
0.0
  0
LINE
  5
133
330
128
100
AcDbEntity
  8
LEVEL0
100
AcDbLine
 10
99.1578975151
 20
59.2184866093
 30
0.0
 11
99.1578975151
 21
72.0880891251
 31
0.0
  0
LINE
  5
134
330
128
100
AcDbEntity
  8
LEVEL0
100
AcDbLine
 10
134.1578975151
 20
55.7665711682
 30
0.0
 11
134.1578975151
 21
72.0880891251
 31
0.0
  0
LINE
  5
135
330
128
100
AcDbEntity
  8
LEVEL0
100
AcDbLine
 10
99.1578975151
 20
71.0880891251
 30
0.0
 11
61.5371302895
 21
71.0880891251
 31
0.0
  0
LINE
  5
136
330
128
100
AcDbEntity
  8
LEVEL0
100
AcDbLine
 10
99.1578975151
 20
71.0880891251
 30
0.0
 11
134.1578975151
 21
71.0880891251
 31
0.0
  0
MTEXT
  5
137
330
128
100
AcDbEntity
  8
LEVEL0
100
AcDbMText
 10
73.8635183273
 20
83.0085851478
 30
0.0
 40
2.0
 41
0.0
 71
     1
 72
     1
  1
1.378
  7
SLDTEXTSTYLE0
 73
     1
 44
1.0
  0
MTEXT
  5
138
330
128
100
AcDbEntity
  8
LEVEL0
100
AcDbMText
 10
75.7107406582
 20
80.0162238295
 30
0.0
 40
2.0
 41
0.0
 71
     1
 72
     1
  1
35
  7
SLDTEXTSTYLE0
 73
     1
 44
1.0
  0
MTEXT
  5
139
330
128
100
AcDbEntity
  8
LEVEL0
100
AcDbMText
 10
61.5371302895
 20
76.8412241007
 30
0.0
 40
2.0
 41
0.0
 71
     1
 72
     1
  1
ROUTE TO DEPTH 1.2mm
  7
SLDTEXTSTYLE0
 73
     1
 44
1.0
  0
MTEXT
  5
13A
330
128
100
AcDbEntity
  8
LEVEL0
100
AcDbMText
 10
64.0537957854
 20
73.666224139
 30
0.0
 40
2.0
 41
0.0
 71
     1
 72
     1
  1
OFF FRONT SURFACE
  7
SLDTEXTSTYLE0
 73
     1
 44
1.0
  0
ENDBLK
  5
12A
330
128
100
AcDbEntity
  8
0
100
AcDbBlockEnd
  0
BLOCK
  5
13D
330
13C
100
AcDbEntity
  8
0
100
AcDbBlockBegin
  2
_D_5
 70
     0
 10
0.0
 20
0.0
 30
0.0
  3
_D_5
  1

  0
INSERT
  5
13F
330
13C
100
AcDbEntity
  8
LEVEL0
100
AcDbBlockReference
  2
_Closed
 10
99.1578975151
 20
104.1903974508
 30
-7.098270395
 41
2.0
 42
2.0
 50
180.0
  0
INSERT
  5
140
330
13C
100
AcDbEntity
  8
LEVEL0
100
AcDbBlockReference
  2
_Closed
 10
180.1578975151
 20
104.1903974508
 30
-7.098270395
 41
2.0
 42
2.0
 50
0.0
  0
LINE
  5
141
330
13C
100
AcDbEntity
  8
LEVEL0
100
AcDbLine
 10
111.3263995915
 20
110.3577584979
 30
0.0
 11
110.7170245789
 21
110.3577584979
 31
0.0
  0
LINE
  5
142
330
13C
100
AcDbEntity
  8
LEVEL0
100
AcDbLine
 10
110.7170245789
 20
110.3577584979
 30
0.0
 11
110.7170245789
 21
107.1827585363
 31
0.0
  0
LINE
  5
143
330
13C
100
AcDbEntity
  8
LEVEL0
100
AcDbLine
 10
110.7170245789
 20
107.1827585363
 30
0.0
 11
111.3263995915
 21
107.1827585363
 31
0.0
  0
LINE
  5
144
330
13C
100
AcDbEntity
  8
LEVEL0
100
AcDbLine
 10
117.9763994708
 20
110.3577584979
 30
0.0
 11
118.5857744834
 21
110.3577584979
 31
0.0
  0
LINE
  5
145
330
13C
100
AcDbEntity
  8
LEVEL0
100
AcDbLine
 10
118.5857744834
 20
110.3577584979
 30
0.0
 11
118.5857744834
 21
107.1827585363
 31
0.0
  0
LINE
  5
146
330
13C
100
AcDbEntity
  8
LEVEL0
100
AcDbLine
 10
118.5857744834
 20
107.1827585363
 30
0.0
 11
117.9763994708
 21
107.1827585363
 31
0.0
  0
LINE
  5
147
330
13C
100
AcDbEntity
  8
LEVEL0
100
AcDbLine
 10
99.1578975151
 20
59.2184866093
 30
0.0
 11
99.1578975151
 21
105.1903974508
 31
0.0
  0
LINE
  5
148
330
13C
100
AcDbEntity
  8
LEVEL0
100
AcDbLine
 10
99.1578975151
 20
104.1903974508
 30
0.0
 11
180.1578975151
 21
104.1903974508
 31
0.0
  0
MTEXT
  5
149
330
13C
100
AcDbEntity
  8
LEVEL0
100
AcDbMText
 10
110.1298718412
 20
106.7990884599
 30
0.0
 40
2.0
 41
0.0
 71
     1
 72
     1
  1

  7
SLDTEXTSTYLE0
 73
     1
 44
1.0
  0
MTEXT
  5
14A
330
13C
100
AcDbEntity
  8
LEVEL0
100
AcDbMText
 10
111.3263995915
 20
109.7608940158
 30
0.0
 40
2.0
 41
0.0
 71
     1
 72
     1
  1
3.189
  7
SLDTEXTSTYLE0
 73
     1
 44
1.0
  0
MTEXT
  5
14B
330
13C
100
AcDbEntity
  8
LEVEL0
100
AcDbMText
 10
113.1736219225
 20
106.7685326975
 30
0.0
 40
2.0
 41
0.0
 71
     1
 72
     1
  1
81
  7
SLDTEXTSTYLE0
 73
     1
 44
1.0
  0
MTEXT
  5
14C
330
13C
100
AcDbEntity
  8
LEVEL0
100
AcDbMText
 10
120.6951499616
 20
106.7990884599
 30
0.0
 40
2.0
 41
0.0
 71
     1
 72
     1
  1

  7
SLDTEXTSTYLE0
 73
     1
 44
1.0
  0
ENDBLK
  5
13E
330
13C
100
AcDbEntity
  8
0
100
AcDbBlockEnd
  0
BLOCK
  5
150
330
14F
100
AcDbEntity
  8
0
100
AcDbBlockBegin
  2
_D_6
 70
     0
 10
0.0
 20
0.0
 30
0.0
  3
_D_6
  1

  0
INSERT
  5
152
330
14F
100
AcDbEntity
  8
LEVEL0
100
AcDbBlockReference
  2
_Closed
 10
154.6204329954
 20
42.968486608
 30
-7.098270395
 41
2.0
 42
2.0
 50
270.0
  0
INSERT
  5
153
330
14F
100
AcDbEntity
  8
LEVEL0
100
AcDbBlockReference
  2
_Closed
 10
154.6204329954
 20
58.2184866093
 30
-7.098270395
 41
2.0
 42
2.0
 50
90.0
  0
LINE
  5
154
330
14F
100
AcDbEntity
  8
LEVEL0
100
AcDbLine
 10
142.1030724907
 20
72.7439846909
 30
0.0
 11
142.1030724907
 21
72.1346096783
 31
0.0
  0
LINE
  5
155
330
14F
100
AcDbEntity
  8
LEVEL0
100
AcDbLine
 10
142.1030724907
 20
72.1346096783
 30
0.0
 11
145.2780724523
 21
72.1346096783
 31
0.0
  0
LINE
  5
156
330
14F
100
AcDbEntity
  8
LEVEL0
100
AcDbLine
 10
145.2780724523
 20
72.1346096783
 30
0.0
 11
145.2780724523
 21
72.7439846909
 31
0.0
  0
LINE
  5
157
330
14F
100
AcDbEntity
  8
LEVEL0
100
AcDbLine
 10
142.1030724907
 20
79.3939845702
 30
0.0
 11
142.1030724907
 21
80.0033595827
 31
0.0
  0
LINE
  5
158
330
14F
100
AcDbEntity
  8
LEVEL0
100
AcDbLine
 10
142.1030724907
 20
80.0033595827
 30
0.0
 11
145.2780724523
 21
80.0033595827
 31
0.0
  0
LINE
  5
159
330
14F
100
AcDbEntity
  8
LEVEL0
100
AcDbLine
 10
145.2780724523
 20
80.0033595827
 30
0.0
 11
145.2780724523
 21
79.3939845702
 31
0.0
  0
LINE
  5
15A
330
14F
100
AcDbEntity
  8
LEVEL0
100
AcDbLine
 10
154.6204329954
 20
42.968486608
 30
0.0
 11
154.6204329954
 21
58.2184866093
 31
0.0
  0
LINE
  5
15B
330
14F
100
AcDbEntity
  8
LEVEL0
100
AcDbLine
 10
154.6204329954
 20
58.2184866093
 30
0.0
 11
154.6204329954
 21
90.6120403037
 31
0.0
  0
MTEXT
  5
15C
330
14F
100
AcDbEntity
  8
LEVEL0
100
AcDbMText
 10
142.6999369728
 20
72.7439846909
 30
0.0
 40
2.0
 41
0.0
 71
     1
 72
     1
  1
0.600
  7
SLDTEXTSTYLE0
 11
-3.491481338843133E-15
 21
1.0
 31
0.0
 73
     1
 44
1.0
  0
MTEXT
  5
15D
330
14F
100
AcDbEntity
  8
LEVEL0
100
AcDbMText
 10
145.6922982911
 20
73.4828737862
 30
0.0
 40
2.0
 41
0.0
 71
     1
 72
     1
  1
15.3
  7
SLDTEXTSTYLE0
 11
-3.491481338843133E-15
 21
1.0
 31
0.0
 73
     1
 44
1.0
  0
MTEXT
  5
15E
330
14F
100
AcDbEntity
  8
LEVEL0
100
AcDbMText
 10
148.8672980199
 20
61.5259291902
 30
0.0
 40
2.0
 41
0.0
 71
     1
 72
     1
  1
ROUTE TO DEPTH 3mm
  7
SLDTEXTSTYLE0
 11
-3.491481338843133E-15
 21
1.0
 31
0.0
 73
     1
 44
1.0
  0
MTEXT
  5
15F
330
14F
100
AcDbEntity
  8
LEVEL0
100
AcDbMText
 10
152.0422979815
 20
62.934262149
 30
0.0
 40
2.0
 41
0.0
 71
     1
 72
     1
  1
OFF FRONT SURFACE
  7
SLDTEXTSTYLE0
 11
-3.491481338843133E-15
 21
1.0
 31
0.0
 73
     1
 44
1.0
  0
ENDBLK
  5
151
330
14F
100
AcDbEntity
  8
0
100
AcDbBlockEnd
  0
BLOCK
  5
162
330
161
100
AcDbEntity
  8
0
100
AcDbBlockBegin
  2
_D_7
 70
     0
 10
0.0
 20
0.0
 30
0.0
  3
_D_7
  1

  0
INSERT
  5
164
330
161
100
AcDbEntity
  8
LEVEL0
100
AcDbBlockReference
  2
_Closed
 10
38.2078975151
 20
104.1903974508
 30
-7.098270395
 41
2.0
 42
2.0
 50
180.0
  0
INSERT
  5
165
330
161
100
AcDbEntity
  8
LEVEL0
100
AcDbBlockReference
  2
_Closed
 10
44.4578975151
 20
104.1903974508
 30
-7.098270395
 41
2.0
 42
2.0
 50
0.0
  0
LINE
  5
166
330
161
100
AcDbEntity
  8
LEVEL0
100
AcDbLine
 10
29.750717547
 20
110.3577584979
 30
0.0
 11
29.1413425344
 21
110.3577584979
 31
0.0
  0
LINE
  5
167
330
161
100
AcDbEntity
  8
LEVEL0
100
AcDbLine
 10
29.1413425344
 20
110.3577584979
 30
0.0
 11
29.1413425344
 21
107.1827585363
 31
0.0
  0
LINE
  5
168
330
161
100
AcDbEntity
  8
LEVEL0
100
AcDbLine
 10
29.1413425344
 20
107.1827585363
 30
0.0
 11
29.750717547
 21
107.1827585363
 31
0.0
  0
LINE
  5
169
330
161
100
AcDbEntity
  8
LEVEL0
100
AcDbLine
 10
36.4007174263
 20
110.3577584979
 30
0.0
 11
37.0100924389
 21
110.3577584979
 31
0.0
  0
LINE
  5
16A
330
161
100
AcDbEntity
  8
LEVEL0
100
AcDbLine
 10
37.0100924389
 20
110.3577584979
 30
0.0
 11
37.0100924389
 21
107.1827585363
 31
0.0
  0
LINE
  5
16B
330
161
100
AcDbEntity
  8
LEVEL0
100
AcDbLine
 10
37.0100924389
 20
107.1827585363
 30
0.0
 11
36.4007174263
 21
107.1827585363
 31
0.0
  0
LINE
  5
16C
330
161
100
AcDbEntity
  8
LEVEL0
100
AcDbLine
 10
38.2078975151
 20
47.438486608
 30
0.0
 11
38.2078975151
 21
105.1903974508
 31
0.0
  0
LINE
  5
16D
330
161
100
AcDbEntity
  8
LEVEL0
100
AcDbLine
 10
38.2078975151
 20
104.1903974508
 30
0.0
 11
27.0541897968
 21
104.1903974508
 31
0.0
  0
LINE
  5
16E
330
161
100
AcDbEntity
  8
LEVEL0
100
AcDbLine
 10
38.2078975151
 20
104.1903974508
 30
0.0
 11
44.4578975151
 21
104.1903974508
 31
0.0
  0
MTEXT
  5
16F
330
161
100
AcDbEntity
  8
LEVEL0
100
AcDbMText
 10
28.5541897968
 20
106.7990884599
 30
0.0
 40
2.0
 41
0.0
 71
     1
 72
     1
  1

  7
SLDTEXTSTYLE0
 73
     1
 44
1.0
  0
MTEXT
  5
170
330
161
100
AcDbEntity
  8
LEVEL0
100
AcDbMText
 10
29.750717547
 20
109.7608940158
 30
0.0
 40
2.0
 41
0.0
 71
     1
 72
     1
  1
0.246
  7
SLDTEXTSTYLE0
 73
     1
 44
1.0
  0
MTEXT
  5
171
330
161
100
AcDbEntity
  8
LEVEL0
100
AcDbMText
 10
31.2284955049
 20
106.7685326975
 30
0.0
 40
2.0
 41
0.0
 71
     1
 72
     1
  1
6.3
  7
SLDTEXTSTYLE0
 73
     1
 44
1.0
  0
MTEXT
  5
172
330
161
100
AcDbEntity
  8
LEVEL0
100
AcDbMText
 10
39.1194679171
 20
106.7990884599
 30
0.0
 40
2.0
 41
0.0
 71
     1
 72
     1
  1

  7
SLDTEXTSTYLE0
 73
     1
 44
1.0
  0
ENDBLK
  5
163
330
161
100
AcDbEntity
  8
0
100
AcDbBlockEnd
  0
BLOCK
  5
175
330
174
100
AcDbEntity
  8
0
100
AcDbBlockBegin
  2
_D_8
 70
     0
 10
0.0
 20
0.0
 30
0.0
  3
_D_8
  1

  0
INSERT
  5
177
330
174
100
AcDbEntity
  8
LEVEL0
100
AcDbBlockReference
  2
_Closed
 10
191.1725600343
 20
269.8784866076
 30
-7.098270395
 41
2.0
 42
2.0
 50
89.9999999997
  0
INSERT
  5
178
330
174
100
AcDbEntity
  8
LEVEL0
100
AcDbBlockReference
  2
_Closed
 10
191.1725600343
 20
262.3784866077
 30
-7.098270395
 41
2.0
 42
2.0
 50
269.9999999997
  0
LINE
  5
179
330
174
100
AcDbEntity
  8
LEVEL0
100
AcDbLine
 10
185.0051989871
 20
248.1984627107
 30
0.0
 11
185.0051989871
 21
247.5890876981
 31
0.0
  0
LINE
  5
17A
330
174
100
AcDbEntity
  8
LEVEL0
100
AcDbLine
 10
185.0051989871
 20
247.5890876981
 30
0.0
 11
188.1801989487
 21
247.5890876981
 31
0.0
  0
LINE
  5
17B
330
174
100
AcDbEntity
  8
LEVEL0
100
AcDbLine
 10
188.1801989487
 20
247.5890876981
 30
0.0
 11
188.1801989487
 21
248.1984627107
 31
0.0
  0
LINE
  5
17C
330
174
100
AcDbEntity
  8
LEVEL0
100
AcDbLine
 10
185.0051989871
 20
254.84846259
 30
0.0
 11
185.0051989872
 21
255.4578376026
 31
0.0
  0
LINE
  5
17D
330
174
100
AcDbEntity
  8
LEVEL0
100
AcDbLine
 10
185.0051989872
 20
255.4578376026
 30
0.0
 11
188.1801989488
 21
255.4578376025
 31
0.0
  0
LINE
  5
17E
330
174
100
AcDbEntity
  8
LEVEL0
100
AcDbLine
 10
188.1801989488
 20
255.4578376025
 30
0.0
 11
188.1801989488
 21
254.84846259
 31
0.0
  0
LINE
  5
17F
330
174
100
AcDbEntity
  8
LEVEL0
100
AcDbLine
 10
42.7078975151
 20
269.8784866083
 30
0.0
 11
192.1725600343
 21
269.8784866076
 31
0.0
  0
LINE
  5
180
330
174
100
AcDbEntity
  8
LEVEL0
100
AcDbLine
 10
169.1786427353
 20
262.3784866078
 30
0.0
 11
192.1725600343
 21
262.3784866077
 31
0.0
  0
LINE
  5
181
330
174
100
AcDbEntity
  8
LEVEL0
100
AcDbLine
 10
191.1725600343
 20
269.8784866076
 30
0.0
 11
191.1725600343
 21
262.3784866077
 31
0.0
  0
LINE
  5
182
330
174
100
AcDbEntity
  8
LEVEL0
100
AcDbLine
 10
191.1725600343
 20
262.3784866077
 30
0.0
 11
191.1725600342
 21
245.5019349604
 31
0.0
  0
MTEXT
  5
183
330
174
100
AcDbEntity
  8
LEVEL0
100
AcDbMText
 10
188.5638690252
 20
247.0019349604
 30
0.0
 40
2.0
 41
0.0
 71
     1
 72
     1
  1

  7
SLDTEXTSTYLE0
 11
4.830863657088938E-12
 21
1.0
 31
0.0
 73
     1
 44
1.0
  0
MTEXT
  5
184
330
174
100
AcDbEntity
  8
LEVEL0
100
AcDbMText
 10
185.6020634692
 20
248.1984627107
 30
0.0
 40
2.0
 41
0.0
 71
     1
 72
     1
  1
0.295
  7
SLDTEXTSTYLE0
 11
4.830863657088938E-12
 21
1.0
 31
0.0
 73
     1
 44
1.0
  0
MTEXT
  5
185
330
174
100
AcDbEntity
  8
LEVEL0
100
AcDbMText
 10
188.5944247875
 20
249.6762406686
 30
0.0
 40
2.0
 41
0.0
 71
     1
 72
     1
  1
7.5
  7
SLDTEXTSTYLE0
 11
4.830863657088938E-12
 21
1.0
 31
0.0
 73
     1
 44
1.0
  0
MTEXT
  5
186
330
174
100
AcDbEntity
  8
LEVEL0
100
AcDbMText
 10
188.5638690252
 20
257.5672130808
 30
0.0
 40
2.0
 41
0.0
 71
     1
 72
     1
  1

  7
SLDTEXTSTYLE0
 11
4.830863657088938E-12
 21
1.0
 31
0.0
 73
     1
 44
1.0
  0
ENDBLK
  5
176
330
174
100
AcDbEntity
  8
0
100
AcDbBlockEnd
  0
BLOCK
  5
189
330
188
100
AcDbEntity
  8
0
100
AcDbBlockBegin
  2
_D_9
 70
     0
 10
0.0
 20
0.0
 30
0.0
  3
_D_9
  1

  0
INSERT
  5
18B
330
188
100
AcDbEntity
  8
LEVEL0
100
AcDbBlockReference
  2
_Closed
 10
167.1578975151
 20
94.1737203414
 30
-7.098270395
 41
2.0
 42
2.0
 50
0.0
  0
INSERT
  5
18C
330
188
100
AcDbEntity
  8
LEVEL0
100
AcDbBlockReference
  2
_Closed
 10
99.1578975151
 20
94.1737203414
 30
-7.098270395
 41
2.0
 42
2.0
 50
180.0
  0
LINE
  5
18D
330
188
100
AcDbEntity
  8
LEVEL0
100
AcDbLine
 10
111.3263995915
 20
100.3410813885
 30
0.0
 11
110.7170245789
 21
100.3410813885
 31
0.0
  0
LINE
  5
18E
330
188
100
AcDbEntity
  8
LEVEL0
100
AcDbLine
 10
110.7170245789
 20
100.3410813885
 30
0.0
 11
110.7170245789
 21
97.1660814268
 31
0.0
  0
LINE
  5
18F
330
188
100
AcDbEntity
  8
LEVEL0
100
AcDbLine
 10
110.7170245789
 20
97.1660814268
 30
0.0
 11
111.3263995915
 21
97.1660814268
 31
0.0
  0
LINE
  5
190
330
188
100
AcDbEntity
  8
LEVEL0
100
AcDbLine
 10
117.9763994708
 20
100.3410813885
 30
0.0
 11
118.5857744834
 21
100.3410813885
 31
0.0
  0
LINE
  5
191
330
188
100
AcDbEntity
  8
LEVEL0
100
AcDbLine
 10
118.5857744834
 20
100.3410813885
 30
0.0
 11
118.5857744834
 21
97.1660814268
 31
0.0
  0
LINE
  5
192
330
188
100
AcDbEntity
  8
LEVEL0
100
AcDbLine
 10
118.5857744834
 20
97.1660814268
 30
0.0
 11
117.9763994708
 21
97.1660814268
 31
0.0
  0
LINE
  5
193
330
188
100
AcDbEntity
  8
LEVEL0
100
AcDbLine
 10
167.1578975151
 20
59.2219282587
 30
0.0
 11
167.1578975151
 21
95.1737203414
 31
0.0
  0
LINE
  5
194
330
188
100
AcDbEntity
  8
LEVEL0
100
AcDbLine
 10
99.1578975151
 20
59.2184866093
 30
0.0
 11
99.1578975151
 21
95.1737203414
 31
0.0
  0
LINE
  5
195
330
188
100
AcDbEntity
  8
LEVEL0
100
AcDbLine
 10
167.1578975151
 20
94.1737203414
 30
0.0
 11
99.1578975151
 21
94.1737203414
 31
0.0
  0
MTEXT
  5
196
330
188
100
AcDbEntity
  8
LEVEL0
100
AcDbMText
 10
110.1298718412
 20
96.7824113504
 30
0.0
 40
2.0
 41
0.0
 71
     1
 72
     1
  1

  7
SLDTEXTSTYLE0
 73
     1
 44
1.0
  0
MTEXT
  5
197
330
188
100
AcDbEntity
  8
LEVEL0
100
AcDbMText
 10
111.3263995915
 20
99.7442169064
 30
0.0
 40
2.0
 41
0.0
 71
     1
 72
     1
  1
2.677
  7
SLDTEXTSTYLE0
 73
     1
 44
1.0
  0
MTEXT
  5
198
330
188
100
AcDbEntity
  8
LEVEL0
100
AcDbMText
 10
113.1736219225
 20
96.7518555881
 30
0.0
 40
2.0
 41
0.0
 71
     1
 72
     1
  1
68
  7
SLDTEXTSTYLE0
 73
     1
 44
1.0
  0
MTEXT
  5
199
330
188
100
AcDbEntity
  8
LEVEL0
100
AcDbMText
 10
120.6951499616
 20
96.7824113504
 30
0.0
 40
2.0
 41
0.0
 71
     1
 72
     1
  1

  7
SLDTEXTSTYLE0
 73
     1
 44
1.0
  0
ENDBLK
  5
18A
330
188
100
AcDbEntity
  8
0
100
AcDbBlockEnd
  0
BLOCK
  5
19B
330
19A
100
AcDbEntity
  8
0
100
AcDbBlockBegin
  2
SW_NOTE_0
 70
     0
 10
0.0
 20
0.0
 30
0.0
  3
SW_NOTE_0
  1

  0
MTEXT
  5
19D
330
19A
100
AcDbEntity
  8
LEVEL0
 62
     0
100
AcDbMText
 10
0.0
 20
4.0927900738
 30
0.0
 40
3.175
 41
0.0
 71
     1
 72
     1
  1
CUTOUT ROUTING TEMPLATE
  7
SLDTEXTSTYLE0
 73
     1
 44
1.0
  0
MTEXT
  5
19E
330
19A
100
AcDbEntity
  8
LEVEL0
 62
     0
100
AcDbMText
 10
0.0
 20
-1.1405433723
 30
0.0
 40
3.175
 41
0.0
 71
     1
 72
     1
  1
002-1-608
  7
SLDTEXTSTYLE0
 73
     1
 44
1.0
  0
MTEXT
  5
19F
330
19A
100
AcDbEntity
  8
LEVEL0
 62
     0
100
AcDbMText
 10
0.0
 20
-11.6072102645
 30
0.0
 40
3.175
 41
0.0
 71
     1
 72
     1
  1
VIEW FROM INNER SIDE OF
  7
SLDTEXTSTYLE0
 73
     1
 44
1.0
  0
MTEXT
  5
1A0
330
19A
100
AcDbEntity
  8
LEVEL0
 62
     0
100
AcDbMText
 10
0.0
 20
-16.8405437106
 30
0.0
 40
3.175
 41
0.0
 71
     1
 72
     1
  1
SOLID BOARD
  7
SLDTEXTSTYLE0
 73
     1
 44
1.0
  0
MTEXT
  5
1A1
330
19A
100
AcDbEntity
  8
LEVEL0
 62
     0
100
AcDbMText
 10
0.0
 20
-27.3072106027
 30
0.0
 40
3.175
 41
0.0
 71
     1
 72
     1
  1
SCALE 1:1
  7
SLDTEXTSTYLE0
 73
     1
 44
1.0
  0
MTEXT
  5
1A2
330
19A
100
AcDbEntity
  8
LEVEL0
 62
     0
100
AcDbMText
 10
0.0
 20
-37.7270296424
 30
0.0
 40
2.1166666667
 41
0.0
 71
     1
 72
     1
  1
CONTACT WALL-SMART FOR DXF FILE
  7
SLDTEXTSTYLE0
 73
     1
 44
1.0
  0
ENDBLK
  5
19C
330
19A
100
AcDbEntity
  8
0
100
AcDbBlockEnd
  0
BLOCK
  5
1A5
330
1A4
100
AcDbEntity
  8
0
100
AcDbBlockBegin
  2
SW_NOTE_0_1
 70
     0
 10
0.0
 20
0.0
 30
0.0
  3
SW_NOTE_0_1
  1

  0
MTEXT
  5
1A7
330
1A4
100
AcDbEntity
  8
LEVEL0
 62
     0
100
AcDbMText
 10
-12.2863211993
 20
3.8599729785
 30
0.0
 40
2.0
 41
0.0
 71
     1
 72
     1
  1
[0.43]
  7
SLDTEXTSTYLE0
 73
     1
 44
1.0
  0
MTEXT
  5
1A8
330
1A4
100
AcDbEntity
  8
LEVEL0
 62
     0
100
AcDbMText
 10
-12.2863211993
 20
0.8599729525
 30
0.0
 40
2.0
 41
0.0
 71
     1
 72
     1
  1
R10.9 TYP
  7
SLDTEXTSTYLE0
 73
     1
 44
1.0
  0
ENDBLK
  5
1A6
330
1A4
100
AcDbEntity
  8
0
100
AcDbBlockEnd
  0
BLOCK
  5
1AD
330
1AC
100
AcDbEntity
  8
0
100
AcDbBlockBegin
  2
SW_CENTERMARKSYMBOL_0
 70
     0
 10
0.0
 20
0.0
 30
0.0
  3
SW_CENTERMARKSYMBOL_0
  1

  0
LINE
  5
1AF
330
1AC
100
AcDbEntity
  8
LEVEL0
 62
     0
100
AcDbLine
 10
0.0
 20
0.0
 30
0.0
 11
0.0
 21
2.5
 31
0.0
  0
LINE
  5
1B0
330
1AC
100
AcDbEntity
  8
LEVEL0
 62
     0
100
AcDbLine
 10
0.0
 20
0.0
 30
0.0
 11
-2.5
 21
0.0
 31
0.0
  0
LINE
  5
1B1
330
1AC
100
AcDbEntity
  8
LEVEL0
 62
     0
100
AcDbLine
 10
0.0
 20
0.0
 30
0.0
 11
0.0
 21
-2.5
 31
0.0
  0
LINE
  5
1B2
330
1AC
100
AcDbEntity
  8
LEVEL0
 62
     0
100
AcDbLine
 10
0.0
 20
0.0
 30
0.0
 11
2.5
 21
0.0
 31
0.0
  0
LINE
  5
1B3
330
1AC
100
AcDbEntity
  8
LEVEL0
 62
     0
100
AcDbLine
 10
0.0
 20
2.5
 30
0.0
 11
0.0
 21
3.5
 31
0.0
  0
LINE
  5
1B4
330
1AC
100
AcDbEntity
  8
LEVEL0
 62
     0
100
AcDbLine
 10
-2.5
 20
0.0
 30
0.0
 11
-3.5
 21
0.0
 31
0.0
  0
LINE
  5
1B5
330
1AC
100
AcDbEntity
  8
LEVEL0
 62
     0
100
AcDbLine
 10
0.0
 20
-2.5
 30
0.0
 11
0.0
 21
-3.5
 31
0.0
  0
LINE
  5
1B6
330
1AC
100
AcDbEntity
  8
LEVEL0
 62
     0
100
AcDbLine
 10
2.5
 20
0.0
 30
0.0
 11
3.5
 21
0.0
 31
0.0
  0
ENDBLK
  5
1AE
330
1AC
100
AcDbEntity
  8
0
100
AcDbBlockEnd
  0
BLOCK
  5
1B9
330
1B8
100
AcDbEntity
  8
0
100
AcDbBlockBegin
  2
SW_CENTERMARKSYMBOL_1
 70
     0
 10
0.0
 20
0.0
 30
0.0
  3
SW_CENTERMARKSYMBOL_1
  1

  0
LINE
  5
1BB
330
1B8
100
AcDbEntity
  8
LEVEL0
 62
     0
100
AcDbLine
 10
0.0
 20
0.0
 30
0.0
 11
0.0
 21
2.5
 31
0.0
  0
LINE
  5
1BC
330
1B8
100
AcDbEntity
  8
LEVEL0
 62
     0
100
AcDbLine
 10
0.0
 20
0.0
 30
0.0
 11
-2.5
 21
0.0
 31
0.0
  0
LINE
  5
1BD
330
1B8
100
AcDbEntity
  8
LEVEL0
 62
     0
100
AcDbLine
 10
0.0
 20
0.0
 30
0.0
 11
0.0
 21
-2.5
 31
0.0
  0
LINE
  5
1BE
330
1B8
100
AcDbEntity
  8
LEVEL0
 62
     0
100
AcDbLine
 10
0.0
 20
0.0
 30
0.0
 11
2.5
 21
0.0
 31
0.0
  0
LINE
  5
1BF
330
1B8
100
AcDbEntity
  8
LEVEL0
 62
     0
100
AcDbLine
 10
0.0
 20
2.5
 30
0.0
 11
0.0
 21
3.5
 31
0.0
  0
LINE
  5
1C0
330
1B8
100
AcDbEntity
  8
LEVEL0
 62
     0
100
AcDbLine
 10
-2.5
 20
0.0
 30
0.0
 11
-3.5
 21
0.0
 31
0.0
  0
LINE
  5
1C1
330
1B8
100
AcDbEntity
  8
LEVEL0
 62
     0
100
AcDbLine
 10
0.0
 20
-2.5
 30
0.0
 11
0.0
 21
-3.5
 31
0.0
  0
LINE
  5
1C2
330
1B8
100
AcDbEntity
  8
LEVEL0
 62
     0
100
AcDbLine
 10
2.5
 20
0.0
 30
0.0
 11
3.5
 21
0.0
 31
0.0
  0
ENDBLK
  5
1BA
330
1B8
100
AcDbEntity
  8
0
100
AcDbBlockEnd
  0
BLOCK
  5
1C5
330
1C4
100
AcDbEntity
  8
0
100
AcDbBlockBegin
  2
SW_CENTERMARKSYMBOL_2
 70
     0
 10
0.0
 20
0.0
 30
0.0
  3
SW_CENTERMARKSYMBOL_2
  1

  0
LINE
  5
1C7
330
1C4
100
AcDbEntity
  8
LEVEL0
 62
     0
100
AcDbLine
 10
0.0
 20
0.0
 30
0.0
 11
0.0
 21
2.5
 31
0.0
  0
LINE
  5
1C8
330
1C4
100
AcDbEntity
  8
LEVEL0
 62
     0
100
AcDbLine
 10
0.0
 20
0.0
 30
0.0
 11
-2.5
 21
0.0
 31
0.0
  0
LINE
  5
1C9
330
1C4
100
AcDbEntity
  8
LEVEL0
 62
     0
100
AcDbLine
 10
0.0
 20
0.0
 30
0.0
 11
0.0
 21
-2.5
 31
0.0
  0
LINE
  5
1CA
330
1C4
100
AcDbEntity
  8
LEVEL0
 62
     0
100
AcDbLine
 10
0.0
 20
0.0
 30
0.0
 11
2.5
 21
0.0
 31
0.0
  0
LINE
  5
1CB
330
1C4
100
AcDbEntity
  8
LEVEL0
 62
     0
100
AcDbLine
 10
0.0
 20
2.5
 30
0.0
 11
0.0
 21
3.5
 31
0.0
  0
LINE
  5
1CC
330
1C4
100
AcDbEntity
  8
LEVEL0
 62
     0
100
AcDbLine
 10
-2.5
 20
0.0
 30
0.0
 11
-3.5
 21
0.0
 31
0.0
  0
LINE
  5
1CD
330
1C4
100
AcDbEntity
  8
LEVEL0
 62
     0
100
AcDbLine
 10
0.0
 20
-2.5
 30
0.0
 11
0.0
 21
-3.5
 31
0.0
  0
LINE
  5
1CE
330
1C4
100
AcDbEntity
  8
LEVEL0
 62
     0
100
AcDbLine
 10
2.5
 20
0.0
 30
0.0
 11
3.5
 21
0.0
 31
0.0
  0
ENDBLK
  5
1C6
330
1C4
100
AcDbEntity
  8
0
100
AcDbBlockEnd
  0
BLOCK
  5
1D1
330
1D0
100
AcDbEntity
  8
0
100
AcDbBlockBegin
  2
SW_CENTERMARKSYMBOL_3
 70
     0
 10
0.0
 20
0.0
 30
0.0
  3
SW_CENTERMARKSYMBOL_3
  1

  0
LINE
  5
1D3
330
1D0
100
AcDbEntity
  8
LEVEL0
 62
     0
100
AcDbLine
 10
0.0
 20
0.0
 30
0.0
 11
0.0
 21
2.5
 31
0.0
  0
LINE
  5
1D4
330
1D0
100
AcDbEntity
  8
LEVEL0
 62
     0
100
AcDbLine
 10
0.0
 20
0.0
 30
0.0
 11
-2.5
 21
0.0
 31
0.0
  0
LINE
  5
1D5
330
1D0
100
AcDbEntity
  8
LEVEL0
 62
     0
100
AcDbLine
 10
0.0
 20
0.0
 30
0.0
 11
0.0
 21
-2.5
 31
0.0
  0
LINE
  5
1D6
330
1D0
100
AcDbEntity
  8
LEVEL0
 62
     0
100
AcDbLine
 10
0.0
 20
0.0
 30
0.0
 11
2.5
 21
0.0
 31
0.0
  0
LINE
  5
1D7
330
1D0
100
AcDbEntity
  8
LEVEL0
 62
     0
100
AcDbLine
 10
0.0
 20
2.5
 30
0.0
 11
0.0
 21
3.5
 31
0.0
  0
LINE
  5
1D8
330
1D0
100
AcDbEntity
  8
LEVEL0
 62
     0
100
AcDbLine
 10
-2.5
 20
0.0
 30
0.0
 11
-3.5
 21
0.0
 31
0.0
  0
LINE
  5
1D9
330
1D0
100
AcDbEntity
  8
LEVEL0
 62
     0
100
AcDbLine
 10
0.0
 20
-2.5
 30
0.0
 11
0.0
 21
-3.5
 31
0.0
  0
LINE
  5
1DA
330
1D0
100
AcDbEntity
  8
LEVEL0
 62
     0
100
AcDbLine
 10
2.5
 20
0.0
 30
0.0
 11
3.5
 21
0.0
 31
0.0
  0
ENDBLK
  5
1D2
330
1D0
100
AcDbEntity
  8
0
100
AcDbBlockEnd
  0
ENDSEC
  0
SECTION
  2
ENTITIES
  0
SPLINE
  5
A7
330
1F
100
AcDbEntity
  8
0
  6
Continuous
 62
     7
370
    25
100
AcDbSpline
210
0.0
220
0.0
230
1.0
 70
     8
 71
     3
 72
    14
 73
    10
 74
     0
 42
0.000000001
 43
0.00000001
 40
0.0
 40
0.0
 40
0.0
 40
0.0
 40
0.136822658458187
 40
0.2767675553097
 40
0.4184160071084252
 40
0.5606642662899155
 40
0.7092176730728893
 40
0.856276653465948
 40
1.0
 40
1.0
 40
1.0
 40
1.0
 10
56.42775009616342
 20
58.23105738731625
 30
0.0
 10
55.55705114130122
 20
58.25820106770727
 30
0.0
 10
53.7957842293477
 20
58.3131078364295
 30
0.0
 10
51.16394521529421
 20
58.83627023778787
 30
0.0
 10
48.70496634595098
 20
60.02770916960924
 30
0.0
 10
46.65230855136562
 20
61.92221452828889
 30
0.0
 10
45.24511528310132
 20
64.37558578637854
 30
0.0
 10
44.56731203878866
 20
67.11822817787453
 30
0.0
 10
44.49408903676852
 20
68.96926609358428
 30
0.0
 10
44.45789751507319
 20
69.88416820135203
 30
0.0
  0
LINE
  5
A8
330
1F
100
AcDbEntity
  8
0
  6
Continuous
 62
     7
370
    25
100
AcDbLine
 10
57.0941535923
 20
58.2184866093
 30
0.0
 11
56.4277500962
 21
58.2310573873
 31
0.0
  0
LINE
  5
A9
330
1F
100
AcDbEntity
  8
0
  6
Continuous
 62
     7
370
    25
100
AcDbLine
 10
99.1578975151
 20
58.2184866093
 30
0.0
 11
57.0941535923
 21
58.2184866093
 31
0.0
  0
LINE
  5
AA
330
1F
100
AcDbEntity
  8
0
  6
Continuous
 62
     7
370
    25
100
AcDbLine
 10
99.1578975151
 20
58.2184866093
 30
0.0
 11
99.1578975151
 21
49.968486608
 31
0.0
  0
ARC
  5
AB
330
1F
100
AcDbEntity
  8
0
  6
Continuous
 62
     7
370
    25
100
AcDbCircle
 10
106.1578975151
 20
49.968486608
 30
0.0
 40
7.000000000000036
100
AcDbArc
 50
180.0
 51
270.0
  0
LINE
  5
AC
330
1F
100
AcDbEntity
  8
0
  6
Continuous
 62
     7
370
    25
100
AcDbLine
 10
106.1578975151
 20
42.968486608
 30
0.0
 11
160.1578975151
 21
42.968486608
 31
0.0
  0
ARC
  5
AD
330
1F
100
AcDbEntity
  8
0
  6
Continuous
 62
     7
370
    25
100
AcDbCircle
 10
160.1578975151
 20
49.968486608
 30
0.0
 40
7.000000000000028
100
AcDbArc
 50
270.0
 51
0.0
  0
SPLINE
  5
AE
330
1F
100
AcDbEntity
  8
0
  6
Continuous
 62
     7
370
    25
100
AcDbSpline
210
0.0
220
0.0
230
1.0
 70
     8
 71
     3
 72
    14
 73
    10
 74
     0
 42
0.000000001
 43
0.00000001
 40
0.0
 40
0.0
 40
0.0
 40
0.0
 40
0.1380746992924358
 40
0.2784481967170379
 40
0.4197915557279513
 40
0.5619371036730186
 40
0.7100896944746707
 40
0.8565075373988902
 40
1.0
 40
1.0
 40
1.0
 40
1.0
 10
180.1578975150732
 20
69.70070458841455
 30
0.0
 10
180.1116426308635
 20
68.831177821658
 30
0.0
 10
180.0183627674018
 20
67.07764758446534
 30
0.0
 10
179.3858728583482
 20
64.48488256686531
 30
0.0
 10
178.0897475512194
 20
62.10964917565981
 30
0.0
 10
176.1203216485032
 20
60.17543212892377
 30
0.0
 10
173.6401349306539
 20
58.89627839202266
 30
0.0
 10
170.9173757433291
 20
58.31192587373585
 30
0.0
 10
169.0899112713061
 20
58.26101340352918
 30
0.0
 10
168.1853991777072
 20
58.23581403811226
 30
0.0
  0
LINE
  5
AF
330
1F
100
AcDbEntity
  8
0
  6
Continuous
 62
     7
370
    25
100
AcDbLine
 10
180.1578975151
 20
250.3487448365
 30
0.0
 11
180.1578975151
 21
69.7007045884
 31
0.0
  0
SPLINE
  5
B0
330
1F
100
AcDbEntity
  8
0
  6
Continuous
 62
     7
370
    25
100
AcDbSpline
210
0.0
220
0.0
230
1.0
 70
     8
 71
     3
 72
    14
 73
    10
 74
     0
 42
0.000000001
 43
0.00000001
 40
0.0
 40
0.0
 40
0.0
 40
0.0
 40
0.1393097946999832
 40
0.27839707815496
 40
0.4186188905833764
 40
0.5586323981128616
 40
0.705512683055532
 40
0.8527554276993108
 40
1.0
 40
1.0
 40
1.0
 40
1.0
 10
168.1786427353167
 20
262.3784866078036
 30
0.0
 10
169.0832722637395
 20
262.3553432531255
 30
0.0
 10
170.8910864096721
 20
262.3090935092724
 30
0.0
 10
173.553910008573
 20
261.6790266170962
 30
0.0
 10
176.0237109274395
 20
260.4717643380196
 30
0.0
 10
178.0747643601677
 20
258.5430107155971
 30
0.0
 10
179.4471482785366
 20
256.0348505811648
 30
0.0
 10
180.0830488967817
 20
253.2149745829521
 30
0.0
 10
180.1329478724144
 20
251.304158704979
 30
0.0
 10
180.1578975150732
 20
250.3487448365082
 30
0.0
  0
LINE
  5
B1
330
1F
100
AcDbEntity
  8
0
  6
Continuous
 62
     7
370
    25
100
AcDbLine
 10
56.437180226
 20
262.3784866083
 30
0.0
 11
168.1786427353
 21
262.3784866078
 31
0.0
  0
SPLINE
  5
B2
330
1F
100
AcDbEntity
  8
0
  6
Continuous
 62
     7
370
    25
100
AcDbSpline
210
0.0
220
0.0
230
1.0
 70
     8
 71
     3
 72
    14
 73
    10
 74
     0
 42
0.000000001
 43
0.00000001
 40
0.0
 40
0.0
 40
0.0
 40
0.0
 40
0.1397969356060978
 40
0.2797445164853112
 40
0.4195923732155687
 40
0.559365074724165
 40
0.7062394960903376
 40
0.8532612205433817
 40
1.0
 40
1.0
 40
1.0
 40
1.0
 10
44.45789751507319
 20
250.3487448365082
 30
0.0
 10
44.47908658818287
 20
251.2560288953326
 30
0.0
 10
44.52148756776184
 20
253.0715747029018
 30
0.0
 10
45.08509856549883
 20
255.7596143935478
 30
0.0
 10
46.32908586388395
 20
258.2185886198335
 30
0.0
 10
48.25848129833138
 20
260.262225897517
 30
0.0
 10
50.77252212377495
 20
261.615132209879
 30
0.0
 10
53.57688489457566
 20
262.2908262163177
 30
0.0
 10
55.48436086475052
 20
262.3492852465752
 30
0.0
 10
56.43718022603662
 20
262.3784866083446
 30
0.0
  0
LINE
  5
B3
330
1F
100
AcDbEntity
  8
0
  6
Continuous
 62
     7
370
    25
100
AcDbLine
 10
44.4578975151
 20
69.8841682014
 30
0.0
 11
44.4578975151
 21
250.3487448365
 31
0.0
  0
CIRCLE
  5
B4
330
1F
100
AcDbEntity
  8
0
  6
Continuous
 62
     7
370
    25
100
AcDbCircle
 10
38.2078975151
 20
42.938486608
 30
0.0
 40
1.0
  0
CIRCLE
  5
B5
330
1F
100
AcDbEntity
  8
0
  6
Continuous
 62
     7
370
    25
100
AcDbCircle
 10
38.2078975151
 20
269.8784866083
 30
0.0
 40
1.0
  0
CIRCLE
  5
B6
330
1F
100
AcDbEntity
  8
0
  6
Continuous
 62
     7
370
    25
100
AcDbCircle
 10
186.4078975151
 20
269.8784866083
 30
0.0
 40
1.0
  0
CIRCLE
  5
B7
330
1F
100
AcDbEntity
  8
0
  6
Continuous
 62
     7
370
    25
100
AcDbCircle
 10
186.4078975151
 20
42.938486608
 30
0.0
 40
1.0
  0
LINE
  5
B8
330
1F
100
AcDbEntity
  8
0
  6
Continuous
 62
     7
370
    25
100
AcDbLine
 10
168.1853991777
 20
58.2358140381
 30
0.0
 11
167.1578975151
 21
58.2219282587
 31
0.0
  0
LINE
  5
B9
330
1F
100
AcDbEntity
  8
0
  6
Continuous
 62
     7
370
    25
100
AcDbLine
 10
167.1578975151
 20
58.2219282587
 30
0.0
 11
167.1578975151
 21
49.968486608
 31
0.0
  0
LINE
  5
BA
330
1F
100
AcDbEntity
  8
0
  6
Continuous
 62
     7
370
    25
100
AcDbLine
 10
134.1578975151
 20
49.968486608
 30
0.0
 11
134.1578975151
 21
54.7665711682
 31
0.0
  0
LINE
  5
BB
330
1F
100
AcDbEntity
  8
0
  6
Continuous
 62
     7
370
    25
100
AcDbLine
 10
134.1578975151
 20
55.6704020505
 30
0.0
 11
134.1578975151
 21
58.2184866093
 31
0.0
  0
ARC
  5
BC
330
1F
100
AcDbEntity
  8
0
  6
Continuous
 62
     7
370
    25
100
AcDbCircle
 10
135.160779579
 20
55.2184866093
 30
0.0
 40
1.099999999999994
100
AcDbArc
 50
155.7428757619
 51
204.2571242381
  0
ARC
  5
BD
330
1F
100
AcDbEntity
  8
0
  6
Continuous
 62
     7
370
    25
100
AcDbCircle
 10
127.1578975151
 20
49.968486608
 30
0.0
 40
7.000000000000014
100
AcDbArc
 50
270.0
 51
0.0
  0
LINE
  5
BE
330
1F
100
AcDbEntity
  8
0
  6
Continuous
 62
     7
370
    25
100
AcDbLine
 10
134.1578975151
 20
58.2184866093
 30
0.0
 11
166.9032268663
 21
58.2184866093
 31
0.0
  0
LINE
  5
BF
330
1F
100
AcDbEntity
  8
0
  6
Continuous
 62
     7
370
    25
100
AcDbLine
 10
166.9032268663
 20
58.2184866093
 30
0.0
 11
167.1578975151
 21
58.2219282587
 31
0.0
  0
LINE
  5
C0
330
1F
100
AcDbEntity
  8
0
  6
Continuous
 62
     7
370
    25
100
AcDbLine
 10
134.1578975151
 20
58.2184866093
 30
0.0
 11
99.1578975151
 21
58.2184866093
 31
0.0
  0
DIMENSION
  5
C1
330
1F
100
AcDbEntity
  8
LEVEL0
100
AcDbDimension
  2
_D
 10
186.4078975151
 20
31.4671896633
 30
0.0
 11
114.6513998804
 21
31.4671896633
 31
0.0
 70
   160
  1
<>
 71
     2
 42
-1.0
  3
SLDDIMSTYLE0
100
AcDbAlignedDimension
 13
38.2078975151
 23
39.438486608
 33
0.0
 14
186.4078975151
 24
39.438486608
 34
0.0
100
AcDbRotatedDimension
  0
DIMENSION
  5
DD
330
1F
100
AcDbEntity
  8
LEVEL0
100
AcDbDimension
  2
_D_1
 10
26.0903581794
 20
269.8784866083
 30
0.0
 11
26.0903581794
 21
160.3565985132
 31
0.0
 70
   160
  1
<>
 71
     2
 42
-1.0
  3
SLDDIMSTYLE0
100
AcDbAlignedDimension
 13
34.7078975151
 23
42.938486608
 33
0.0
 14
34.7078975151
 24
269.8784866083
 34
0.0
 50
90.0
100
AcDbRotatedDimension
  0
DIMENSION
  5
F0
330
1F
100
AcDbEntity
  8
LEVEL0
100
AcDbDimension
  2
_D_2
 10
180.1578975151
 20
162.5895743955
 30
0.0
 11
121.1627019448
 21
162.5895743955
 31
0.0
 70
   160
  1
<>\PROUTE THRU
 71
     2
 42
-1.0
  3
SLDDIMSTYLE1
100
AcDbAlignedDimension
 13
44.4578975151
 23
250.3487448365
 33
0.0
 14
180.1578975151
 24
250.3487448365
 34
0.0
 50
0.0
100
AcDbRotatedDimension
  0
DIMENSION
  5
10B
330
1F
100
AcDbEntity
  8
LEVEL0
100
AcDbDimension
  2
_D_3
 10
135.243686167
 20
58.2184866095
 30
0.0
 11
135.2436861677
 21
194.1323314607
 31
0.0
 70
   160
  1
<>\PROUTE THRU
 71
     2
 42
-1.0
  3
SLDDIMSTYLE2
100
AcDbAlignedDimension
 13
168.1786427353
 23
262.3784866078
 33
0.0
 14
166.9032268663
 24
58.2184866093
 34
0.0
 50
90.0
100
AcDbRotatedDimension
  0
DIMENSION
  5
126
330
1F
100
AcDbEntity
  8
LEVEL0
100
AcDbDimension
  2
_D_4
 10
134.1578975151
 20
71.0880891251
 30
0.0
 11
77.1885183833
 21
71.0880891251
 31
0.0
 70
   160
  1
<>\PROUTE TO DEPTH 1.2mm \POFF FRONT SURFACE
 71
     2
 42
-1.0
  3
SLDDIMSTYLE3
100
AcDbAlignedDimension
 13
99.1578975151
 23
58.2184866093
 33
0.0
 14
134.1578975151
 24
54.7665711682
 34
0.0
 50
0.0
100
AcDbRotatedDimension
  0
DIMENSION
  5
13B
330
1F
100
AcDbEntity
  8
LEVEL0
100
AcDbDimension
  2
_D_5
 10
180.1578975151
 20
104.1903974508
 30
0.0
 11
114.6513998804
 21
104.1903974508
 31
0.0
 70
   160
  1
<>
 71
     2
 42
-1.0
  3
SLDDIMSTYLE3
100
AcDbAlignedDimension
 13
99.1578975151
 23
58.2184866093
 33
0.0
 14
180.1578975151
 24
69.7007045884
 34
0.0
 50
0.0
100
AcDbRotatedDimension
  0
DIMENSION
  5
14D
330
1F
100
AcDbEntity
  8
LEVEL0
100
AcDbDimension
  2
_D_6
 10
154.6204329954
 20
58.2184866093
 30
0.0
 11
154.6204329954
 21
76.0689847469
 31
0.0
 70
   160
  1
<>\PROUTE TO DEPTH 3mm \POFF FRONT SURFACE
 71
     2
 42
-1.0
  3
SLDDIMSTYLE4
100
AcDbAlignedDimension
 13
160.1578975151
 23
42.968486608
 33
0.0
 14
166.9032268663
 24
58.2184866093
 34
0.0
 50
90.0
100
AcDbRotatedDimension
  0
DIMENSION
  5
160
330
1F
100
AcDbEntity
  8
LEVEL0
100
AcDbDimension
  2
_D_7
 10
44.4578975151
 20
104.1903974508
 30
0.0
 11
33.0757178359
 21
104.1903974508
 31
0.0
 70
   160
  1
<>
 71
     2
 42
-1.0
  3
SLDDIMSTYLE0
100
AcDbAlignedDimension
 13
38.2078975151
 23
46.438486608
 33
0.0
 14
44.4578975151
 24
69.8841682014
 34
0.0
 50
0.0
100
AcDbRotatedDimension
  0
DIMENSION
  5
173
330
1F
100
AcDbEntity
  8
LEVEL0
100
AcDbDimension
  2
_D_8
 10
191.1725600343
 20
262.3784866077
 30
0.0
 11
191.1725600343
 21
251.5234629995
 31
0.0
 70
   160
  1
<>
 71
     2
 42
-1.0
  3
SLDDIMSTYLE4
100
AcDbAlignedDimension
 13
41.7078975151
 23
269.8784866083
 33
0.0
 14
168.1786427353
 24
262.3784866078
 34
0.0
 50
90.0
100
AcDbRotatedDimension
  0
DIMENSION
  5
187
330
1F
100
AcDbEntity
  8
LEVEL0
100
AcDbDimension
  2
_D_9
 10
99.1578975151
 20
94.1737203414
 30
0.0
 11
114.6513998804
 21
94.1737203414
 31
0.0
 70
   160
  1
<>
 71
     2
 42
-1.0
  3
SLDDIMSTYLE3
100
AcDbAlignedDimension
 13
167.1578975151
 23
58.2219282587
 33
0.0
 14
99.1578975151
 24
58.2184866093
 34
0.0
 50
0.0
100
AcDbRotatedDimension
  0
INSERT
  5
1A3
330
1F
100
AcDbEntity
  8
LEVEL0
100
AcDbBlockReference
  2
SW_NOTE_0
 10
52.3778855877
 20
250.5886018648
 30
0.0
  0
INSERT
  5
1A9
330
1F
100
AcDbEntity
  8
LEVEL0
100
AcDbBlockReference
  2
SW_NOTE_0_1
 10
171.45362585
 20
254.5903829044
 30
0.0
  0
LEADER
  5
1AB
330
1F
100
AcDbEntity
  8
LEVEL0
100
AcDbLeader
  3
SLDDIMSTYLE5
 76
     2
 10
176.066206393
 20
260.2742010996
 30
0.0
 10
171.45362585
 20
254.5903829044
 30
0.0
  0
INSERT
  5
1B7
330
1F
100
AcDbEntity
  8
LEVEL0
100
AcDbBlockReference
  2
SW_CENTERMARKSYMBOL_0
 10
38.2078975151
 20
269.8784866083
 30
0.0
  0
INSERT
  5
1C3
330
1F
100
AcDbEntity
  8
LEVEL0
100
AcDbBlockReference
  2
SW_CENTERMARKSYMBOL_1
 10
186.4078975151
 20
269.8784866083
 30
0.0
  0
INSERT
  5
1CF
330
1F
100
AcDbEntity
  8
LEVEL0
100
AcDbBlockReference
  2
SW_CENTERMARKSYMBOL_2
 10
38.2078975151
 20
42.938486608
 30
0.0
  0
INSERT
  5
1DB
330
1F
100
AcDbEntity
  8
LEVEL0
100
AcDbBlockReference
  2
SW_CENTERMARKSYMBOL_3
 10
186.4078975151
 20
42.938486608
 30
0.0
  0
ENDSEC
  0
SECTION
  2
OBJECTS
  0
DICTIONARY
  5
C
330
0
100
AcDbDictionary
281
     1
  3
ACAD_GROUP
350
D
  3
ACAD_LAYOUT
350
1A
  3
ACAD_MLINESTYLE
350
17
  3
ACAD_PLOTSETTINGS
350
19
  3
ACAD_PLOTSTYLENAME
350
E
  3
ACAD_SCALELIST
350
47
  0
DICTIONARY
  5
D
102
{ACAD_REACTORS
330
C
102
}
330
C
100
AcDbDictionary
281
     1
  0
DICTIONARY
  5
1A
102
{ACAD_REACTORS
330
C
102
}
330
C
100
AcDbDictionary
281
     1
  3
Layout1
350
1E
  3
Layout2
350
26
  3
Model
350
22
  0
DICTIONARY
  5
17
102
{ACAD_REACTORS
330
C
102
}
330
C
100
AcDbDictionary
281
     1
  3
Standard
350
18
  0
DICTIONARY
  5
19
102
{ACAD_REACTORS
330
C
102
}
330
C
100
AcDbDictionary
281
     1
  0
ACDBDICTIONARYWDFLT
  5
E
102
{ACAD_REACTORS
330
C
102
}
330
C
100
AcDbDictionary
281
     1
  3
Normal
350
F
100
AcDbDictionaryWithDefault
340
F
  0
DICTIONARY
  5
47
102
{ACAD_REACTORS
330
C
102
}
330
C
100
AcDbDictionary
281
     1
  3
A0
350
48
  3
A1
350
49
  3
A2
350
4A
  3
A3
350
4B
  3
A4
350
4C
  3
A5
350
4D
  3
A6
350
4E
  3
A7
350
4F
  3
A8
350
50
  3
A9
350
51
  3
B0
350
52
  3
B1
350
53
  3
B2
350
54
  3
B3
350
55
  3
B4
350
56
  3
B5
350
57
  3
B6
350
58
  3
B7
350
59
  3
B8
350
5A
  3
B9
350
5B
  3
C0
350
5C
  3
C1
350
5D
  3
C2
350
5E
  3
C3
350
5F
  3
C4
350
60
  3
C5
350
61
  3
C6
350
62
  3
C7
350
63
  3
C8
350
64
  3
C9
350
65
  3
D0
350
66
  3
D1
350
67
  3
D2
350
68
  0
LAYOUT
  5
1E
102
{ACAD_REACTORS
330
1A
102
}
330
1A
100
AcDbPlotSettings
  1

  2
none_device
  4

  6

 40
0.0
 41
0.0
 42
0.0
 43
0.0
 44
0.0
 45
0.0
 46
0.0
 47
0.0
 48
0.0
 49
0.0
140
0.0
141
0.0
142
1.0
143
1.0
 70
   688
 72
     1
 73
     0
 74
     5
  7

 75
    16
147
1.0
148
0.0
149
0.0
100
AcDbLayout
  1
Layout1
 70
     1
 71
     1
 10
0.0
 20
0.0
 11
420.0
 21
297.0
 12
0.0
 22
0.0
 32
0.0
 14
1.0000000000E+20
 24
1.0000000000E+20
 34
1.0000000000E+20
 15
-1.0000000000E+20
 25
-1.0000000000E+20
 35
-1.0000000000E+20
146
0.0
 13
0.0
 23
0.0
 33
0.0
 16
1.0
 26
0.0
 36
0.0
 17
0.0
 27
1.0
 37
0.0
 76
     0
330
1B
  0
LAYOUT
  5
26
102
{ACAD_REACTORS
330
1A
102
}
330
1A
100
AcDbPlotSettings
  1

  2
none_device
  4

  6

 40
0.0
 41
0.0
 42
0.0
 43
0.0
 44
0.0
 45
0.0
 46
0.0
 47
0.0
 48
0.0
 49
0.0
140
0.0
141
0.0
142
1.0
143
1.0
 70
   688
 72
     1
 73
     0
 74
     5
  7

 75
    16
147
1.0
148
0.0
149
0.0
100
AcDbLayout
  1
Layout2
 70
     1
 71
     2
 10
0.0
 20
0.0
 11
0.0
 21
0.0
 12
0.0
 22
0.0
 32
0.0
 14
0.0
 24
0.0
 34
0.0
 15
0.0
 25
0.0
 35
0.0
146
0.0
 13
0.0
 23
0.0
 33
0.0
 16
1.0
 26
0.0
 36
0.0
 17
0.0
 27
1.0
 37
0.0
 76
     0
330
23
  0
LAYOUT
  5
22
102
{ACAD_REACTORS
330
1A
102
}
330
1A
100
AcDbPlotSettings
  1

  2
none_device
  4
Letter_(8.50_x_11.00_Inches)
  6

 40
6.35
 41
6.35
 42
6.35000508
 43
6.35000508
 44
215.9
 45
279.4
 46
0.0
 47
0.0
 48
0.0
 49
0.0
140
0.0
141
0.0
142
1.0
143
1.0
 70
  1712
 72
     1
 73
     0
 74
     0
  7

 75
     0
147
1.0
148
0.0
149
0.0
100
AcDbLayout
  1
Model
 70
     1
 71
     0
 10
0.0
 20
0.0
 11
210.0
 21
297.0
 12
0.0
 22
0.0
 32
0.0
 14
0.0
 24
0.0
 34
0.0
 15
210.0
 25
297.0
 35
0.0
146
0.0
 13
0.0
 23
0.0
 33
0.0
 16
1.0
 26
0.0
 36
0.0
 17
0.0
 27
1.0
 37
0.0
 76
     0
330
1F
331
29
  0
MLINESTYLE
  5
18
102
{ACAD_REACTORS
330
17
102
}
330
17
100
AcDbMlineStyle
  2
Standard
 70
     0
  3

 62
   256
 51
90.0
 52
90.0
 71
     2
 49
0.5
 62
   256
  6
BYLAYER
 49
-0.5
 62
   256
  6
BYLAYER
  0
ACDBPLACEHOLDER
  5
F
102
{ACAD_REACTORS
330
E
102
}
330
E
  0
SCALE
  5
48
102
{ACAD_REACTORS
330
47
102
}
330
47
100
AcDbScale
 70
     0
300
1:1
140
1.0
141
1.0
290
     1
  0
SCALE
  5
49
102
{ACAD_REACTORS
330
47
102
}
330
47
100
AcDbScale
 70
     0
300
1:2
140
1.0
141
2.0
290
     0
  0
SCALE
  5
4A
102
{ACAD_REACTORS
330
47
102
}
330
47
100
AcDbScale
 70
     0
300
1:4
140
1.0
141
4.0
290
     0
  0
SCALE
  5
4B
102
{ACAD_REACTORS
330
47
102
}
330
47
100
AcDbScale
 70
     0
300
1:5
140
1.0
141
5.0
290
     0
  0
SCALE
  5
4C
102
{ACAD_REACTORS
330
47
102
}
330
47
100
AcDbScale
 70
     0
300
1:8
140
1.0
141
8.0
290
     0
  0
SCALE
  5
4D
102
{ACAD_REACTORS
330
47
102
}
330
47
100
AcDbScale
 70
     0
300
1:10
140
1.0
141
10.0
290
     0
  0
SCALE
  5
4E
102
{ACAD_REACTORS
330
47
102
}
330
47
100
AcDbScale
 70
     0
300
1:16
140
1.0
141
16.0
290
     0
  0
SCALE
  5
4F
102
{ACAD_REACTORS
330
47
102
}
330
47
100
AcDbScale
 70
     0
300
1:20
140
1.0
141
20.0
290
     0
  0
SCALE
  5
50
102
{ACAD_REACTORS
330
47
102
}
330
47
100
AcDbScale
 70
     0
300
1:30
140
1.0
141
30.0
290
     0
  0
SCALE
  5
51
102
{ACAD_REACTORS
330
47
102
}
330
47
100
AcDbScale
 70
     0
300
1:40
140
1.0
141
40.0
290
     0
  0
SCALE
  5
52
102
{ACAD_REACTORS
330
47
102
}
330
47
100
AcDbScale
 70
     0
300
1:50
140
1.0
141
50.0
290
     0
  0
SCALE
  5
53
102
{ACAD_REACTORS
330
47
102
}
330
47
100
AcDbScale
 70
     0
300
1:100
140
1.0
141
100.0
290
     0
  0
SCALE
  5
54
102
{ACAD_REACTORS
330
47
102
}
330
47
100
AcDbScale
 70
     0
300
2:1
140
2.0
141
1.0
290
     0
  0
SCALE
  5
55
102
{ACAD_REACTORS
330
47
102
}
330
47
100
AcDbScale
 70
     0
300
4:1
140
4.0
141
1.0
290
     0
  0
SCALE
  5
56
102
{ACAD_REACTORS
330
47
102
}
330
47
100
AcDbScale
 70
     0
300
8:1
140
8.0
141
1.0
290
     0
  0
SCALE
  5
57
102
{ACAD_REACTORS
330
47
102
}
330
47
100
AcDbScale
 70
     0
300
10:1
140
10.0
141
1.0
290
     0
  0
SCALE
  5
58
102
{ACAD_REACTORS
330
47
102
}
330
47
100
AcDbScale
 70
     0
300
100:1
140
100.0
141
1.0
290
     0
  0
SCALE
  5
59
102
{ACAD_REACTORS
330
47
102
}
330
47
100
AcDbScale
 70
     0
300
1/128" = 1'-0"
140
0.0078125
141
12.0
290
     0
  0
SCALE
  5
5A
102
{ACAD_REACTORS
330
47
102
}
330
47
100
AcDbScale
 70
     0
300
1/64" = 1'-0"
140
0.015625
141
12.0
290
     0
  0
SCALE
  5
5B
102
{ACAD_REACTORS
330
47
102
}
330
47
100
AcDbScale
 70
     0
300
1/32" = 1'-0"
140
0.03125
141
12.0
290
     0
  0
SCALE
  5
5C
102
{ACAD_REACTORS
330
47
102
}
330
47
100
AcDbScale
 70
     0
300
1/16" = 1'-0"
140
0.0625
141
12.0
290
     0
  0
SCALE
  5
5D
102
{ACAD_REACTORS
330
47
102
}
330
47
100
AcDbScale
 70
     0
300
3/32" = 1'-0"
140
0.09375
141
12.0
290
     0
  0
SCALE
  5
5E
102
{ACAD_REACTORS
330
47
102
}
330
47
100
AcDbScale
 70
     0
300
1/8" = 1'-0"
140
0.125
141
12.0
290
     0
  0
SCALE
  5
5F
102
{ACAD_REACTORS
330
47
102
}
330
47
100
AcDbScale
 70
     0
300
3/16" = 1'-0"
140
0.1875
141
12.0
290
     0
  0
SCALE
  5
60
102
{ACAD_REACTORS
330
47
102
}
330
47
100
AcDbScale
 70
     0
300
1/4" = 1'-0"
140
0.25
141
12.0
290
     0
  0
SCALE
  5
61
102
{ACAD_REACTORS
330
47
102
}
330
47
100
AcDbScale
 70
     0
300
3/8" = 1'-0"
140
0.375
141
12.0
290
     0
  0
SCALE
  5
62
102
{ACAD_REACTORS
330
47
102
}
330
47
100
AcDbScale
 70
     0
300
1/2" = 1'-0"
140
0.5
141
12.0
290
     0
  0
SCALE
  5
63
102
{ACAD_REACTORS
330
47
102
}
330
47
100
AcDbScale
 70
     0
300
3/4" = 1'-0"
140
0.75
141
12.0
290
     0
  0
SCALE
  5
64
102
{ACAD_REACTORS
330
47
102
}
330
47
100
AcDbScale
 70
     0
300
1" = 1'-0"
140
1.0
141
12.0
290
     0
  0
SCALE
  5
65
102
{ACAD_REACTORS
330
47
102
}
330
47
100
AcDbScale
 70
     0
300
1-1/2" = 1'-0"
140
1.5
141
12.0
290
     0
  0
SCALE
  5
66
102
{ACAD_REACTORS
330
47
102
}
330
47
100
AcDbScale
 70
     0
300
3" = 1'-0"
140
3.0
141
12.0
290
     0
  0
SCALE
  5
67
102
{ACAD_REACTORS
330
47
102
}
330
47
100
AcDbScale
 70
     0
300
6" = 1'-0"
140
6.0
141
12.0
290
     0
  0
SCALE
  5
68
102
{ACAD_REACTORS
330
47
102
}
330
47
100
AcDbScale
 70
     0
300
1'-0" = 1'-0"
140
12.0
141
12.0
290
     0
  0
ENDSEC
  0
EOF
