  0
SECTION
  2
HEADER
  9
$ACADVER
  1
AC1009
  9
$DWGCODEPAGE
  3
ansi_1255
  9
$INSBASE
 10
0.0
 20
0.0
 30
0.0
  9
$EXTMIN
 10
0.0
 20
0.0
 30
0.0
  9
$EXTMAX
 10
210.0
 20
297.0
 30
0.0
  9
$LIMMIN
 10
0.0
 20
0.0
  9
$LIMMAX
 10
210.0
 20
297.0
  9
$ORTHOMODE
 70
     0
  9
$REGENMODE
 70
     1
  9
$FILLMODE
 70
     1
  9
$QTEXTMODE
 70
     0
  9
$MIRRTEXT
 70
     1
  9
$DRAGMODE
 70
     2
  9
$LTSCALE
 40
1.0
  9
$OSMODE
 70
    37
  9
$ATTMODE
 70
     1
  9
$TEXTSIZE
 40
2.0
  9
$TRACEWID
 40
1.0
  9
$TEXTSTYLE
  7
STANDARD
  9
$CLAYER
  8
0
  9
$CELTYPE
  6
BYLAYER
  9
$CECOLOR
 62
   256
  9
$DIMSCALE
 40
1.0
  9
$DIMASZ
 40
2.0
  9
$DIMEXO
 40
1.0
  9
$DIMDLI
 40
3.75
  9
$DIMRND
 40
0.0
  9
$DIMDLE
 40
0.0
  9
$DIMEXE
 40
1.0
  9
$DIMTP
 40
0.0
  9
$DIMTM
 40
0.0
  9
$DIMTXT
 40
2.0
  9
$DIMCEN
 40
2.5
  9
$DIMTSZ
 40
0.0
  9
$DIMTOL
 70
     0
  9
$DIMLIM
 70
     0
  9
$DIMTIH
 70
     1
  9
$DIMTOH
 70
     1
  9
$DIMSE1
 70
     0
  9
$DIMSE2
 70
     0
  9
$DIMTAD
 70
     1
  9
$DIMZIN
 70
     0
  9
$DIMBLK
  1

  9
$DIMASO
 70
     1
  9
$DIMSHO
 70
     1
  9
$DIMPOST
  1

  9
$DIMAPOST
  1

  9
$DIMALT
 70
     0
  9
$DIMALTD
 70
     3
  9
$DIMALTF
 40
0.0393700787
  9
$DIMLFAC
 40
1.0
  9
$DIMTOFL
 70
     1
  9
$DIMTVP
 40
0.0
  9
$DIMTIX
 70
     0
  9
$DIMSOXD
 70
     0
  9
$DIMSAH
 70
     0
  9
$DIMBLK1
  1

  9
$DIMBLK2
  1

  9
$DIMSTYLE
  2
ISO-25
  9
$DIMCLRD
 70
     0
  9
$DIMCLRE
 70
     0
  9
$DIMCLRT
 70
     0
  9
$DIMTFAC
 40
1.0
  9
$DIMGAP
 40
1.524
  9
$LUNITS
 70
     2
  9
$LUPREC
 70
     2
  9
$SKETCHINC
 40
1.0
  9
$FILLETRAD
 40
10.0
  9
$AUNITS
 70
     0
  9
$AUPREC
 70
     2
  9
$MENU
  1
.
  9
$ELEVATION
 40
0.0
  9
$PELEVATION
 40
0.0
  9
$THICKNESS
 40
0.0
  9
$LIMCHECK
 70
     0
  9
$CHAMFERA
 40
0.0
  9
$CHAMFERB
 40
0.0
  9
$SKPOLY
 70
     0
  9
$TDCREATE
 40
2458068.438570879
  9
$TDUPDATE
 40
2458068.438572141
  9
$TDINDWG
 40
0.0000000116
  9
$TDUSRTIMER
 40
0.0000000116
  9
$USRTIMER
 70
     1
  9
$ANGBASE
 50
0.0
  9
$ANGDIR
 70
     0
  9
$PDMODE
 70
     0
  9
$PDSIZE
 40
-1.0
  9
$PLINEWID
 40
0.0
  9
$COORDS
 70
     1
  9
$SPLFRAME
 70
     0
  9
$SPLINETYPE
 70
     6
  9
$SPLINESEGS
 70
     8
  9
$ATTDIA
 70
     0
  9
$ATTREQ
 70
     1
  9
$HANDLING
 70
     1
  9
$HANDSEED
  5
181
  9
$SURFTAB1
 70
     6
  9
$SURFTAB2
 70
     6
  9
$SURFTYPE
 70
     6
  9
$SURFU
 70
     6
  9
$SURFV
 70
     6
  9
$UCSNAME
  2

  9
$UCSORG
 10
0.0
 20
0.0
 30
0.0
  9
$UCSXDIR
 10
1.0
 20
0.0
 30
0.0
  9
$UCSYDIR
 10
0.0
 20
1.0
 30
0.0
  9
$PUCSNAME
  2

  9
$PUCSORG
 10
0.0
 20
0.0
 30
0.0
  9
$PUCSXDIR
 10
1.0
 20
0.0
 30
0.0
  9
$PUCSYDIR
 10
0.0
 20
1.0
 30
0.0
  9
$USERI1
 70
     0
  9
$USERI2
 70
     0
  9
$USERI3
 70
     0
  9
$USERI4
 70
     0
  9
$USERI5
 70
     0
  9
$USERR1
 40
0.0
  9
$USERR2
 40
0.0
  9
$USERR3
 40
0.0
  9
$USERR4
 40
0.0
  9
$USERR5
 40
0.0
  9
$WORLDVIEW
 70
     1
  9
$SHADEDGE
 70
     3
  9
$SHADEDIF
 70
    70
  9
$TILEMODE
 70
     1
  9
$MAXACTVP
 70
    64
  9
$PLIMCHECK
 70
     0
  9
$PEXTMIN
 10
1.0000000000E+20
 20
1.0000000000E+20
 30
1.0000000000E+20
  9
$PEXTMAX
 10
-1.0000000000E+20
 20
-1.0000000000E+20
 30
-1.0000000000E+20
  9
$PLIMMIN
 10
0.0
 20
0.0
  9
$PLIMMAX
 10
420.0
 20
297.0
  9
$UNITMODE
 70
     0
  9
$VISRETAIN
 70
     1
  9
$PLINEGEN
 70
     0
  9
$PSLTSCALE
 70
     1
  0
ENDSEC
  0
SECTION
  2
TABLES
  0
TABLE
  2
VPORT
 70
     1
  0
VPORT
  2
*ACTIVE
 70
     0
 10
0.0
 20
0.0
 11
1.0
 21
1.0
 12
105.0
 22
148.5
 13
0.0
 23
0.0
 14
10.0
 24
10.0
 15
10.0
 25
10.0
 16
0.0
 26
0.0
 36
1.0
 17
0.0
 27
0.0
 37
0.0
 40
297.0
 41
0.7070707071
 42
50.0
 43
0.0
 44
0.0
 50
0.0
 51
0.0
 71
     0
 72
  2000
 73
     1
 74
     3
 75
     0
 76
     0
 77
     0
 78
     0
  0
ENDTAB
  0
TABLE
  2
LTYPE
 70
     6
  0
LTYPE
  2
CONTINUOUS
 70
     0
  3
Solid line
 72
    65
 73
     0
 40
0.0
  0
LTYPE
  2
HIDDEN
 70
     0
  3
Hidden __ __ __ __ __ __ __ __ __ __ __ __ __ __
 72
    65
 73
     2
 40
1.905
 49
1.27
 49
-0.635
  0
LTYPE
  2
PHANTOM
 70
     0
  3
Phantom ______  __  __  ______  __  __  ______
 72
    65
 73
     6
 40
12.7
 49
6.35
 49
-1.27
 49
1.27
 49
-1.27
 49
1.27
 49
-1.27
  0
LTYPE
  2
CENTER
 70
     0
  3
Center ____ _ ____ _ ____ _ ____ _ ____ _ ____
 72
    65
 73
     4
 40
10.16
 49
6.35
 49
-1.27
 49
1.27
 49
-1.27
  0
LTYPE
  2
CENTERX2
 70
     0
  3
Center (2x) ________  __  ________  __  _____
 72
    65
 73
     4
 40
20.32
 49
12.7
 49
-2.54
 49
2.54
 49
-2.54
  0
LTYPE
  2
DOT2
 70
     0
  3
Dot (.5x) ........................................
 72
    65
 73
     2
 40
0.635
 49
0.0
 49
-0.635
  0
ENDTAB
  0
TABLE
  2
LAYER
 70
    53
  0
LAYER
  2
0
 70
     0
 62
     7
  6
CONTINUOUS
  0
LAYER
  2
SLD-0
 70
     0
 62
     7
  6
CONTINUOUS
  0
LAYER
  2
LEVEL0
 70
     0
 62
     7
  6
CONTINUOUS
  0
LAYER
  2
1
 70
     0
 62
     7
  6
CONTINUOUS
  0
LAYER
  2
2
 70
     0
 62
     7
  6
CONTINUOUS
  0
LAYER
  2
3
 70
     0
 62
     7
  6
CONTINUOUS
  0
LAYER
  2
4
 70
     0
 62
     7
  6
CONTINUOUS
  0
LAYER
  2
5
 70
     0
 62
     7
  6
CONTINUOUS
  0
LAYER
  2
6
 70
     0
 62
     7
  6
CONTINUOUS
  0
LAYER
  2
7
 70
     0
 62
     7
  6
CONTINUOUS
  0
LAYER
  2
8
 70
     0
 62
     7
  6
CONTINUOUS
  0
LAYER
  2
9
 70
     0
 62
     7
  6
CONTINUOUS
  0
LAYER
  2
10
 70
     0
 62
     7
  6
CONTINUOUS
  0
LAYER
  2
11
 70
     0
 62
     7
  6
CONTINUOUS
  0
LAYER
  2
12
 70
     0
 62
     7
  6
CONTINUOUS
  0
LAYER
  2
13
 70
     0
 62
     7
  6
CONTINUOUS
  0
LAYER
  2
14
 70
     0
 62
     7
  6
CONTINUOUS
  0
LAYER
  2
15
 70
     0
 62
     7
  6
CONTINUOUS
  0
LAYER
  2
16
 70
     0
 62
     7
  6
CONTINUOUS
  0
LAYER
  2
17
 70
     0
 62
     7
  6
CONTINUOUS
  0
LAYER
  2
18
 70
     0
 62
     7
  6
CONTINUOUS
  0
LAYER
  2
19
 70
     0
 62
     7
  6
CONTINUOUS
  0
LAYER
  2
20
 70
     0
 62
     7
  6
CONTINUOUS
  0
LAYER
  2
21
 70
     0
 62
     7
  6
CONTINUOUS
  0
LAYER
  2
22
 70
     0
 62
     7
  6
CONTINUOUS
  0
LAYER
  2
23
 70
     0
 62
     7
  6
CONTINUOUS
  0
LAYER
  2
24
 70
     0
 62
     7
  6
CONTINUOUS
  0
LAYER
  2
25
 70
     0
 62
     7
  6
CONTINUOUS
  0
LAYER
  2
26
 70
     0
 62
     7
  6
CONTINUOUS
  0
LAYER
  2
27
 70
     0
 62
     7
  6
CONTINUOUS
  0
LAYER
  2
28
 70
     0
 62
     7
  6
CONTINUOUS
  0
LAYER
  2
29
 70
     0
 62
     7
  6
CONTINUOUS
  0
LAYER
  2
30
 70
     0
 62
     7
  6
CONTINUOUS
  0
LAYER
  2
31
 70
     0
 62
     7
  6
CONTINUOUS
  0
LAYER
  2
32
 70
     0
 62
     7
  6
CONTINUOUS
  0
LAYER
  2
33
 70
     0
 62
     7
  6
CONTINUOUS
  0
LAYER
  2
34
 70
     0
 62
     7
  6
CONTINUOUS
  0
LAYER
  2
35
 70
     0
 62
     7
  6
CONTINUOUS
  0
LAYER
  2
36
 70
     0
 62
     7
  6
CONTINUOUS
  0
LAYER
  2
37
 70
     0
 62
     7
  6
CONTINUOUS
  0
LAYER
  2
38
 70
     0
 62
     7
  6
CONTINUOUS
  0
LAYER
  2
39
 70
     0
 62
     7
  6
CONTINUOUS
  0
LAYER
  2
40
 70
     0
 62
     7
  6
CONTINUOUS
  0
LAYER
  2
41
 70
     0
 62
     7
  6
CONTINUOUS
  0
LAYER
  2
42
 70
     0
 62
     7
  6
CONTINUOUS
  0
LAYER
  2
43
 70
     0
 62
     7
  6
CONTINUOUS
  0
LAYER
  2
44
 70
     0
 62
     7
  6
CONTINUOUS
  0
LAYER
  2
45
 70
     0
 62
     7
  6
CONTINUOUS
  0
LAYER
  2
46
 70
     0
 62
     7
  6
CONTINUOUS
  0
LAYER
  2
47
 70
     0
 62
     7
  6
CONTINUOUS
  0
LAYER
  2
48
 70
     0
 62
     7
  6
CONTINUOUS
  0
LAYER
  2
49
 70
     0
 62
     7
  6
CONTINUOUS
  0
LAYER
  2
50
 70
     0
 62
     7
  6
CONTINUOUS
  0
ENDTAB
  0
TABLE
  2
STYLE
 70
     1
  0
STYLE
  2
STANDARD
 70
     0
 40
0.0
 41
1.0
 50
0.0
 71
     0
 42
2.0
  3
txt
  4

  0
ENDTAB
  0
TABLE
  2
VIEW
 70
     0
  0
ENDTAB
  0
TABLE
  2
UCS
 70
     0
  0
ENDTAB
  0
TABLE
  2
APPID
 70
     1
  0
APPID
  2
ACAD
 70
     0
  0
ENDTAB
  0
TABLE
  2
DIMSTYLE
 70
     4
  0
DIMSTYLE
  2
ISO-25
 70
     0
  3

  4

  5

  6

  7

 40
1.0
 41
2.5
 42
0.625
 43
3.75
 44
1.25
 45
0.0
 46
0.0
 47
0.0
 48
0.0
140
2.5
141
2.5
142
0.0
143
0.0393700787
144
1.0
145
0.0
146
1.0
147
0.625
 71
     0
 72
     0
 73
     0
 74
     0
 75
     0
 76
     0
 77
     1
 78
     8
170
     0
171
     3
172
     1
173
     0
174
     0
175
     0
176
     0
177
     0
178
     0
  0
DIMSTYLE
  2
SLDDIMSTYLE0
 70
     0
  3

  4

  5

  6
CLOSED
  7
CLOSED
 40
1.0
 41
2.0
 42
0.0625
 43
0.38
 44
0.0
 45
0.000000001
 46
0.0
 47
0.3
 48
0.2
140
2.0
141
0.09
142
0.0
143
0.0393700787
144
1.0
145
0.0
146
1.0
147
0.5
 71
     1
 72
     0
 73
     0
 74
     0
 75
     0
 76
     0
 77
     1
 78
    12
170
     1
171
     2
172
     0
173
     1
174
     0
175
     0
176
     0
177
     0
178
     0
  0
DIMSTYLE
  2
SLDDIMSTYLE1
 70
     0
  3

  4

  5

  6
CLOSED
  7
CLOSED
 40
1.0
 41
2.0
 42
0.0625
 43
0.38
 44
0.0
 45
0.000000001
 46
0.0
 47
0.0
 48
0.0
140
2.0
141
0.0
142
0.0
143
25.4
144
1.0
145
0.0
146
1.0
147
0.5
 71
     0
 72
     0
 73
     0
 74
     0
 75
     0
 76
     0
 77
     1
 78
    12
170
     0
171
     2
172
     0
173
     1
174
     0
175
     0
176
     0
177
     0
178
     0
  0
DIMSTYLE
  2
SLDDIMSTYLE2
 70
     0
  3

  4

  5

  6
CLOSED
  7
CLOSED
 40
1.0
 41
2.0
 42
0.0625
 43
0.38
 44
0.0
 45
0.000000001
 46
0.0
 47
0.0
 48
0.0
140
2.0
141
0.09
142
0.0
143
0.0393700787
144
1.0
145
0.0
146
1.0
147
0.5
 71
     0
 72
     0
 73
     0
 74
     0
 75
     0
 76
     0
 77
     1
 78
    12
170
     1
171
     2
172
     0
173
     1
174
     0
175
     0
176
     0
177
     0
178
     0
  0
ENDTAB
  0
ENDSEC
  0
SECTION
  2
BLOCKS
  0
BLOCK
  8
0
  2
$MODEL_SPACE
 70
     0
 10
0.0
 20
0.0
 30
0.0
  3
$MODEL_SPACE
  1

  0
ENDBLK
  5
21
  8
0
  0
BLOCK
 67
     1
  8
0
  2
$PAPER_SPACE
 70
     0
 10
0.0
 20
0.0
 30
0.0
  3
$PAPER_SPACE
  1

  0
ENDBLK
  5
1D
 67
     1
  8
0
  0
BLOCK
  8
0
  2
_CLOSED
 70
     0
 10
0.0
 20
0.0
 30
0.0
  3
_CLOSED
  1

  0
LINE
  5
B8
  8
0
  6
BYBLOCK
 62
     0
 10
-1.0
 20
0.166667
 30
0.0
 11
0.0
 21
0.0
 31
0.0
  0
LINE
  5
B9
  8
0
  6
BYBLOCK
 62
     0
 10
0.0
 20
0.0
 30
0.0
 11
-1.0
 21
-0.166667
 31
0.0
  0
LINE
  5
BA
  8
0
  6
BYBLOCK
 62
     0
 10
-1.0
 20
0.166667
 30
0.0
 11
-1.0
 21
-0.166667
 31
0.0
  0
LINE
  5
BB
  8
0
  6
BYBLOCK
 62
     0
 10
0.0
 20
0.0
 30
0.0
 11
-1.0
 21
0.0
 31
0.0
  0
ENDBLK
  5
B7
  8
0
  0
BLOCK
  8
0
  2
_D
 70
     0
 10
0.0
 20
0.0
 30
0.0
  3
_D
  1

  0
INSERT
  5
BF
  8
LEVEL0
  2
_CLOSED
 10
34.6690728462
 20
107.416403886
 30
8.55
 41
2.0
 42
2.0
 50
180.0
  0
INSERT
  5
C0
  8
LEVEL0
  2
_CLOSED
 10
183.9690728462
 20
107.416403886
 30
8.55
 41
2.0
 42
2.0
 50
0.0
  0
LINE
  5
C1
  8
LEVEL0
 10
103.0744737688
 20
118.167098552
 30
0.0
 11
102.6682237605
 21
118.167098552
 31
0.0
  0
LINE
  5
C2
  8
LEVEL0
 10
102.6682237605
 20
118.167098552
 30
0.0
 11
102.6682237605
 21
112.994876165
 31
0.0
  0
LINE
  5
C3
  8
LEVEL0
 10
102.6682237605
 20
112.994876165
 30
0.0
 11
103.0744737688
 21
112.994876165
 31
0.0
  0
LINE
  5
C4
  8
LEVEL0
 10
119.7456536208
 20
118.167098552
 30
0.0
 11
120.1519036292
 21
118.167098552
 31
0.0
  0
LINE
  5
C5
  8
LEVEL0
 10
120.1519036292
 20
118.167098552
 30
0.0
 11
120.1519036292
 21
112.994876165
 31
0.0
  0
LINE
  5
C6
  8
LEVEL0
 10
120.1519036292
 20
112.994876165
 30
0.0
 11
119.7456536208
 21
112.994876165
 31
0.0
  0
LINE
  5
C7
  8
LEVEL0
 10
34.6690728462
 20
107.416403886
 30
0.0
 11
183.9690728462
 21
107.416403886
 31
0.0
  0
TEXT
  5
C8
  8
LEVEL0
 10
100.8857585291
 20
108.1534795393
 30
8.55
 40
2.0
  1
  
 50
360.0
 41
0.7
 11
100.8857585291
 21
107.4469594155
 31
8.55
 73
     1
  0
TEXT
  5
C9
  8
LEVEL0
 10
103.5822862793
 20
113.7319518183
 30
8.55
 40
2.0
  1
5.878
 50
360.0
 41
0.7
 11
103.5822862793
 21
113.0254316945
 31
8.55
 73
     1
  0
TEXT
  5
CA
  8
LEVEL0
 10
110.2322861586
 20
113.7319518183
 30
8.55
 40
2.0
  1
 
 50
360.0
 41
0.7
 11
110.2322861586
 21
113.0254316945
 31
8.55
 73
     1
  0
TEXT
  5
CB
  8
LEVEL0
 10
110.9711751376
 20
116.2875074823
 30
8.55
 40
2.0
  1
+
 50
360.0
 41
0.7
 11
110.9711751376
 21
115.5809873585
 31
8.55
 73
     1
  0
TEXT
  5
CC
  8
LEVEL0
 10
111.336452919
 20
113.7013962888
 30
8.55
 40
2.0
  1
-
 50
360.0
 41
0.7
 11
111.336452919
 21
112.994876165
 31
8.55
 73
     1
  0
TEXT
  5
CD
  8
LEVEL0
 10
112.5878412311
 20
116.2875074823
 30
8.55
 40
2.0
  1
0.012
 50
360.0
 41
0.7
 11
112.5878412311
 21
115.5809873585
 31
8.55
 73
     1
  0
TEXT
  5
CE
  8
LEVEL0
 10
112.5878412311
 20
113.7013962888
 30
8.55
 40
2.0
  1
0.008
 50
360.0
 41
0.7
 11
112.5878412311
 21
112.994876165
 31
8.55
 73
     1
  0
TEXT
  5
CF
  8
LEVEL0
 10
105.060063888
 20
108.1229235441
 30
8.55
 40
2.0
  1
149.3
 50
360.0
 41
0.7
 11
105.060063888
 21
107.4164034203
 31
8.55
 73
     1
  0
TEXT
  5
D0
  8
LEVEL0
 10
111.7100637673
 20
108.1229235441
 30
8.55
 40
2.0
  1
 
 50
360.0
 41
0.7
 11
111.7100637673
 21
107.4164034203
 31
8.55
 73
     1
  0
TEXT
  5
D1
  8
LEVEL0
 10
112.4489527463
 20
110.7090347377
 30
8.55
 40
2.0
  1
+
 50
360.0
 41
0.7
 11
112.4489527463
 21
110.0025146138
 31
8.55
 73
     1
  0
TEXT
  5
D2
  8
LEVEL0
 10
112.8142305276
 20
108.1229235441
 30
8.55
 40
2.0
  1
-
 50
360.0
 41
0.7
 11
112.8142305276
 21
107.4164034203
 31
8.55
 73
     1
  0
TEXT
  5
D3
  8
LEVEL0
 10
114.0656188397
 20
110.7090347377
 30
8.55
 40
2.0
  1
0.3
 50
360.0
 41
0.7
 11
114.0656188397
 21
110.0025146138
 31
8.55
 73
     1
  0
TEXT
  5
D4
  8
LEVEL0
 10
114.0656188397
 20
108.1229235441
 30
8.55
 40
2.0
  1
0.2
 50
360.0
 41
0.7
 11
114.0656188397
 21
107.4164034203
 31
8.55
 73
     1
  0
TEXT
  5
D5
  8
LEVEL0
 10
120.4565916012
 20
108.1534795393
 30
8.55
 40
2.0
  1
  
 50
360.0
 41
0.7
 11
120.4565916012
 21
107.4469594155
 31
8.55
 73
     1
  0
ENDBLK
  5
BE
  8
0
  0
BLOCK
  8
0
  2
_D_1
 70
     0
 10
0.0
 20
0.0
 30
0.0
  3
_D_1
  1

  0
INSERT
  5
DA
  8
LEVEL0
  2
_CLOSED
 10
157.9529847992
 20
261.9615592767
 30
8.55
 41
2.0
 42
2.0
 50
90.0
  0
INSERT
  5
DB
  8
LEVEL0
  2
_CLOSED
 10
157.9529847992
 20
37.6615592767
 30
8.55
 41
2.0
 42
2.0
 50
270.0
  0
LINE
  5
DC
  8
LEVEL0
 10
147.2022901331
 20
134.0239574912
 30
0.0
 11
147.2022901331
 21
133.6177074828
 31
0.0
  0
LINE
  5
DD
  8
LEVEL0
 10
147.2022901331
 20
133.6177074828
 30
0.0
 11
152.3745125202
 21
133.6177074828
 31
0.0
  0
LINE
  5
DE
  8
LEVEL0
 10
152.3745125202
 20
133.6177074828
 30
0.0
 11
152.3745125202
 21
134.0239574912
 31
0.0
  0
LINE
  5
DF
  8
LEVEL0
 10
147.2022901331
 20
150.6951373432
 30
0.0
 11
147.2022901331
 21
151.1013873516
 31
0.0
  0
LINE
  5
E0
  8
LEVEL0
 10
147.2022901331
 20
151.1013873516
 30
0.0
 11
152.3745125202
 21
151.1013873516
 31
0.0
  0
LINE
  5
E1
  8
LEVEL0
 10
152.3745125202
 20
151.1013873516
 30
0.0
 11
152.3745125202
 21
150.6951373432
 31
0.0
  0
LINE
  5
E2
  8
LEVEL0
 10
157.9529847992
 20
261.9615592767
 30
0.0
 11
157.9529847992
 21
37.6615592767
 31
0.0
  0
TEXT
  5
E3
  8
LEVEL0
 10
157.2159091458
 20
131.8352422515
 30
8.55
 40
2.0
  1
  
 50
90.0
 41
0.7
 11
157.9224292697
 21
131.8352422515
 31
8.55
 73
     1
  0
TEXT
  5
E4
  8
LEVEL0
 10
151.6374368668
 20
134.5317700017
 30
8.55
 40
2.0
  1
8.831
 50
90.0
 41
0.7
 11
152.3439569907
 21
134.5317700017
 31
8.55
 73
     1
  0
TEXT
  5
E5
  8
LEVEL0
 10
151.6374368668
 20
141.181769881
 30
8.55
 40
2.0
  1
 
 50
90.0
 41
0.7
 11
152.3439569907
 21
141.181769881
 31
8.55
 73
     1
  0
TEXT
  5
E6
  8
LEVEL0
 10
149.0818812028
 20
141.92065886
 30
8.55
 40
2.0
  1
+
 50
90.0
 41
0.7
 11
149.7884013267
 21
141.92065886
 31
8.55
 73
     1
  0
TEXT
  5
E7
  8
LEVEL0
 10
151.6679923964
 20
142.2859366413
 30
8.55
 40
2.0
  1
-
 50
90.0
 41
0.7
 11
152.3745125202
 21
142.2859366413
 31
8.55
 73
     1
  0
TEXT
  5
E8
  8
LEVEL0
 10
149.0818812028
 20
143.5373249534
 30
8.55
 40
2.0
  1
0.012
 50
90.0
 41
0.7
 11
149.7884013267
 21
143.5373249534
 31
8.55
 73
     1
  0
TEXT
  5
E9
  8
LEVEL0
 10
151.6679923964
 20
143.5373249534
 30
8.55
 40
2.0
  1
0.008
 50
90.0
 41
0.7
 11
152.3745125202
 21
143.5373249534
 31
8.55
 73
     1
  0
TEXT
  5
EA
  8
LEVEL0
 10
157.246465141
 20
136.0095476104
 30
8.55
 40
2.0
  1
224.3
 50
90.0
 41
0.7
 11
157.9529852649
 21
136.0095476104
 31
8.55
 73
     1
  0
TEXT
  5
EB
  8
LEVEL0
 10
157.246465141
 20
142.6595474897
 30
8.55
 40
2.0
  1
 
 50
90.0
 41
0.7
 11
157.9529852649
 21
142.6595474897
 31
8.55
 73
     1
  0
TEXT
  5
EC
  8
LEVEL0
 10
154.6603539475
 20
143.3984364686
 30
8.55
 40
2.0
  1
+
 50
90.0
 41
0.7
 11
155.3668740713
 21
143.3984364686
 31
8.55
 73
     1
  0
TEXT
  5
ED
  8
LEVEL0
 10
157.246465141
 20
143.76371425
 30
8.55
 40
2.0
  1
-
 50
90.0
 41
0.7
 11
157.9529852649
 21
143.76371425
 31
8.55
 73
     1
  0
TEXT
  5
EE
  8
LEVEL0
 10
154.6603539475
 20
145.0151025621
 30
8.55
 40
2.0
  1
0.3
 50
90.0
 41
0.7
 11
155.3668740713
 21
145.0151025621
 31
8.55
 73
     1
  0
TEXT
  5
EF
  8
LEVEL0
 10
157.246465141
 20
145.0151025621
 30
8.55
 40
2.0
  1
0.2
 50
90.0
 41
0.7
 11
157.9529852649
 21
145.0151025621
 31
8.55
 73
     1
  0
TEXT
  5
F0
  8
LEVEL0
 10
157.2159091458
 20
151.4060753235
 30
8.55
 40
2.0
  1
  
 50
90.0
 41
0.7
 11
157.9224292697
 21
151.4060753235
 31
8.55
 73
     1
  0
ENDBLK
  5
D9
  8
0
  0
BLOCK
  8
0
  2
_D_2
 70
     0
 10
0.0
 20
0.0
 30
0.0
  3
_D_2
  1

  0
INSERT
  5
F6
  8
LEVEL0
  2
_CLOSED
 10
35.1119316459
 20
38.4716433716
 30
8.55
 41
2.0
 42
2.0
 50
217.8756830281
  0
LINE
  5
F7
  8
LEVEL0
 10
35.1119316459
 20
38.4716433716
 30
0.0
 11
51.444313287
 21
51.1749268339
 31
0.0
  0
TEXT
  5
F8
  8
LEVEL0
 10
46.8170675035
 20
48.4684189803
 30
8.55
 40
2.0
  1
R2.1
 50
37.8971296921
 41
0.7
 11
47.2510444298
 21
47.9108934537
 31
8.55
 73
     1
  0
ENDBLK
  5
F5
  8
0
  0
BLOCK
  8
0
  2
_D_3
 70
     0
 10
0.0
 20
0.0
 30
0.0
  3
_D_3
  1

  0
INSERT
  5
FE
  8
LEVEL0
  2
_CLOSED
 10
27.1690728462
 20
26.4252799016
 30
8.55
 41
2.0
 42
2.0
 50
180.0
  0
INSERT
  5
FF
  8
LEVEL0
  2
_CLOSED
 10
34.6690728462
 20
26.4252799016
 30
8.55
 41
2.0
 42
2.0
 50
0.0
  0
LINE
  5
100
  8
LEVEL0
 10
41.3959303458
 20
32.5926409487
 30
0.0
 11
40.9896803374
 21
32.5926409487
 31
0.0
  0
LINE
  5
101
  8
LEVEL0
 10
40.9896803374
 20
32.5926409487
 30
0.0
 11
40.9896803374
 21
29.4176409871
 31
0.0
  0
LINE
  5
102
  8
LEVEL0
 10
40.9896803374
 20
29.4176409871
 30
0.0
 11
41.3959303458
 21
29.4176409871
 31
0.0
  0
LINE
  5
103
  8
LEVEL0
 10
49.0615552461
 20
32.5926409487
 30
0.0
 11
49.4678052544
 21
32.5926409487
 31
0.0
  0
LINE
  5
104
  8
LEVEL0
 10
49.4678052544
 20
32.5926409487
 30
0.0
 11
49.4678052544
 21
29.4176409871
 31
0.0
  0
LINE
  5
105
  8
LEVEL0
 10
49.4678052544
 20
29.4176409871
 30
0.0
 11
49.0615552461
 21
29.4176409871
 31
0.0
  0
LINE
  5
106
  8
LEVEL0
 10
27.1690728462
 20
25.6615592767
 30
0.0
 11
27.1690728462
 21
25.4252799016
 31
0.0
  0
LINE
  5
107
  8
LEVEL0
 10
34.6690728462
 20
38.7615592767
 30
0.0
 11
34.6690728462
 21
25.4252799016
 31
0.0
  0
LINE
  5
108
  8
LEVEL0
 10
27.1690728462
 20
26.4252799016
 30
0.0
 11
34.6690728462
 21
26.4252799016
 31
0.0
  0
LINE
  5
109
  8
LEVEL0
 10
34.6690728462
 20
26.4252799016
 30
0.0
 11
51.2502711843
 21
26.4252799016
 31
0.0
  0
TEXT
  5
10A
  8
LEVEL0
 10
39.2072151061
 20
27.1623555549
 30
8.55
 40
2.0
  1
  
 50
360.0
 41
0.7
 11
39.2072151061
 21
26.4558354311
 31
8.55
 73
     1
  0
TEXT
  5
10B
  8
LEVEL0
 10
41.9037428563
 20
30.1241611109
 30
8.55
 40
2.0
  1
0.295
 50
360.0
 41
0.7
 11
41.9037428563
 21
29.4176409871
 31
8.55
 73
     1
  0
TEXT
  5
10C
  8
LEVEL0
 10
43.3815208142
 20
27.1317997926
 30
8.55
 40
2.0
  1
7.5
 50
360.0
 41
0.7
 11
43.3815208142
 21
26.4252796687
 31
8.55
 73
     1
  0
TEXT
  5
10D
  8
LEVEL0
 10
49.7724932264
 20
27.1623555549
 30
8.55
 40
2.0
  1
  
 50
360.0
 41
0.7
 11
49.7724932264
 21
26.4558354311
 31
8.55
 73
     1
  0
ENDBLK
  5
FD
  8
0
  0
BLOCK
  8
0
  2
_D_4
 70
     0
 10
0.0
 20
0.0
 30
0.0
  3
_D_4
  1

  0
INSERT
  5
112
  8
LEVEL0
  2
_CLOSED
 10
196.9799988064
 20
30.1615592767
 30
8.55
 41
2.0
 42
2.0
 50
270.0
  0
INSERT
  5
113
  8
LEVEL0
  2
_CLOSED
 10
196.9799988064
 20
37.6615592767
 30
8.55
 41
2.0
 42
2.0
 50
90.0
  0
LINE
  5
114
  8
LEVEL0
 10
190.8126377593
 20
45.1945778023
 30
0.0
 11
190.8126377593
 21
44.7883277939
 31
0.0
  0
LINE
  5
115
  8
LEVEL0
 10
190.8126377593
 20
44.7883277939
 30
0.0
 11
193.9876377209
 21
44.7883277939
 31
0.0
  0
LINE
  5
116
  8
LEVEL0
 10
193.9876377209
 20
44.7883277939
 30
0.0
 11
193.9876377209
 21
45.1945778023
 31
0.0
  0
LINE
  5
117
  8
LEVEL0
 10
190.8126377593
 20
52.8602027025
 30
0.0
 11
190.8126377593
 21
53.2664527109
 31
0.0
  0
LINE
  5
118
  8
LEVEL0
 10
190.8126377593
 20
53.2664527109
 30
0.0
 11
193.9876377209
 21
53.2664527109
 31
0.0
  0
LINE
  5
119
  8
LEVEL0
 10
193.9876377209
 20
53.2664527109
 30
0.0
 11
193.9876377209
 21
52.8602027025
 31
0.0
  0
LINE
  5
11A
  8
LEVEL0
 10
195.9690728462
 20
30.1615592767
 30
0.0
 11
197.9799988064
 21
30.1615592767
 31
0.0
  0
LINE
  5
11B
  8
LEVEL0
 10
182.8690728462
 20
37.6615592767
 30
0.0
 11
197.9799988064
 21
37.6615592767
 31
0.0
  0
LINE
  5
11C
  8
LEVEL0
 10
196.9799988064
 20
30.1615592767
 30
0.0
 11
196.9799988064
 21
37.6615592767
 31
0.0
  0
LINE
  5
11D
  8
LEVEL0
 10
196.9799988064
 20
37.6615592767
 30
0.0
 11
196.9799988064
 21
55.0489186408
 31
0.0
  0
TEXT
  5
11E
  8
LEVEL0
 10
196.242923153
 20
43.0058625625
 30
8.55
 40
2.0
  1
  
 50
90.0
 41
0.7
 11
196.9494432769
 21
43.0058625625
 31
8.55
 73
     1
  0
TEXT
  5
11F
  8
LEVEL0
 10
193.2811175971
 20
45.7023903128
 30
8.55
 40
2.0
  1
0.295
 50
90.0
 41
0.7
 11
193.9876377209
 21
45.7023903128
 31
8.55
 73
     1
  0
TEXT
  5
120
  8
LEVEL0
 10
196.2734789154
 20
47.1801682707
 30
8.55
 40
2.0
  1
7.5
 50
90.0
 41
0.7
 11
196.9799990392
 21
47.1801682707
 31
8.55
 73
     1
  0
TEXT
  5
121
  8
LEVEL0
 10
196.242923153
 20
53.5711406829
 30
8.55
 40
2.0
  1
  
 50
90.0
 41
0.7
 11
196.9494432769
 21
53.5711406829
 31
8.55
 73
     1
  0
ENDBLK
  5
111
  8
0
  0
BLOCK
  8
0
  2
_D_5
 70
     0
 10
0.0
 20
0.0
 30
0.0
  3
_D_5
  1

  0
INSERT
  5
126
  8
LEVEL0
  2
_CLOSED
 10
22.2455735136
 20
30.1615592767
 30
8.55
 41
2.0
 42
2.0
 50
270.0
  0
INSERT
  5
127
  8
LEVEL0
  2
_CLOSED
 10
22.2455735136
 20
269.4615592767
 30
8.55
 41
2.0
 42
2.0
 50
90.0
  0
LINE
  5
128
  8
LEVEL0
 10
16.0782124665
 20
153.3668136782
 30
0.0
 11
16.0782124665
 21
152.9605636699
 31
0.0
  0
LINE
  5
129
  8
LEVEL0
 10
16.0782124665
 20
152.9605636699
 30
0.0
 11
19.2532124281
 21
152.9605636699
 31
0.0
  0
LINE
  5
12A
  8
LEVEL0
 10
19.2532124281
 20
152.9605636699
 30
0.0
 11
19.2532124281
 21
153.3668136782
 31
0.0
  0
LINE
  5
12B
  8
LEVEL0
 10
16.0782124665
 20
161.0324385785
 30
0.0
 11
16.0782124665
 21
161.4386885869
 31
0.0
  0
LINE
  5
12C
  8
LEVEL0
 10
16.0782124665
 20
161.4386885869
 30
0.0
 11
19.2532124281
 21
161.4386885869
 31
0.0
  0
LINE
  5
12D
  8
LEVEL0
 10
19.2532124281
 20
161.4386885869
 30
0.0
 11
19.2532124281
 21
161.0324385785
 31
0.0
  0
LINE
  5
12E
  8
LEVEL0
 10
22.6690728462
 20
30.1615592767
 30
0.0
 11
21.2455735136
 21
30.1615592767
 31
0.0
  0
LINE
  5
12F
  8
LEVEL0
 10
22.6690728462
 20
269.4615592767
 30
0.0
 11
21.2455735136
 21
269.4615592767
 31
0.0
  0
LINE
  5
130
  8
LEVEL0
 10
22.2455735136
 20
30.1615592767
 30
0.0
 11
22.2455735136
 21
269.4615592767
 31
0.0
  0
TEXT
  5
131
  8
LEVEL0
 10
21.5084978603
 20
151.1780984385
 30
8.55
 40
2.0
  1
  
 50
90.0
 41
0.7
 11
22.2150179841
 21
151.1780984385
 31
8.55
 73
     1
  0
TEXT
  5
132
  8
LEVEL0
 10
18.5466923043
 20
153.8746261887
 30
8.55
 40
2.0
  1
9.421
 50
90.0
 41
0.7
 11
19.2532124281
 21
153.8746261887
 31
8.55
 73
     1
  0
TEXT
  5
133
  8
LEVEL0
 10
21.5390536226
 20
153.8746263051
 30
8.55
 40
2.0
  1
239.3
 50
90.0
 41
0.7
 11
22.2455737465
 21
153.8746263051
 31
8.55
 73
     1
  0
TEXT
  5
134
  8
LEVEL0
 10
21.5084978603
 20
161.7433765588
 30
8.55
 40
2.0
  1
  
 50
90.0
 41
0.7
 11
22.2150179841
 21
161.7433765588
 31
8.55
 73
     1
  0
ENDBLK
  5
125
  8
0
  0
BLOCK
  8
0
  2
_D_6
 70
     0
 10
0.0
 20
0.0
 30
0.0
  3
_D_6
  1

  0
INSERT
  5
139
  8
LEVEL0
  2
_CLOSED
 10
27.1690728462
 20
276.2310022529
 30
8.55
 41
2.0
 42
2.0
 50
180.0
  0
INSERT
  5
13A
  8
LEVEL0
  2
_CLOSED
 10
191.4690728462
 20
276.2310022529
 30
8.55
 41
2.0
 42
2.0
 50
0.0
  0
LINE
  5
13B
  8
LEVEL0
 10
103.9475111268
 20
282.3983633
 30
0.0
 11
103.5412611184
 21
282.3983633
 31
0.0
  0
LINE
  5
13C
  8
LEVEL0
 10
103.5412611184
 20
282.3983633
 30
0.0
 11
103.5412611184
 21
279.2233633384
 31
0.0
  0
LINE
  5
13D
  8
LEVEL0
 10
103.5412611184
 20
279.2233633384
 30
0.0
 11
103.9475111268
 21
279.2233633384
 31
0.0
  0
LINE
  5
13E
  8
LEVEL0
 10
111.613136027
 20
282.3983633
 30
0.0
 11
112.0193860354
 21
282.3983633
 31
0.0
  0
LINE
  5
13F
  8
LEVEL0
 10
112.0193860354
 20
282.3983633
 30
0.0
 11
112.0193860354
 21
279.2233633384
 31
0.0
  0
LINE
  5
140
  8
LEVEL0
 10
112.0193860354
 20
279.2233633384
 30
0.0
 11
111.613136027
 21
279.2233633384
 31
0.0
  0
LINE
  5
141
  8
LEVEL0
 10
27.1690728462
 20
273.9615592767
 30
0.0
 11
27.1690728462
 21
277.2310022529
 31
0.0
  0
LINE
  5
142
  8
LEVEL0
 10
191.4690728462
 20
273.9615592767
 30
0.0
 11
191.4690728462
 21
277.2310022529
 31
0.0
  0
LINE
  5
143
  8
LEVEL0
 10
27.1690728462
 20
276.2310022529
 30
0.0
 11
191.4690728462
 21
276.2310022529
 31
0.0
  0
TEXT
  5
144
  8
LEVEL0
 10
101.758795887
 20
276.9680779062
 30
8.55
 40
2.0
  1
  
 50
0.0
 41
0.7
 11
101.758795887
 21
276.2615577824
 31
8.55
 73
     1
  0
TEXT
  5
145
  8
LEVEL0
 10
104.4553236373
 20
279.9298834622
 30
8.55
 40
2.0
  1
6.469
 50
0.0
 41
0.7
 11
104.4553236373
 21
279.2233633384
 31
8.55
 73
     1
  0
TEXT
  5
146
  8
LEVEL0
 10
104.4553237537
 20
276.9375221439
 30
8.55
 40
2.0
  1
164.3
 50
0.0
 41
0.7
 11
104.4553237537
 21
276.23100202
 31
8.55
 73
     1
  0
TEXT
  5
147
  8
LEVEL0
 10
112.3240740074
 20
276.9680779062
 30
8.55
 40
2.0
  1
  
 50
0.0
 41
0.7
 11
112.3240740074
 21
276.2615577824
 31
8.55
 73
     1
  0
ENDBLK
  5
138
  8
0
  0
BLOCK
  8
0
  2
SW_NOTE_0
 70
     0
 10
0.0
 20
0.0
 30
0.0
  3
SW_NOTE_0
  1

  0
TEXT
  5
14C
  8
LEVEL0
 62
     0
 10
-30.4897801546
 20
-1.1521725179
 30
0.0
 40
2.0
  1
MARK SCREW
 41
0.7
 11
-30.4897801546
 21
-1.8586926418
 31
0.0
 73
     1
  0
TEXT
  5
14D
  8
LEVEL0
 62
     0
 10
-30.4897801546
 20
-4.152172544
 30
0.0
 40
2.0
  1
 LOCATIONS
 41
0.7
 11
-30.4897801546
 21
-4.8586926679
 31
0.0
 73
     1
  0
LINE
  5
14E
  8
LEVEL0
 62
     0
 10
-12.6166492311
 20
-2.9706346593
 30
0.0
 11
0.0
 21
0.0
 31
0.0
  0
SOLID
  5
14F
  8
LEVEL0
 62
     0
 10
0.0
 20
0.0
 30
0.0
 11
-2.0172840036
 21
-0.158870403
 31
0.0
 12
-1.8762462407
 22
-0.757875056
 32
0.0
 13
-1.8762462407
 23
-0.757875056
 33
0.0
  0
ENDBLK
  5
14B
  8
0
  0
BLOCK
  8
0
  2
SW_CENTERMARKSYMBOL_0
 70
     0
 10
0.0
 20
0.0
 30
0.0
  3
SW_CENTERMARKSYMBOL_0
  1

  0
LINE
  5
154
  8
LEVEL0
 62
     0
 10
0.0
 20
0.0
 30
0.0
 11
0.0
 21
2.5
 31
0.0
  0
LINE
  5
155
  8
LEVEL0
 62
     0
 10
0.0
 20
0.0
 30
0.0
 11
-2.5
 21
0.0
 31
0.0
  0
LINE
  5
156
  8
LEVEL0
 62
     0
 10
0.0
 20
0.0
 30
0.0
 11
0.0
 21
-2.5
 31
0.0
  0
LINE
  5
157
  8
LEVEL0
 62
     0
 10
0.0
 20
0.0
 30
0.0
 11
2.5
 21
0.0
 31
0.0
  0
LINE
  5
158
  8
LEVEL0
 62
     0
 10
0.0
 20
2.5
 30
0.0
 11
0.0
 21
3.5
 31
0.0
  0
LINE
  5
159
  8
LEVEL0
 62
     0
 10
-2.5
 20
0.0
 30
0.0
 11
-3.5
 21
0.0
 31
0.0
  0
LINE
  5
15A
  8
LEVEL0
 62
     0
 10
0.0
 20
-2.5
 30
0.0
 11
0.0
 21
-3.5
 31
0.0
  0
LINE
  5
15B
  8
LEVEL0
 62
     0
 10
2.5
 20
0.0
 30
0.0
 11
3.5
 21
0.0
 31
0.0
  0
ENDBLK
  5
153
  8
0
  0
BLOCK
  8
0
  2
SW_CENTERMARKSYMBOL_1
 70
     0
 10
0.0
 20
0.0
 30
0.0
  3
SW_CENTERMARKSYMBOL_1
  1

  0
LINE
  5
160
  8
LEVEL0
 62
     0
 10
0.0
 20
0.0
 30
0.0
 11
0.0
 21
2.5
 31
0.0
  0
LINE
  5
161
  8
LEVEL0
 62
     0
 10
0.0
 20
0.0
 30
0.0
 11
-2.5
 21
0.0
 31
0.0
  0
LINE
  5
162
  8
LEVEL0
 62
     0
 10
0.0
 20
0.0
 30
0.0
 11
0.0
 21
-2.5
 31
0.0
  0
LINE
  5
163
  8
LEVEL0
 62
     0
 10
0.0
 20
0.0
 30
0.0
 11
2.5
 21
0.0
 31
0.0
  0
LINE
  5
164
  8
LEVEL0
 62
     0
 10
0.0
 20
2.5
 30
0.0
 11
0.0
 21
3.5
 31
0.0
  0
LINE
  5
165
  8
LEVEL0
 62
     0
 10
-2.5
 20
0.0
 30
0.0
 11
-3.5
 21
0.0
 31
0.0
  0
LINE
  5
166
  8
LEVEL0
 62
     0
 10
0.0
 20
-2.5
 30
0.0
 11
0.0
 21
-3.5
 31
0.0
  0
LINE
  5
167
  8
LEVEL0
 62
     0
 10
2.5
 20
0.0
 30
0.0
 11
3.5
 21
0.0
 31
0.0
  0
ENDBLK
  5
15F
  8
0
  0
BLOCK
  8
0
  2
SW_CENTERMARKSYMBOL_2
 70
     0
 10
0.0
 20
0.0
 30
0.0
  3
SW_CENTERMARKSYMBOL_2
  1

  0
LINE
  5
16C
  8
LEVEL0
 62
     0
 10
0.0
 20
0.0
 30
0.0
 11
0.0
 21
2.5
 31
0.0
  0
LINE
  5
16D
  8
LEVEL0
 62
     0
 10
0.0
 20
0.0
 30
0.0
 11
-2.5
 21
0.0
 31
0.0
  0
LINE
  5
16E
  8
LEVEL0
 62
     0
 10
0.0
 20
0.0
 30
0.0
 11
0.0
 21
-2.5
 31
0.0
  0
LINE
  5
16F
  8
LEVEL0
 62
     0
 10
0.0
 20
0.0
 30
0.0
 11
2.5
 21
0.0
 31
0.0
  0
LINE
  5
170
  8
LEVEL0
 62
     0
 10
0.0
 20
2.5
 30
0.0
 11
0.0
 21
3.5
 31
0.0
  0
LINE
  5
171
  8
LEVEL0
 62
     0
 10
-2.5
 20
0.0
 30
0.0
 11
-3.5
 21
0.0
 31
0.0
  0
LINE
  5
172
  8
LEVEL0
 62
     0
 10
0.0
 20
-2.5
 30
0.0
 11
0.0
 21
-3.5
 31
0.0
  0
LINE
  5
173
  8
LEVEL0
 62
     0
 10
2.5
 20
0.0
 30
0.0
 11
3.5
 21
0.0
 31
0.0
  0
ENDBLK
  5
16B
  8
0
  0
BLOCK
  8
0
  2
SW_CENTERMARKSYMBOL_3
 70
     0
 10
0.0
 20
0.0
 30
0.0
  3
SW_CENTERMARKSYMBOL_3
  1

  0
LINE
  5
178
  8
LEVEL0
 62
     0
 10
0.0
 20
0.0
 30
0.0
 11
0.0
 21
2.5
 31
0.0
  0
LINE
  5
179
  8
LEVEL0
 62
     0
 10
0.0
 20
0.0
 30
0.0
 11
-2.5
 21
0.0
 31
0.0
  0
LINE
  5
17A
  8
LEVEL0
 62
     0
 10
0.0
 20
0.0
 30
0.0
 11
0.0
 21
-2.5
 31
0.0
  0
LINE
  5
17B
  8
LEVEL0
 62
     0
 10
0.0
 20
0.0
 30
0.0
 11
2.5
 21
0.0
 31
0.0
  0
LINE
  5
17C
  8
LEVEL0
 62
     0
 10
0.0
 20
2.5
 30
0.0
 11
0.0
 21
3.5
 31
0.0
  0
LINE
  5
17D
  8
LEVEL0
 62
     0
 10
-2.5
 20
0.0
 30
0.0
 11
-3.5
 21
0.0
 31
0.0
  0
LINE
  5
17E
  8
LEVEL0
 62
     0
 10
0.0
 20
-2.5
 30
0.0
 11
0.0
 21
-3.5
 31
0.0
  0
LINE
  5
17F
  8
LEVEL0
 62
     0
 10
2.5
 20
0.0
 30
0.0
 11
3.5
 21
0.0
 31
0.0
  0
ENDBLK
  5
177
  8
0
  0
ENDSEC
  0
SECTION
  2
ENTITIES
  0
ARC
  5
A7
  8
0
  6
CONTINUOUS
 62
     7
 10
181.8690728462
 20
259.8615592767
 30
0.0
 40
2.099999999999994
 50
0.0
 51
90.0
  0
LINE
  5
A8
  8
0
  6
CONTINUOUS
 62
     7
 10
36.7690728462
 20
261.9615592767
 30
0.0
 11
181.8690728462
 21
261.9615592767
 31
0.0
  0
ARC
  5
A9
  8
0
  6
CONTINUOUS
 62
     7
 10
36.7690728462
 20
259.8615592767
 30
0.0
 40
2.09999999999998
 50
90.0
 51
180.0
  0
LINE
  5
AA
  8
0
  6
CONTINUOUS
 62
     7
 10
34.6690728462
 20
39.7615592767
 30
0.0
 11
34.6690728462
 21
259.8615592767
 31
0.0
  0
ARC
  5
AB
  8
0
  6
CONTINUOUS
 62
     7
 10
36.7690728462
 20
39.7615592767
 30
0.0
 40
2.099999999999994
 50
180.0
 51
270.0
  0
LINE
  5
AC
  8
0
  6
CONTINUOUS
 62
     7
 10
181.8690728462
 20
37.6615592767
 30
0.0
 11
36.7690728462
 21
37.6615592767
 31
0.0
  0
ARC
  5
AD
  8
0
  6
CONTINUOUS
 62
     7
 10
181.8690728462
 20
39.7615592767
 30
0.0
 40
2.099999999999994
 50
270.0
 51
0.0
  0
LINE
  5
AE
  8
0
  6
CONTINUOUS
 62
     7
 10
183.9690728462
 20
259.8615592767
 30
0.0
 11
183.9690728462
 21
39.7615592767
 31
0.0
  0
CIRCLE
  5
AF
  8
0
  6
CONTINUOUS
 62
     7
 10
191.4690728462
 20
269.4615592767
 30
0.0
 40
1.0
  0
CIRCLE
  5
B0
  8
0
  6
CONTINUOUS
 62
     7
 10
27.1690728462
 20
269.4615592767
 30
0.0
 40
1.0
  0
CIRCLE
  5
B1
  8
0
  6
CONTINUOUS
 62
     7
 10
27.1690728462
 20
30.1615592767
 30
0.0
 40
1.000000000000004
  0
CIRCLE
  5
B2
  8
0
  6
CONTINUOUS
 62
     7
 10
191.4690728462
 20
30.1615592767
 30
0.0
 40
1.000000000000004
  0
DIMENSION
  5
B3
  8
LEVEL0
  2
_D
 10
183.9690728462
 20
107.416403886
 30
0.0
 11
111.4100640441
 21
107.416403886
 31
0.0
 70
   160
  1
<>
  3
SLDDIMSTYLE0
 13
34.6690728462
 23
39.7615592767
 33
0.0
 14
183.9690728462
 24
39.7615592767
 34
0.0
 50
0.0
  0
DIMENSION
  5
D6
  8
LEVEL0
  2
_D_1
 10
157.9529847992
 20
37.6615592767
 30
0.0
 11
157.9529847992
 21
142.3595477665
 31
0.0
 70
   160
  1
<>
  3
SLDDIMSTYLE0
 13
181.8690728462
 23
261.9615592767
 33
0.0
 14
181.8690728462
 24
37.6615592767
 34
0.0
 50
90.0
  0
DIMENSION
  5
F1
  8
LEVEL0
  2
_D_2
 10
36.7690728462
 20
39.7615592767
 30
0.0
 11
49.4045766198
 21
49.5970162412
 31
0.0
 70
   164
  1
<>
  3
SLDDIMSTYLE1
 15
35.1119316459
 25
38.4716433716
 35
0.0
 40
0.0
  0
DIMENSION
  5
F9
  8
LEVEL0
  2
_D_3
 10
34.6690728462
 20
26.4252799016
 30
0.0
 11
45.2287431452
 21
26.4252799016
 31
0.0
 70
   160
  1
<>
  3
SLDDIMSTYLE2
 13
27.1690728462
 23
26.6615592767
 33
0.0
 14
34.6690728462
 24
39.7615592767
 34
0.0
 50
0.0
  0
DIMENSION
  5
10E
  8
LEVEL0
  2
_D_4
 10
196.9799988064
 20
37.6615592767
 30
0.0
 11
196.9799988064
 21
49.0273906017
 31
0.0
 70
   160
  1
<>
  3
SLDDIMSTYLE2
 13
194.9690728462
 23
30.1615592767
 33
0.0
 14
181.8690728462
 24
37.6615592767
 34
0.0
 50
90.0
  0
DIMENSION
  5
122
  8
LEVEL0
  2
_D_5
 10
22.2455735136
 20
269.4615592767
 30
0.0
 11
22.2455735136
 21
157.1996264776
 31
0.0
 70
   160
  1
<>
  3
SLDDIMSTYLE2
 13
23.6690728462
 23
30.1615592767
 33
0.0
 14
23.6690728462
 24
269.4615592767
 34
0.0
 50
90.0
  0
DIMENSION
  5
135
  8
LEVEL0
  2
_D_6
 10
191.4690728462
 20
276.2310022529
 30
0.0
 11
107.7803239262
 21
276.2310022529
 31
0.0
 70
   160
  1
<>
  3
SLDDIMSTYLE2
 13
27.1690728462
 23
272.9615592767
 33
0.0
 14
191.4690728462
 24
272.9615592767
 34
0.0
  0
TEXT
  5
148
  8
LEVEL0
 10
92.2356485554
 20
180.2235659355
 30
0.0
 40
3.175
  1
ROUTING TEMPLATE
 41
0.7
 11
92.2356485554
 21
179.1019652389
 31
0.0
 73
     1
  0
INSERT
  5
150
  8
LEVEL0
  2
SW_NOTE_0
 10
190.5888826081
 20
29.6869382229
 30
0.0
  0
INSERT
  5
15C
  8
LEVEL0
  2
SW_CENTERMARKSYMBOL_0
 10
27.1690728462
 20
269.4615592767
 30
0.0
  0
INSERT
  5
168
  8
LEVEL0
  2
SW_CENTERMARKSYMBOL_1
 10
191.4690728462
 20
269.4615592767
 30
0.0
  0
INSERT
  5
174
  8
LEVEL0
  2
SW_CENTERMARKSYMBOL_2
 10
27.1690728462
 20
30.1615592767
 30
0.0
  0
INSERT
  5
180
  8
LEVEL0
  2
SW_CENTERMARKSYMBOL_3
 10
191.4690728462
 20
30.1615592767
 30
0.0
  0
ENDSEC
  0
EOF
