  0
SECTION
  2
HEADER
  9
$ACADVER
  1
AC1009
  9
$DWGCODEPAGE
  3
ansi_1255
  9
$INSBASE
 10
0.0
 20
0.0
 30
0.0
  9
$EXTMIN
 10
0.0
 20
0.0
 30
0.0
  9
$EXTMAX
 10
210.0
 20
297.0
 30
0.0
  9
$LIMMIN
 10
0.0
 20
0.0
  9
$LIMMAX
 10
210.0
 20
297.0
  9
$ORTHOMODE
 70
     0
  9
$REGENMODE
 70
     1
  9
$FILLMODE
 70
     1
  9
$QTEXTMODE
 70
     0
  9
$MIRRTEXT
 70
     1
  9
$DRAGMODE
 70
     2
  9
$LTSCALE
 40
1.0
  9
$OSMODE
 70
    37
  9
$ATTMODE
 70
     1
  9
$TEXTSIZE
 40
2.0
  9
$TRACEWID
 40
1.0
  9
$TEXTSTYLE
  7
STANDARD
  9
$CLAYER
  8
0
  9
$CELTYPE
  6
BYLAYER
  9
$CECOLOR
 62
   256
  9
$DIMSCALE
 40
1.0
  9
$DIMASZ
 40
2.0
  9
$DIMEXO
 40
1.0
  9
$DIMDLI
 40
3.75
  9
$DIMRND
 40
0.0
  9
$DIMDLE
 40
0.0
  9
$DIMEXE
 40
1.0
  9
$DIMTP
 40
0.0
  9
$DIMTM
 40
0.0
  9
$DIMTXT
 40
2.0
  9
$DIMCEN
 40
2.5
  9
$DIMTSZ
 40
0.0
  9
$DIMTOL
 70
     0
  9
$DIMLIM
 70
     0
  9
$DIMTIH
 70
     1
  9
$DIMTOH
 70
     1
  9
$DIMSE1
 70
     0
  9
$DIMSE2
 70
     0
  9
$DIMTAD
 70
     1
  9
$DIMZIN
 70
     0
  9
$DIMBLK
  1

  9
$DIMASO
 70
     1
  9
$DIMSHO
 70
     1
  9
$DIMPOST
  1

  9
$DIMAPOST
  1

  9
$DIMALT
 70
     0
  9
$DIMALTD
 70
     3
  9
$DIMALTF
 40
0.0393700787
  9
$DIMLFAC
 40
1.0
  9
$DIMTOFL
 70
     1
  9
$DIMTVP
 40
0.0
  9
$DIMTIX
 70
     0
  9
$DIMSOXD
 70
     0
  9
$DIMSAH
 70
     0
  9
$DIMBLK1
  1

  9
$DIMBLK2
  1

  9
$DIMSTYLE
  2
ISO-25
  9
$DIMCLRD
 70
     0
  9
$DIMCLRE
 70
     0
  9
$DIMCLRT
 70
     0
  9
$DIMTFAC
 40
1.0
  9
$DIMGAP
 40
1.524
  9
$LUNITS
 70
     2
  9
$LUPREC
 70
     2
  9
$SKETCHINC
 40
1.0
  9
$FILLETRAD
 40
10.0
  9
$AUNITS
 70
     0
  9
$AUPREC
 70
     2
  9
$MENU
  1
.
  9
$ELEVATION
 40
0.0
  9
$PELEVATION
 40
0.0
  9
$THICKNESS
 40
0.0
  9
$LIMCHECK
 70
     0
  9
$CHAMFERA
 40
0.0
  9
$CHAMFERB
 40
0.0
  9
$SKPOLY
 70
     0
  9
$TDCREATE
 40
2458068.609203565
  9
$TDUPDATE
 40
2458068.609204537
  9
$TDINDWG
 40
0.0000000116
  9
$TDUSRTIMER
 40
0.0000000116
  9
$USRTIMER
 70
     1
  9
$ANGBASE
 50
0.0
  9
$ANGDIR
 70
     0
  9
$PDMODE
 70
     0
  9
$PDSIZE
 40
-1.0
  9
$PLINEWID
 40
0.0
  9
$COORDS
 70
     1
  9
$SPLFRAME
 70
     0
  9
$SPLINETYPE
 70
     6
  9
$SPLINESEGS
 70
     8
  9
$ATTDIA
 70
     0
  9
$ATTREQ
 70
     1
  9
$HANDLING
 70
     1
  9
$HANDSEED
  5
181
  9
$SURFTAB1
 70
     6
  9
$SURFTAB2
 70
     6
  9
$SURFTYPE
 70
     6
  9
$SURFU
 70
     6
  9
$SURFV
 70
     6
  9
$UCSNAME
  2

  9
$UCSORG
 10
0.0
 20
0.0
 30
0.0
  9
$UCSXDIR
 10
1.0
 20
0.0
 30
0.0
  9
$UCSYDIR
 10
0.0
 20
1.0
 30
0.0
  9
$PUCSNAME
  2

  9
$PUCSORG
 10
0.0
 20
0.0
 30
0.0
  9
$PUCSXDIR
 10
1.0
 20
0.0
 30
0.0
  9
$PUCSYDIR
 10
0.0
 20
1.0
 30
0.0
  9
$USERI1
 70
     0
  9
$USERI2
 70
     0
  9
$USERI3
 70
     0
  9
$USERI4
 70
     0
  9
$USERI5
 70
     0
  9
$USERR1
 40
0.0
  9
$USERR2
 40
0.0
  9
$USERR3
 40
0.0
  9
$USERR4
 40
0.0
  9
$USERR5
 40
0.0
  9
$WORLDVIEW
 70
     1
  9
$SHADEDGE
 70
     3
  9
$SHADEDIF
 70
    70
  9
$TILEMODE
 70
     1
  9
$MAXACTVP
 70
    64
  9
$PLIMCHECK
 70
     0
  9
$PEXTMIN
 10
1.0000000000E+20
 20
1.0000000000E+20
 30
1.0000000000E+20
  9
$PEXTMAX
 10
-1.0000000000E+20
 20
-1.0000000000E+20
 30
-1.0000000000E+20
  9
$PLIMMIN
 10
0.0
 20
0.0
  9
$PLIMMAX
 10
420.0
 20
297.0
  9
$UNITMODE
 70
     0
  9
$VISRETAIN
 70
     1
  9
$PLINEGEN
 70
     0
  9
$PSLTSCALE
 70
     1
  0
ENDSEC
  0
SECTION
  2
TABLES
  0
TABLE
  2
VPORT
 70
     1
  0
VPORT
  2
*ACTIVE
 70
     0
 10
0.0
 20
0.0
 11
1.0
 21
1.0
 12
105.0
 22
148.5
 13
0.0
 23
0.0
 14
10.0
 24
10.0
 15
10.0
 25
10.0
 16
0.0
 26
0.0
 36
1.0
 17
0.0
 27
0.0
 37
0.0
 40
297.0
 41
0.7070707071
 42
50.0
 43
0.0
 44
0.0
 50
0.0
 51
0.0
 71
     0
 72
  2000
 73
     1
 74
     3
 75
     0
 76
     0
 77
     0
 78
     0
  0
ENDTAB
  0
TABLE
  2
LTYPE
 70
     6
  0
LTYPE
  2
CONTINUOUS
 70
     0
  3
Solid line
 72
    65
 73
     0
 40
0.0
  0
LTYPE
  2
HIDDEN
 70
     0
  3
Hidden __ __ __ __ __ __ __ __ __ __ __ __ __ __
 72
    65
 73
     2
 40
1.905
 49
1.27
 49
-0.635
  0
LTYPE
  2
PHANTOM
 70
     0
  3
Phantom ______  __  __  ______  __  __  ______
 72
    65
 73
     6
 40
12.7
 49
6.35
 49
-1.27
 49
1.27
 49
-1.27
 49
1.27
 49
-1.27
  0
LTYPE
  2
CENTER
 70
     0
  3
Center ____ _ ____ _ ____ _ ____ _ ____ _ ____
 72
    65
 73
     4
 40
10.16
 49
6.35
 49
-1.27
 49
1.27
 49
-1.27
  0
LTYPE
  2
CENTERX2
 70
     0
  3
Center (2x) ________  __  ________  __  _____
 72
    65
 73
     4
 40
20.32
 49
12.7
 49
-2.54
 49
2.54
 49
-2.54
  0
LTYPE
  2
DOT2
 70
     0
  3
Dot (.5x) ........................................
 72
    65
 73
     2
 40
0.635
 49
0.0
 49
-0.635
  0
ENDTAB
  0
TABLE
  2
LAYER
 70
    53
  0
LAYER
  2
0
 70
     0
 62
     7
  6
CONTINUOUS
  0
LAYER
  2
SLD-0
 70
     0
 62
     7
  6
CONTINUOUS
  0
LAYER
  2
LEVEL0
 70
     0
 62
     7
  6
CONTINUOUS
  0
LAYER
  2
1
 70
     0
 62
     7
  6
CONTINUOUS
  0
LAYER
  2
2
 70
     0
 62
     7
  6
CONTINUOUS
  0
LAYER
  2
3
 70
     0
 62
     7
  6
CONTINUOUS
  0
LAYER
  2
4
 70
     0
 62
     7
  6
CONTINUOUS
  0
LAYER
  2
5
 70
     0
 62
     7
  6
CONTINUOUS
  0
LAYER
  2
6
 70
     0
 62
     7
  6
CONTINUOUS
  0
LAYER
  2
7
 70
     0
 62
     7
  6
CONTINUOUS
  0
LAYER
  2
8
 70
     0
 62
     7
  6
CONTINUOUS
  0
LAYER
  2
9
 70
     0
 62
     7
  6
CONTINUOUS
  0
LAYER
  2
10
 70
     0
 62
     7
  6
CONTINUOUS
  0
LAYER
  2
11
 70
     0
 62
     7
  6
CONTINUOUS
  0
LAYER
  2
12
 70
     0
 62
     7
  6
CONTINUOUS
  0
LAYER
  2
13
 70
     0
 62
     7
  6
CONTINUOUS
  0
LAYER
  2
14
 70
     0
 62
     7
  6
CONTINUOUS
  0
LAYER
  2
15
 70
     0
 62
     7
  6
CONTINUOUS
  0
LAYER
  2
16
 70
     0
 62
     7
  6
CONTINUOUS
  0
LAYER
  2
17
 70
     0
 62
     7
  6
CONTINUOUS
  0
LAYER
  2
18
 70
     0
 62
     7
  6
CONTINUOUS
  0
LAYER
  2
19
 70
     0
 62
     7
  6
CONTINUOUS
  0
LAYER
  2
20
 70
     0
 62
     7
  6
CONTINUOUS
  0
LAYER
  2
21
 70
     0
 62
     7
  6
CONTINUOUS
  0
LAYER
  2
22
 70
     0
 62
     7
  6
CONTINUOUS
  0
LAYER
  2
23
 70
     0
 62
     7
  6
CONTINUOUS
  0
LAYER
  2
24
 70
     0
 62
     7
  6
CONTINUOUS
  0
LAYER
  2
25
 70
     0
 62
     7
  6
CONTINUOUS
  0
LAYER
  2
26
 70
     0
 62
     7
  6
CONTINUOUS
  0
LAYER
  2
27
 70
     0
 62
     7
  6
CONTINUOUS
  0
LAYER
  2
28
 70
     0
 62
     7
  6
CONTINUOUS
  0
LAYER
  2
29
 70
     0
 62
     7
  6
CONTINUOUS
  0
LAYER
  2
30
 70
     0
 62
     7
  6
CONTINUOUS
  0
LAYER
  2
31
 70
     0
 62
     7
  6
CONTINUOUS
  0
LAYER
  2
32
 70
     0
 62
     7
  6
CONTINUOUS
  0
LAYER
  2
33
 70
     0
 62
     7
  6
CONTINUOUS
  0
LAYER
  2
34
 70
     0
 62
     7
  6
CONTINUOUS
  0
LAYER
  2
35
 70
     0
 62
     7
  6
CONTINUOUS
  0
LAYER
  2
36
 70
     0
 62
     7
  6
CONTINUOUS
  0
LAYER
  2
37
 70
     0
 62
     7
  6
CONTINUOUS
  0
LAYER
  2
38
 70
     0
 62
     7
  6
CONTINUOUS
  0
LAYER
  2
39
 70
     0
 62
     7
  6
CONTINUOUS
  0
LAYER
  2
40
 70
     0
 62
     7
  6
CONTINUOUS
  0
LAYER
  2
41
 70
     0
 62
     7
  6
CONTINUOUS
  0
LAYER
  2
42
 70
     0
 62
     7
  6
CONTINUOUS
  0
LAYER
  2
43
 70
     0
 62
     7
  6
CONTINUOUS
  0
LAYER
  2
44
 70
     0
 62
     7
  6
CONTINUOUS
  0
LAYER
  2
45
 70
     0
 62
     7
  6
CONTINUOUS
  0
LAYER
  2
46
 70
     0
 62
     7
  6
CONTINUOUS
  0
LAYER
  2
47
 70
     0
 62
     7
  6
CONTINUOUS
  0
LAYER
  2
48
 70
     0
 62
     7
  6
CONTINUOUS
  0
LAYER
  2
49
 70
     0
 62
     7
  6
CONTINUOUS
  0
LAYER
  2
50
 70
     0
 62
     7
  6
CONTINUOUS
  0
ENDTAB
  0
TABLE
  2
STYLE
 70
     1
  0
STYLE
  2
STANDARD
 70
     0
 40
0.0
 41
1.0
 50
0.0
 71
     0
 42
2.0
  3
txt
  4

  0
ENDTAB
  0
TABLE
  2
VIEW
 70
     0
  0
ENDTAB
  0
TABLE
  2
UCS
 70
     0
  0
ENDTAB
  0
TABLE
  2
APPID
 70
     1
  0
APPID
  2
ACAD
 70
     0
  0
ENDTAB
  0
TABLE
  2
DIMSTYLE
 70
     4
  0
DIMSTYLE
  2
ISO-25
 70
     0
  3

  4

  5

  6

  7

 40
1.0
 41
2.5
 42
0.625
 43
3.75
 44
1.25
 45
0.0
 46
0.0
 47
0.0
 48
0.0
140
2.5
141
2.5
142
0.0
143
0.0393700787
144
1.0
145
0.0
146
1.0
147
0.625
 71
     0
 72
     0
 73
     0
 74
     0
 75
     0
 76
     0
 77
     1
 78
     8
170
     0
171
     3
172
     1
173
     0
174
     0
175
     0
176
     0
177
     0
178
     0
  0
DIMSTYLE
  2
SLDDIMSTYLE0
 70
     0
  3

  4

  5

  6
CLOSED
  7
CLOSED
 40
1.0
 41
2.0
 42
0.0625
 43
0.38
 44
0.0
 45
0.000000001
 46
0.0
 47
0.3
 48
0.2
140
2.0
141
0.09
142
0.0
143
0.0393700787
144
1.0
145
0.0
146
1.0
147
0.5
 71
     1
 72
     0
 73
     0
 74
     0
 75
     0
 76
     0
 77
     1
 78
    12
170
     1
171
     2
172
     0
173
     1
174
     0
175
     0
176
     0
177
     0
178
     0
  0
DIMSTYLE
  2
SLDDIMSTYLE1
 70
     0
  3

  4

  5

  6
CLOSED
  7
CLOSED
 40
1.0
 41
2.0
 42
0.0625
 43
0.38
 44
0.0
 45
0.000000001
 46
0.0
 47
0.0
 48
0.0
140
2.0
141
0.0
142
0.0
143
25.4
144
1.0
145
0.0
146
1.0
147
0.5
 71
     0
 72
     0
 73
     0
 74
     0
 75
     0
 76
     0
 77
     1
 78
    12
170
     0
171
     2
172
     0
173
     1
174
     0
175
     0
176
     0
177
     0
178
     0
  0
DIMSTYLE
  2
SLDDIMSTYLE2
 70
     0
  3

  4

  5

  6
CLOSED
  7
CLOSED
 40
1.0
 41
2.0
 42
0.0625
 43
0.38
 44
0.0
 45
0.000000001
 46
0.0
 47
0.0
 48
0.0
140
2.0
141
0.09
142
0.0
143
0.0393700787
144
1.0
145
0.0
146
1.0
147
0.5
 71
     0
 72
     0
 73
     0
 74
     0
 75
     0
 76
     0
 77
     1
 78
    12
170
     1
171
     2
172
     0
173
     1
174
     0
175
     0
176
     0
177
     0
178
     0
  0
ENDTAB
  0
ENDSEC
  0
SECTION
  2
BLOCKS
  0
BLOCK
  8
0
  2
$MODEL_SPACE
 70
     0
 10
0.0
 20
0.0
 30
0.0
  3
$MODEL_SPACE
  1

  0
ENDBLK
  5
21
  8
0
  0
BLOCK
 67
     1
  8
0
  2
$PAPER_SPACE
 70
     0
 10
0.0
 20
0.0
 30
0.0
  3
$PAPER_SPACE
  1

  0
ENDBLK
  5
1D
 67
     1
  8
0
  0
BLOCK
  8
0
  2
_CLOSED
 70
     0
 10
0.0
 20
0.0
 30
0.0
  3
_CLOSED
  1

  0
LINE
  5
B8
  8
0
  6
BYBLOCK
 62
     0
 10
-1.0
 20
0.166667
 30
0.0
 11
0.0
 21
0.0
 31
0.0
  0
LINE
  5
B9
  8
0
  6
BYBLOCK
 62
     0
 10
0.0
 20
0.0
 30
0.0
 11
-1.0
 21
-0.166667
 31
0.0
  0
LINE
  5
BA
  8
0
  6
BYBLOCK
 62
     0
 10
-1.0
 20
0.166667
 30
0.0
 11
-1.0
 21
-0.166667
 31
0.0
  0
LINE
  5
BB
  8
0
  6
BYBLOCK
 62
     0
 10
0.0
 20
0.0
 30
0.0
 11
-1.0
 21
0.0
 31
0.0
  0
ENDBLK
  5
B7
  8
0
  0
BLOCK
  8
0
  2
_D
 70
     0
 10
0.0
 20
0.0
 30
0.0
  3
_D
  1

  0
INSERT
  5
BF
  8
LEVEL0
  2
_CLOSED
 10
62.5995048552
 20
112.7585798419
 30
8.55
 41
2.0
 42
2.0
 50
180.0
  0
INSERT
  5
C0
  8
LEVEL0
  2
_CLOSED
 10
150.8695048552
 20
112.7585798419
 30
8.55
 41
2.0
 42
2.0
 50
0.0
  0
LINE
  5
C1
  8
LEVEL0
 10
90.9942052445
 20
123.5092745079
 30
0.0
 11
90.5879552362
 21
123.5092745079
 31
0.0
  0
LINE
  5
C2
  8
LEVEL0
 10
90.5879552362
 20
123.5092745079
 30
0.0
 11
90.5879552362
 21
118.3370521209
 31
0.0
  0
LINE
  5
C3
  8
LEVEL0
 10
90.5879552362
 20
118.3370521209
 30
0.0
 11
90.9942052445
 21
118.3370521209
 31
0.0
  0
LINE
  5
C4
  8
LEVEL0
 10
107.6653850965
 20
123.5092745079
 30
0.0
 11
108.0716351049
 21
123.5092745079
 31
0.0
  0
LINE
  5
C5
  8
LEVEL0
 10
108.0716351049
 20
123.5092745079
 30
0.0
 11
108.0716351049
 21
118.3370521209
 31
0.0
  0
LINE
  5
C6
  8
LEVEL0
 10
108.0716351049
 20
118.3370521209
 30
0.0
 11
107.6653850965
 21
118.3370521209
 31
0.0
  0
LINE
  5
C7
  8
LEVEL0
 10
62.5995048552
 20
112.7585798419
 30
0.0
 11
150.8695048552
 21
112.7585798419
 31
0.0
  0
TEXT
  5
C8
  8
LEVEL0
 10
88.8054900048
 20
113.4956554952
 30
8.55
 40
2.0
  1
  
 50
360.0
 41
0.7
 11
88.8054900048
 21
112.7891353714
 31
8.55
 73
     1
  0
TEXT
  5
C9
  8
LEVEL0
 10
91.502017755
 20
119.0741277742
 30
8.55
 40
2.0
  1
3.475
 50
360.0
 41
0.7
 11
91.502017755
 21
118.3676076504
 31
8.55
 73
     1
  0
TEXT
  5
CA
  8
LEVEL0
 10
98.1520176343
 20
119.0741277742
 30
8.55
 40
2.0
  1
 
 50
360.0
 41
0.7
 11
98.1520176343
 21
118.3676076504
 31
8.55
 73
     1
  0
TEXT
  5
CB
  8
LEVEL0
 10
98.8909066133
 20
121.6296834382
 30
8.55
 40
2.0
  1
+
 50
360.0
 41
0.7
 11
98.8909066133
 21
120.9231633144
 31
8.55
 73
     1
  0
TEXT
  5
CC
  8
LEVEL0
 10
99.2561843947
 20
119.0435722447
 30
8.55
 40
2.0
  1
-
 50
360.0
 41
0.7
 11
99.2561843947
 21
118.3370521209
 31
8.55
 73
     1
  0
TEXT
  5
CD
  8
LEVEL0
 10
100.5075727067
 20
121.6296834382
 30
8.55
 40
2.0
  1
0.012
 50
360.0
 41
0.7
 11
100.5075727067
 21
120.9231633144
 31
8.55
 73
     1
  0
TEXT
  5
CE
  8
LEVEL0
 10
100.5075727067
 20
119.0435722447
 30
8.55
 40
2.0
  1
0.008
 50
360.0
 41
0.7
 11
100.5075727067
 21
118.3370521209
 31
8.55
 73
     1
  0
TEXT
  5
CF
  8
LEVEL0
 10
93.7186843426
 20
113.4650995
 30
8.55
 40
2.0
  1
88.3
 50
360.0
 41
0.7
 11
93.7186843426
 21
112.7585793762
 31
8.55
 73
     1
  0
TEXT
  5
D0
  8
LEVEL0
 10
98.890906264
 20
113.4650995
 30
8.55
 40
2.0
  1
 
 50
360.0
 41
0.7
 11
98.890906264
 21
112.7585793762
 31
8.55
 73
     1
  0
TEXT
  5
D1
  8
LEVEL0
 10
99.629795243
 20
116.0512106936
 30
8.55
 40
2.0
  1
+
 50
360.0
 41
0.7
 11
99.629795243
 21
115.3446905697
 31
8.55
 73
     1
  0
TEXT
  5
D2
  8
LEVEL0
 10
99.9950730244
 20
113.4650995
 30
8.55
 40
2.0
  1
-
 50
360.0
 41
0.7
 11
99.9950730244
 21
112.7585793762
 31
8.55
 73
     1
  0
TEXT
  5
D3
  8
LEVEL0
 10
101.2464618021
 20
116.0512106936
 30
8.55
 40
2.0
  1
0.3
 50
360.0
 41
0.7
 11
101.2464618021
 21
115.3446905697
 31
8.55
 73
     1
  0
TEXT
  5
D4
  8
LEVEL0
 10
101.2464618021
 20
113.4650995
 30
8.55
 40
2.0
  1
0.2
 50
360.0
 41
0.7
 11
101.2464618021
 21
112.7585793762
 31
8.55
 73
     1
  0
TEXT
  5
D5
  8
LEVEL0
 10
108.3763230768
 20
113.4956554952
 30
8.55
 40
2.0
  1
  
 50
360.0
 41
0.7
 11
108.3763230768
 21
112.7891353714
 31
8.55
 73
     1
  0
ENDBLK
  5
BE
  8
0
  0
BLOCK
  8
0
  2
_D_1
 70
     0
 10
0.0
 20
0.0
 30
0.0
  3
_D_1
  1

  0
INSERT
  5
DA
  8
LEVEL0
  2
_CLOSED
 10
116.6523076939
 20
62.8080166662
 30
8.55
 41
2.0
 42
2.0
 50
270.0
  0
INSERT
  5
DB
  8
LEVEL0
  2
_CLOSED
 10
116.6523076939
 20
212.1080166662
 30
8.55
 41
2.0
 42
2.0
 50
90.0
  0
LINE
  5
DC
  8
LEVEL0
 10
105.9016130278
 20
143.7949882275
 30
0.0
 11
105.9016130278
 21
143.3887382192
 31
0.0
  0
LINE
  5
DD
  8
LEVEL0
 10
105.9016130278
 20
143.3887382192
 30
0.0
 11
111.0738354149
 21
143.3887382192
 31
0.0
  0
LINE
  5
DE
  8
LEVEL0
 10
111.0738354149
 20
143.3887382192
 30
0.0
 11
111.0738354149
 21
143.7949882275
 31
0.0
  0
LINE
  5
DF
  8
LEVEL0
 10
105.9016130278
 20
160.4661680795
 30
0.0
 11
105.9016130278
 21
160.8724180879
 31
0.0
  0
LINE
  5
E0
  8
LEVEL0
 10
105.9016130278
 20
160.8724180879
 30
0.0
 11
111.0738354149
 21
160.8724180879
 31
0.0
  0
LINE
  5
E1
  8
LEVEL0
 10
111.0738354149
 20
160.8724180879
 30
0.0
 11
111.0738354149
 21
160.4661680795
 31
0.0
  0
LINE
  5
E2
  8
LEVEL0
 10
116.6523076939
 20
62.8080166662
 30
0.0
 11
116.6523076939
 21
212.1080166662
 31
0.0
  0
TEXT
  5
E3
  8
LEVEL0
 10
115.9152320405
 20
141.6062729878
 30
8.55
 40
2.0
  1
  
 50
90.0
 41
0.7
 11
116.6217521644
 21
141.6062729878
 31
8.55
 73
     1
  0
TEXT
  5
E4
  8
LEVEL0
 10
110.3367597615
 20
144.302800738
 30
8.55
 40
2.0
  1
5.878
 50
90.0
 41
0.7
 11
111.0432798853
 21
144.302800738
 31
8.55
 73
     1
  0
TEXT
  5
E5
  8
LEVEL0
 10
110.3367597615
 20
150.9528006173
 30
8.55
 40
2.0
  1
 
 50
90.0
 41
0.7
 11
111.0432798853
 21
150.9528006173
 31
8.55
 73
     1
  0
TEXT
  5
E6
  8
LEVEL0
 10
107.7812040975
 20
151.6916895963
 30
8.55
 40
2.0
  1
+
 50
90.0
 41
0.7
 11
108.4877242213
 21
151.6916895963
 31
8.55
 73
     1
  0
TEXT
  5
E7
  8
LEVEL0
 10
110.367315291
 20
152.0569673777
 30
8.55
 40
2.0
  1
-
 50
90.0
 41
0.7
 11
111.0738354149
 21
152.0569673777
 31
8.55
 73
     1
  0
TEXT
  5
E8
  8
LEVEL0
 10
107.7812040975
 20
153.3083556897
 30
8.55
 40
2.0
  1
0.012
 50
90.0
 41
0.7
 11
108.4877242213
 21
153.3083556897
 31
8.55
 73
     1
  0
TEXT
  5
E9
  8
LEVEL0
 10
110.367315291
 20
153.3083556897
 30
8.55
 40
2.0
  1
0.008
 50
90.0
 41
0.7
 11
111.0738354149
 21
153.3083556897
 31
8.55
 73
     1
  0
TEXT
  5
EA
  8
LEVEL0
 10
115.9457880357
 20
145.7805783467
 30
8.55
 40
2.0
  1
149.3
 50
90.0
 41
0.7
 11
116.6523081595
 21
145.7805783467
 31
8.55
 73
     1
  0
TEXT
  5
EB
  8
LEVEL0
 10
115.9457880357
 20
152.430578226
 30
8.55
 40
2.0
  1
 
 50
90.0
 41
0.7
 11
116.6523081595
 21
152.430578226
 31
8.55
 73
     1
  0
TEXT
  5
EC
  8
LEVEL0
 10
113.3596768422
 20
153.1694672049
 30
8.55
 40
2.0
  1
+
 50
90.0
 41
0.7
 11
114.066196966
 21
153.1694672049
 31
8.55
 73
     1
  0
TEXT
  5
ED
  8
LEVEL0
 10
115.9457880357
 20
153.5347449863
 30
8.55
 40
2.0
  1
-
 50
90.0
 41
0.7
 11
116.6523081595
 21
153.5347449863
 31
8.55
 73
     1
  0
TEXT
  5
EE
  8
LEVEL0
 10
113.3596768422
 20
154.7861332984
 30
8.55
 40
2.0
  1
0.3
 50
90.0
 41
0.7
 11
114.066196966
 21
154.7861332984
 31
8.55
 73
     1
  0
TEXT
  5
EF
  8
LEVEL0
 10
115.9457880357
 20
154.7861332984
 30
8.55
 40
2.0
  1
0.2
 50
90.0
 41
0.7
 11
116.6523081595
 21
154.7861332984
 31
8.55
 73
     1
  0
TEXT
  5
F0
  8
LEVEL0
 10
115.9152320405
 20
161.1771060598
 30
8.55
 40
2.0
  1
  
 50
90.0
 41
0.7
 11
116.6217521644
 21
161.1771060598
 31
8.55
 73
     1
  0
ENDBLK
  5
D9
  8
0
  0
BLOCK
  8
0
  2
_D_2
 70
     0
 10
0.0
 20
0.0
 30
0.0
  3
_D_2
  1

  0
INSERT
  5
F6
  8
LEVEL0
  2
_CLOSED
 10
150.2544290957
 20
63.4230924257
 30
8.55
 41
2.0
 42
2.0
 50
315.029505107
  0
LINE
  5
F7
  8
LEVEL0
 10
150.2544290957
 20
63.4230924257
 30
0.0
 11
136.8628876824
 21
76.8008486864
 31
0.0
  0
TEXT
  5
F8
  8
LEVEL0
 10
137.362472853
 20
77.300433857
 30
8.55
 40
2.0
  1
R2.1
 50
-45.0
 41
0.7
 11
136.8628876824
 21
76.8008486864
 31
8.55
 73
     1
  0
ENDBLK
  5
F5
  8
0
  0
BLOCK
  8
0
  2
_D_3
 70
     0
 10
0.0
 20
0.0
 30
0.0
  3
_D_3
  1

  0
INSERT
  5
FE
  8
LEVEL0
  2
_CLOSED
 10
55.0995048552
 20
229.3594604326
 30
8.55
 41
2.0
 42
2.0
 50
180.0
  0
INSERT
  5
FF
  8
LEVEL0
  2
_CLOSED
 10
158.3695048552
 20
229.3594604326
 30
8.55
 41
2.0
 42
2.0
 50
0.0
  0
LINE
  5
100
  8
LEVEL0
 10
105.1719018924
 20
235.5268214797
 30
0.0
 11
104.765651884
 21
235.5268214797
 31
0.0
  0
LINE
  5
101
  8
LEVEL0
 10
104.765651884
 20
235.5268214797
 30
0.0
 11
104.765651884
 21
232.3518215181
 31
0.0
  0
LINE
  5
102
  8
LEVEL0
 10
104.765651884
 20
232.3518215181
 30
0.0
 11
105.1719018924
 21
232.3518215181
 31
0.0
  0
LINE
  5
103
  8
LEVEL0
 10
112.8375267927
 20
235.5268214797
 30
0.0
 11
113.243776801
 21
235.5268214797
 31
0.0
  0
LINE
  5
104
  8
LEVEL0
 10
113.243776801
 20
235.5268214797
 30
0.0
 11
113.243776801
 21
232.3518215181
 31
0.0
  0
LINE
  5
105
  8
LEVEL0
 10
113.243776801
 20
232.3518215181
 30
0.0
 11
112.8375267927
 21
232.3518215181
 31
0.0
  0
LINE
  5
106
  8
LEVEL0
 10
55.0995048552
 20
224.1080166662
 30
0.0
 11
55.0995048552
 21
230.3594604326
 31
0.0
  0
LINE
  5
107
  8
LEVEL0
 10
158.3695048552
 20
224.1080166662
 30
0.0
 11
158.3695048552
 21
230.3594604326
 31
0.0
  0
LINE
  5
108
  8
LEVEL0
 10
55.0995048552
 20
229.3594604326
 30
0.0
 11
158.3695048552
 21
229.3594604326
 31
0.0
  0
TEXT
  5
109
  8
LEVEL0
 10
102.9831866527
 20
230.096536086
 30
8.55
 40
2.0
  1
  
 50
360.0
 41
0.7
 11
102.9831866527
 21
229.3900159621
 31
8.55
 73
     1
  0
TEXT
  5
10A
  8
LEVEL0
 10
105.6797144029
 20
233.0583416419
 30
8.55
 40
2.0
  1
4.066
 50
360.0
 41
0.7
 11
105.6797144029
 21
232.3518215181
 31
8.55
 73
     1
  0
TEXT
  5
10B
  8
LEVEL0
 10
105.6797145193
 20
230.0659803236
 30
8.55
 40
2.0
  1
103.3
 50
360.0
 41
0.7
 11
105.6797145193
 21
229.3594601998
 31
8.55
 73
     1
  0
TEXT
  5
10C
  8
LEVEL0
 10
113.548464773
 20
230.096536086
 30
8.55
 40
2.0
  1
  
 50
360.0
 41
0.7
 11
113.548464773
 21
229.3900159621
 31
8.55
 73
     1
  0
ENDBLK
  5
FD
  8
0
  0
BLOCK
  8
0
  2
_D_4
 70
     0
 10
0.0
 20
0.0
 30
0.0
  3
_D_4
  1

  0
INSERT
  5
111
  8
LEVEL0
  2
_CLOSED
 10
150.8695048552
 20
215.2448299004
 30
8.55
 41
2.0
 42
2.0
 50
180.0
  0
INSERT
  5
112
  8
LEVEL0
  2
_CLOSED
 10
158.3695048552
 20
215.2448299004
 30
8.55
 41
2.0
 42
2.0
 50
0.0
  0
LINE
  5
113
  8
LEVEL0
 10
167.0074261289
 20
221.4121909475
 30
0.0
 11
166.6011761205
 21
221.4121909475
 31
0.0
  0
LINE
  5
114
  8
LEVEL0
 10
166.6011761205
 20
221.4121909475
 30
0.0
 11
166.6011761205
 21
218.2371909859
 31
0.0
  0
LINE
  5
115
  8
LEVEL0
 10
166.6011761205
 20
218.2371909859
 30
0.0
 11
167.0074261289
 21
218.2371909859
 31
0.0
  0
LINE
  5
116
  8
LEVEL0
 10
174.6730510291
 20
221.4121909475
 30
0.0
 11
175.0793010375
 21
221.4121909475
 31
0.0
  0
LINE
  5
117
  8
LEVEL0
 10
175.0793010375
 20
221.4121909475
 30
0.0
 11
175.0793010375
 21
218.2371909859
 31
0.0
  0
LINE
  5
118
  8
LEVEL0
 10
175.0793010375
 20
218.2371909859
 30
0.0
 11
174.6730510291
 21
218.2371909859
 31
0.0
  0
LINE
  5
119
  8
LEVEL0
 10
150.8695048552
 20
211.0080166662
 30
0.0
 11
150.8695048552
 21
216.2448299004
 31
0.0
  0
LINE
  5
11A
  8
LEVEL0
 10
158.3695048552
 20
215.1080166662
 30
0.0
 11
158.3695048552
 21
214.2448299004
 31
0.0
  0
LINE
  5
11B
  8
LEVEL0
 10
150.8695048552
 20
215.2448299004
 30
0.0
 11
158.3695048552
 21
215.2448299004
 31
0.0
  0
LINE
  5
11C
  8
LEVEL0
 10
158.3695048552
 20
215.2448299004
 30
0.0
 11
176.8617669674
 21
215.2448299004
 31
0.0
  0
TEXT
  5
11D
  8
LEVEL0
 10
164.8187108891
 20
215.9819055537
 30
8.55
 40
2.0
  1
  
 50
360.0
 41
0.7
 11
164.8187108891
 21
215.2753854299
 31
8.55
 73
     1
  0
TEXT
  5
11E
  8
LEVEL0
 10
167.5152386394
 20
218.9437111097
 30
8.55
 40
2.0
  1
0.295
 50
360.0
 41
0.7
 11
167.5152386394
 21
218.2371909859
 31
8.55
 73
     1
  0
TEXT
  5
11F
  8
LEVEL0
 10
168.9930165973
 20
215.9513497914
 30
8.55
 40
2.0
  1
7.5
 50
360.0
 41
0.7
 11
168.9930165973
 21
215.2448296675
 31
8.55
 73
     1
  0
TEXT
  5
120
  8
LEVEL0
 10
175.3839890095
 20
215.9819055537
 30
8.55
 40
2.0
  1
  
 50
360.0
 41
0.7
 11
175.3839890095
 21
215.2753854299
 31
8.55
 73
     1
  0
ENDBLK
  5
110
  8
0
  0
BLOCK
  8
0
  2
_D_5
 70
     0
 10
0.0
 20
0.0
 30
0.0
  3
_D_5
  1

  0
INSERT
  5
125
  8
LEVEL0
  2
_CLOSED
 10
59.805145408
 20
219.6080166662
 30
8.55
 41
2.0
 42
2.0
 50
90.0
  0
INSERT
  5
126
  8
LEVEL0
  2
_CLOSED
 10
59.805145408
 20
212.1080166662
 30
8.55
 41
2.0
 42
2.0
 50
270.0
  0
LINE
  5
127
  8
LEVEL0
 10
53.6377843609
 20
199.7170375172
 30
0.0
 11
53.6377843609
 21
199.3107875088
 31
0.0
  0
LINE
  5
128
  8
LEVEL0
 10
53.6377843609
 20
199.3107875088
 30
0.0
 11
56.8127843225
 21
199.3107875088
 31
0.0
  0
LINE
  5
129
  8
LEVEL0
 10
56.8127843225
 20
199.3107875088
 30
0.0
 11
56.8127843225
 21
199.7170375172
 31
0.0
  0
LINE
  5
12A
  8
LEVEL0
 10
53.6377843609
 20
207.3826624174
 30
0.0
 11
53.6377843609
 21
207.7889124258
 31
0.0
  0
LINE
  5
12B
  8
LEVEL0
 10
53.6377843609
 20
207.7889124258
 30
0.0
 11
56.8127843225
 21
207.7889124258
 31
0.0
  0
LINE
  5
12C
  8
LEVEL0
 10
56.8127843225
 20
207.7889124258
 30
0.0
 11
56.8127843225
 21
207.3826624174
 31
0.0
  0
LINE
  5
12D
  8
LEVEL0
 10
59.5995048552
 20
219.6080166662
 30
0.0
 11
60.805145408
 21
219.6080166662
 31
0.0
  0
LINE
  5
12E
  8
LEVEL0
 10
63.6995048552
 20
212.1080166662
 30
0.0
 11
58.805145408
 21
212.1080166662
 31
0.0
  0
LINE
  5
12F
  8
LEVEL0
 10
59.805145408
 20
219.6080166662
 30
0.0
 11
59.805145408
 21
212.1080166662
 31
0.0
  0
LINE
  5
130
  8
LEVEL0
 10
59.805145408
 20
212.1080166662
 30
0.0
 11
59.805145408
 21
197.5283222774
 31
0.0
  0
TEXT
  5
131
  8
LEVEL0
 10
59.0680697546
 20
197.5283222774
 30
8.55
 40
2.0
  1
  
 50
90.0
 41
0.7
 11
59.7745898785
 21
197.5283222774
 31
8.55
 73
     1
  0
TEXT
  5
132
  8
LEVEL0
 10
56.1062641986
 20
200.2248500276
 30
8.55
 40
2.0
  1
0.295
 50
90.0
 41
0.7
 11
56.8127843225
 21
200.2248500276
 31
8.55
 73
     1
  0
TEXT
  5
133
  8
LEVEL0
 10
59.098625517
 20
201.7026279855
 30
8.55
 40
2.0
  1
7.5
 50
90.0
 41
0.7
 11
59.8051456408
 21
201.7026279855
 31
8.55
 73
     1
  0
TEXT
  5
134
  8
LEVEL0
 10
59.0680697546
 20
208.0936003977
 30
8.55
 40
2.0
  1
  
 50
90.0
 41
0.7
 11
59.7745898785
 21
208.0936003977
 31
8.55
 73
     1
  0
ENDBLK
  5
124
  8
0
  0
BLOCK
  8
0
  2
_D_6
 70
     0
 10
0.0
 20
0.0
 30
0.0
  3
_D_6
  1

  0
INSERT
  5
139
  8
LEVEL0
  2
_CLOSED
 10
42.3355820538
 20
219.6080166662
 30
8.55
 41
2.0
 42
2.0
 50
90.0
  0
INSERT
  5
13A
  8
LEVEL0
  2
_CLOSED
 10
42.3355820538
 20
55.3080166662
 30
8.55
 41
2.0
 42
2.0
 50
270.0
  0
LINE
  5
13B
  8
LEVEL0
 10
36.1682210067
 20
140.0363992765
 30
0.0
 11
36.1682210067
 21
139.6301492681
 31
0.0
  0
LINE
  5
13C
  8
LEVEL0
 10
36.1682210067
 20
139.6301492681
 30
0.0
 11
39.3432209683
 21
139.6301492681
 31
0.0
  0
LINE
  5
13D
  8
LEVEL0
 10
39.3432209683
 20
139.6301492681
 30
0.0
 11
39.3432209683
 21
140.0363992765
 31
0.0
  0
LINE
  5
13E
  8
LEVEL0
 10
36.1682210067
 20
147.7020241767
 30
0.0
 11
36.1682210067
 21
148.1082741851
 31
0.0
  0
LINE
  5
13F
  8
LEVEL0
 10
36.1682210067
 20
148.1082741851
 30
0.0
 11
39.3432209683
 21
148.1082741851
 31
0.0
  0
LINE
  5
140
  8
LEVEL0
 10
39.3432209683
 20
148.1082741851
 30
0.0
 11
39.3432209683
 21
147.7020241767
 31
0.0
  0
LINE
  5
141
  8
LEVEL0
 10
50.5995048552
 20
219.6080166662
 30
0.0
 11
41.3355820538
 21
219.6080166662
 31
0.0
  0
LINE
  5
142
  8
LEVEL0
 10
50.5995048552
 20
55.3080166662
 30
0.0
 11
41.3355820538
 21
55.3080166662
 31
0.0
  0
LINE
  5
143
  8
LEVEL0
 10
42.3355820538
 20
219.6080166662
 30
0.0
 11
42.3355820538
 21
55.3080166662
 31
0.0
  0
TEXT
  5
144
  8
LEVEL0
 10
41.5985064004
 20
137.8476840367
 30
8.55
 40
2.0
  1
  
 50
90.0
 41
0.7
 11
42.3050265243
 21
137.8476840367
 31
8.55
 73
     1
  0
TEXT
  5
145
  8
LEVEL0
 10
38.6367008445
 20
140.544211787
 30
8.55
 40
2.0
  1
6.469
 50
90.0
 41
0.7
 11
39.3432209683
 21
140.544211787
 31
8.55
 73
     1
  0
TEXT
  5
146
  8
LEVEL0
 10
41.6290621628
 20
140.5442119034
 30
8.55
 40
2.0
  1
164.3
 50
90.0
 41
0.7
 11
42.3355822866
 21
140.5442119034
 31
8.55
 73
     1
  0
TEXT
  5
147
  8
LEVEL0
 10
41.5985064004
 20
148.4129621571
 30
8.55
 40
2.0
  1
  
 50
90.0
 41
0.7
 11
42.3050265243
 21
148.4129621571
 31
8.55
 73
     1
  0
ENDBLK
  5
138
  8
0
  0
BLOCK
  8
0
  2
SW_NOTE_0
 70
     0
 10
0.0
 20
0.0
 30
0.0
  3
SW_NOTE_0
  1

  0
TEXT
  5
14C
  8
LEVEL0
 62
     0
 10
-36.2624786603
 20
18.3414063006
 30
0.0
 40
2.0
  1
MARK SCREW
 41
0.7
 11
-36.2624786603
 21
17.6348861767
 31
0.0
 73
     1
  0
TEXT
  5
14D
  8
LEVEL0
 62
     0
 10
-36.2624786603
 20
15.3414062745
 30
0.0
 40
2.0
  1
 LOCATIONS
 41
0.7
 11
-36.2624786603
 21
14.6348861506
 31
0.0
 73
     1
  0
LINE
  5
14E
  8
LEVEL0
 62
     0
 10
-19.9916917291
 20
16.3471339902
 30
0.0
 11
0.0
 21
0.0
 31
0.0
  0
SOLID
  5
14F
  8
LEVEL0
 62
     0
 10
0.0
 20
0.0
 30
0.0
 11
-1.3535097625
 21
1.5042226826
 31
0.0
 12
-1.7430560134
 22
1.0278279479
 32
0.0
 13
-1.7430560134
 23
1.0278279479
 33
0.0
  0
ENDBLK
  5
14B
  8
0
  0
BLOCK
  8
0
  2
SW_CENTERMARKSYMBOL_0
 70
     0
 10
0.0
 20
0.0
 30
0.0
  3
SW_CENTERMARKSYMBOL_0
  1

  0
LINE
  5
154
  8
LEVEL0
 62
     0
 10
0.0
 20
0.0
 30
0.0
 11
0.0
 21
2.5
 31
0.0
  0
LINE
  5
155
  8
LEVEL0
 62
     0
 10
0.0
 20
0.0
 30
0.0
 11
-2.5
 21
0.0
 31
0.0
  0
LINE
  5
156
  8
LEVEL0
 62
     0
 10
0.0
 20
0.0
 30
0.0
 11
0.0
 21
-2.5
 31
0.0
  0
LINE
  5
157
  8
LEVEL0
 62
     0
 10
0.0
 20
0.0
 30
0.0
 11
2.5
 21
0.0
 31
0.0
  0
LINE
  5
158
  8
LEVEL0
 62
     0
 10
0.0
 20
2.5
 30
0.0
 11
0.0
 21
3.5
 31
0.0
  0
LINE
  5
159
  8
LEVEL0
 62
     0
 10
-2.5
 20
0.0
 30
0.0
 11
-3.5
 21
0.0
 31
0.0
  0
LINE
  5
15A
  8
LEVEL0
 62
     0
 10
0.0
 20
-2.5
 30
0.0
 11
0.0
 21
-3.5
 31
0.0
  0
LINE
  5
15B
  8
LEVEL0
 62
     0
 10
2.5
 20
0.0
 30
0.0
 11
3.5
 21
0.0
 31
0.0
  0
ENDBLK
  5
153
  8
0
  0
BLOCK
  8
0
  2
SW_CENTERMARKSYMBOL_1
 70
     0
 10
0.0
 20
0.0
 30
0.0
  3
SW_CENTERMARKSYMBOL_1
  1

  0
LINE
  5
160
  8
LEVEL0
 62
     0
 10
0.0
 20
0.0
 30
0.0
 11
0.0
 21
2.5
 31
0.0
  0
LINE
  5
161
  8
LEVEL0
 62
     0
 10
0.0
 20
0.0
 30
0.0
 11
-2.5
 21
0.0
 31
0.0
  0
LINE
  5
162
  8
LEVEL0
 62
     0
 10
0.0
 20
0.0
 30
0.0
 11
0.0
 21
-2.5
 31
0.0
  0
LINE
  5
163
  8
LEVEL0
 62
     0
 10
0.0
 20
0.0
 30
0.0
 11
2.5
 21
0.0
 31
0.0
  0
LINE
  5
164
  8
LEVEL0
 62
     0
 10
0.0
 20
2.5
 30
0.0
 11
0.0
 21
3.5
 31
0.0
  0
LINE
  5
165
  8
LEVEL0
 62
     0
 10
-2.5
 20
0.0
 30
0.0
 11
-3.5
 21
0.0
 31
0.0
  0
LINE
  5
166
  8
LEVEL0
 62
     0
 10
0.0
 20
-2.5
 30
0.0
 11
0.0
 21
-3.5
 31
0.0
  0
LINE
  5
167
  8
LEVEL0
 62
     0
 10
2.5
 20
0.0
 30
0.0
 11
3.5
 21
0.0
 31
0.0
  0
ENDBLK
  5
15F
  8
0
  0
BLOCK
  8
0
  2
SW_CENTERMARKSYMBOL_2
 70
     0
 10
0.0
 20
0.0
 30
0.0
  3
SW_CENTERMARKSYMBOL_2
  1

  0
LINE
  5
16C
  8
LEVEL0
 62
     0
 10
0.0
 20
0.0
 30
0.0
 11
0.0
 21
2.5
 31
0.0
  0
LINE
  5
16D
  8
LEVEL0
 62
     0
 10
0.0
 20
0.0
 30
0.0
 11
-2.5
 21
0.0
 31
0.0
  0
LINE
  5
16E
  8
LEVEL0
 62
     0
 10
0.0
 20
0.0
 30
0.0
 11
0.0
 21
-2.5
 31
0.0
  0
LINE
  5
16F
  8
LEVEL0
 62
     0
 10
0.0
 20
0.0
 30
0.0
 11
2.5
 21
0.0
 31
0.0
  0
LINE
  5
170
  8
LEVEL0
 62
     0
 10
0.0
 20
2.5
 30
0.0
 11
0.0
 21
3.5
 31
0.0
  0
LINE
  5
171
  8
LEVEL0
 62
     0
 10
-2.5
 20
0.0
 30
0.0
 11
-3.5
 21
0.0
 31
0.0
  0
LINE
  5
172
  8
LEVEL0
 62
     0
 10
0.0
 20
-2.5
 30
0.0
 11
0.0
 21
-3.5
 31
0.0
  0
LINE
  5
173
  8
LEVEL0
 62
     0
 10
2.5
 20
0.0
 30
0.0
 11
3.5
 21
0.0
 31
0.0
  0
ENDBLK
  5
16B
  8
0
  0
BLOCK
  8
0
  2
SW_CENTERMARKSYMBOL_3
 70
     0
 10
0.0
 20
0.0
 30
0.0
  3
SW_CENTERMARKSYMBOL_3
  1

  0
LINE
  5
178
  8
LEVEL0
 62
     0
 10
0.0
 20
0.0
 30
0.0
 11
0.0
 21
2.5
 31
0.0
  0
LINE
  5
179
  8
LEVEL0
 62
     0
 10
0.0
 20
0.0
 30
0.0
 11
-2.5
 21
0.0
 31
0.0
  0
LINE
  5
17A
  8
LEVEL0
 62
     0
 10
0.0
 20
0.0
 30
0.0
 11
0.0
 21
-2.5
 31
0.0
  0
LINE
  5
17B
  8
LEVEL0
 62
     0
 10
0.0
 20
0.0
 30
0.0
 11
2.5
 21
0.0
 31
0.0
  0
LINE
  5
17C
  8
LEVEL0
 62
     0
 10
0.0
 20
2.5
 30
0.0
 11
0.0
 21
3.5
 31
0.0
  0
LINE
  5
17D
  8
LEVEL0
 62
     0
 10
-2.5
 20
0.0
 30
0.0
 11
-3.5
 21
0.0
 31
0.0
  0
LINE
  5
17E
  8
LEVEL0
 62
     0
 10
0.0
 20
-2.5
 30
0.0
 11
0.0
 21
-3.5
 31
0.0
  0
LINE
  5
17F
  8
LEVEL0
 62
     0
 10
2.5
 20
0.0
 30
0.0
 11
3.5
 21
0.0
 31
0.0
  0
ENDBLK
  5
177
  8
0
  0
ENDSEC
  0
SECTION
  2
ENTITIES
  0
ARC
  5
A7
  8
0
  6
CONTINUOUS
 62
     7
 10
148.7695048552
 20
64.9080166662
 30
0.0
 40
2.100000000000009
 50
270.0
 51
0.0
  0
LINE
  5
A8
  8
0
  6
CONTINUOUS
 62
     7
 10
150.8695048552
 20
210.0080166662
 30
0.0
 11
150.8695048552
 21
64.9080166662
 31
0.0
  0
ARC
  5
A9
  8
0
  6
CONTINUOUS
 62
     7
 10
148.7695048552
 20
210.0080166662
 30
0.0
 40
2.099999999999994
 50
0.0
 51
90.0
  0
LINE
  5
AA
  8
0
  6
CONTINUOUS
 62
     7
 10
64.6995048552
 20
212.1080166662
 30
0.0
 11
148.7695048552
 21
212.1080166662
 31
0.0
  0
ARC
  5
AB
  8
0
  6
CONTINUOUS
 62
     7
 10
64.6995048552
 20
210.0080166662
 30
0.0
 40
2.099999999999994
 50
90.0
 51
180.0
  0
LINE
  5
AC
  8
0
  6
CONTINUOUS
 62
     7
 10
62.5995048552
 20
64.9080166662
 30
0.0
 11
62.5995048552
 21
210.0080166662
 31
0.0
  0
ARC
  5
AD
  8
0
  6
CONTINUOUS
 62
     7
 10
64.6995048552
 20
64.9080166662
 30
0.0
 40
2.100000000000009
 50
180.0
 51
270.0
  0
LINE
  5
AE
  8
0
  6
CONTINUOUS
 62
     7
 10
148.7695048552
 20
62.8080166662
 30
0.0
 11
64.6995048552
 21
62.8080166662
 31
0.0
  0
CIRCLE
  5
AF
  8
0
  6
CONTINUOUS
 62
     7
 10
55.0995048552
 20
219.6080166662
 30
0.0
 40
1.0
  0
CIRCLE
  5
B0
  8
0
  6
CONTINUOUS
 62
     7
 10
158.3695048552
 20
219.6080166662
 30
0.0
 40
1.0
  0
CIRCLE
  5
B1
  8
0
  6
CONTINUOUS
 62
     7
 10
158.3695048552
 20
55.3080166662
 30
0.0
 40
1.0
  0
CIRCLE
  5
B2
  8
0
  6
CONTINUOUS
 62
     7
 10
55.0995048552
 20
55.3080166662
 30
0.0
 40
1.0
  0
DIMENSION
  5
B3
  8
LEVEL0
  2
_D
 10
150.8695048552
 20
112.7585798419
 30
0.0
 11
99.3297955198
 21
112.7585798419
 31
0.0
 70
   160
  1
<>
  3
SLDDIMSTYLE0
 13
62.5995048552
 23
64.9080166662
 33
0.0
 14
150.8695048552
 24
64.9080166662
 34
0.0
 50
0.0
  0
DIMENSION
  5
D6
  8
LEVEL0
  2
_D_1
 10
116.6523076939
 20
212.1080166662
 30
0.0
 11
116.6523076939
 21
152.1305785028
 31
0.0
 70
   160
  1
<>
  3
SLDDIMSTYLE0
 13
148.7695048552
 23
62.8080166662
 33
0.0
 14
148.7695048552
 24
212.1080166662
 34
0.0
 50
90.0
  0
DIMENSION
  5
F1
  8
LEVEL0
  2
_D_2
 10
148.7695048552
 20
64.9080166662
 30
0.0
 11
138.6866227539
 21
74.9909187674
 31
0.0
 70
   164
  1
<>
  3
SLDDIMSTYLE1
 15
150.2544290957
 25
63.4230924257
 35
0.0
 40
0.0
  0
DIMENSION
  5
F9
  8
LEVEL0
  2
_D_3
 10
158.3695048552
 20
229.3594604326
 30
0.0
 11
109.0047146918
 21
229.3594604326
 31
0.0
 70
   160
  1
<>
  3
SLDDIMSTYLE2
 13
55.0995048552
 23
223.1080166662
 33
0.0
 14
158.3695048552
 24
223.1080166662
 34
0.0
 50
0.0
  0
DIMENSION
  5
10D
  8
LEVEL0
  2
_D_4
 10
158.3695048552
 20
215.2448299004
 30
0.0
 11
170.8402389283
 21
215.2448299004
 31
0.0
 70
   160
  1
<>
  3
SLDDIMSTYLE2
 13
150.8695048552
 23
210.0080166662
 33
0.0
 14
158.3695048552
 24
216.1080166662
 34
0.0
  0
DIMENSION
  5
121
  8
LEVEL0
  2
_D_5
 10
59.805145408
 20
212.1080166662
 30
0.0
 11
59.805145408
 21
203.5498503165
 31
0.0
 70
   160
  1
<>
  3
SLDDIMSTYLE2
 13
58.5995048552
 23
219.6080166662
 33
0.0
 14
64.6995048552
 24
212.1080166662
 34
0.0
 50
90.0
  0
DIMENSION
  5
135
  8
LEVEL0
  2
_D_6
 10
42.3355820538
 20
55.3080166662
 30
0.0
 11
42.3355820538
 21
143.8692120759
 31
0.0
 70
   160
  1
<>
  3
SLDDIMSTYLE2
 13
51.5995048552
 23
219.6080166662
 33
0.0
 14
51.5995048552
 24
55.3080166662
 34
0.0
 50
90.0
  0
TEXT
  5
148
  8
LEVEL0
 10
87.6512516104
 20
247.6538498507
 30
0.0
 40
3.175
  1
ROUTING TEMPLATE
 41
0.7
 11
87.6512516104
 21
246.5322491541
 31
0.0
 73
     1
  0
INSERT
  5
150
  8
LEVEL0
  2
SW_NOTE_0
 10
54.3293896706
 20
220.24592152
 30
0.0
  0
INSERT
  5
15C
  8
LEVEL0
  2
SW_CENTERMARKSYMBOL_0
 10
55.0995048552
 20
219.6080166662
 30
0.0
  0
INSERT
  5
168
  8
LEVEL0
  2
SW_CENTERMARKSYMBOL_1
 10
158.3695048552
 20
219.6080166662
 30
0.0
  0
INSERT
  5
174
  8
LEVEL0
  2
SW_CENTERMARKSYMBOL_2
 10
158.3695048552
 20
55.3080166662
 30
0.0
  0
INSERT
  5
180
  8
LEVEL0
  2
SW_CENTERMARKSYMBOL_3
 10
55.0995048552
 20
55.3080166662
 30
0.0
  0
ENDSEC
  0
EOF
