  0
SECTION
  2
HEADER
  9
$ACADVER
  1
AC1009
  9
$DWGCODEPAGE
  3
ansi_1255
  9
$INSBASE
 10
0.0
 20
0.0
 30
0.0
  9
$EXTMIN
 10
0.0
 20
0.0
 30
0.0
  9
$EXTMAX
 10
210.0
 20
297.0
 30
0.0
  9
$LIMMIN
 10
0.0
 20
0.0
  9
$LIMMAX
 10
210.0
 20
297.0
  9
$ORTHOMODE
 70
     0
  9
$REGENMODE
 70
     1
  9
$FILLMODE
 70
     1
  9
$QTEXTMODE
 70
     0
  9
$MIRRTEXT
 70
     1
  9
$DRAGMODE
 70
     2
  9
$LTSCALE
 40
1.0
  9
$OSMODE
 70
    37
  9
$ATTMODE
 70
     1
  9
$TEXTSIZE
 40
2.0
  9
$TRACEWID
 40
1.0
  9
$TEXTSTYLE
  7
STANDARD
  9
$CLAYER
  8
0
  9
$CELTYPE
  6
BYLAYER
  9
$CECOLOR
 62
   256
  9
$DIMSCALE
 40
1.0
  9
$DIMASZ
 40
2.0
  9
$DIMEXO
 40
1.0
  9
$DIMDLI
 40
3.75
  9
$DIMRND
 40
0.0
  9
$DIMDLE
 40
0.0
  9
$DIMEXE
 40
1.0
  9
$DIMTP
 40
0.0
  9
$DIMTM
 40
0.0
  9
$DIMTXT
 40
2.0
  9
$DIMCEN
 40
2.5
  9
$DIMTSZ
 40
0.0
  9
$DIMTOL
 70
     0
  9
$DIMLIM
 70
     0
  9
$DIMTIH
 70
     1
  9
$DIMTOH
 70
     1
  9
$DIMSE1
 70
     0
  9
$DIMSE2
 70
     0
  9
$DIMTAD
 70
     1
  9
$DIMZIN
 70
     0
  9
$DIMBLK
  1

  9
$DIMASO
 70
     1
  9
$DIMSHO
 70
     1
  9
$DIMPOST
  1

  9
$DIMAPOST
  1

  9
$DIMALT
 70
     0
  9
$DIMALTD
 70
     3
  9
$DIMALTF
 40
0.0393700787
  9
$DIMLFAC
 40
1.0
  9
$DIMTOFL
 70
     1
  9
$DIMTVP
 40
0.0
  9
$DIMTIX
 70
     0
  9
$DIMSOXD
 70
     0
  9
$DIMSAH
 70
     0
  9
$DIMBLK1
  1

  9
$DIMBLK2
  1

  9
$DIMSTYLE
  2
ISO-25
  9
$DIMCLRD
 70
     0
  9
$DIMCLRE
 70
     0
  9
$DIMCLRT
 70
     0
  9
$DIMTFAC
 40
1.0
  9
$DIMGAP
 40
1.524
  9
$LUNITS
 70
     2
  9
$LUPREC
 70
     2
  9
$SKETCHINC
 40
1.0
  9
$FILLETRAD
 40
10.0
  9
$AUNITS
 70
     0
  9
$AUPREC
 70
     2
  9
$MENU
  1
.
  9
$ELEVATION
 40
0.0
  9
$PELEVATION
 40
0.0
  9
$THICKNESS
 40
0.0
  9
$LIMCHECK
 70
     0
  9
$CHAMFERA
 40
0.0
  9
$CHAMFERB
 40
0.0
  9
$SKPOLY
 70
     0
  9
$TDCREATE
 40
2458126.733349722
  9
$TDUPDATE
 40
2458126.733351158
  9
$TDINDWG
 40
0.0000000116
  9
$TDUSRTIMER
 40
0.0000000116
  9
$USRTIMER
 70
     1
  9
$ANGBASE
 50
0.0
  9
$ANGDIR
 70
     0
  9
$PDMODE
 70
     0
  9
$PDSIZE
 40
-1.0
  9
$PLINEWID
 40
0.0
  9
$COORDS
 70
     1
  9
$SPLFRAME
 70
     0
  9
$SPLINETYPE
 70
     6
  9
$SPLINESEGS
 70
     8
  9
$ATTDIA
 70
     0
  9
$ATTREQ
 70
     1
  9
$HANDLING
 70
     1
  9
$HANDSEED
  5
1CA
  9
$SURFTAB1
 70
     6
  9
$SURFTAB2
 70
     6
  9
$SURFTYPE
 70
     6
  9
$SURFU
 70
     6
  9
$SURFV
 70
     6
  9
$UCSNAME
  2

  9
$UCSORG
 10
0.0
 20
0.0
 30
0.0
  9
$UCSXDIR
 10
1.0
 20
0.0
 30
0.0
  9
$UCSYDIR
 10
0.0
 20
1.0
 30
0.0
  9
$PUCSNAME
  2

  9
$PUCSORG
 10
0.0
 20
0.0
 30
0.0
  9
$PUCSXDIR
 10
1.0
 20
0.0
 30
0.0
  9
$PUCSYDIR
 10
0.0
 20
1.0
 30
0.0
  9
$USERI1
 70
     0
  9
$USERI2
 70
     0
  9
$USERI3
 70
     0
  9
$USERI4
 70
     0
  9
$USERI5
 70
     0
  9
$USERR1
 40
0.0
  9
$USERR2
 40
0.0
  9
$USERR3
 40
0.0
  9
$USERR4
 40
0.0
  9
$USERR5
 40
0.0
  9
$WORLDVIEW
 70
     1
  9
$SHADEDGE
 70
     3
  9
$SHADEDIF
 70
    70
  9
$TILEMODE
 70
     1
  9
$MAXACTVP
 70
    64
  9
$PLIMCHECK
 70
     0
  9
$PEXTMIN
 10
1.0000000000E+20
 20
1.0000000000E+20
 30
1.0000000000E+20
  9
$PEXTMAX
 10
-1.0000000000E+20
 20
-1.0000000000E+20
 30
-1.0000000000E+20
  9
$PLIMMIN
 10
0.0
 20
0.0
  9
$PLIMMAX
 10
420.0
 20
297.0
  9
$UNITMODE
 70
     0
  9
$VISRETAIN
 70
     1
  9
$PLINEGEN
 70
     0
  9
$PSLTSCALE
 70
     1
  0
ENDSEC
  0
SECTION
  2
TABLES
  0
TABLE
  2
VPORT
 70
     1
  0
VPORT
  2
*ACTIVE
 70
     0
 10
0.0
 20
0.0
 11
1.0
 21
1.0
 12
105.0
 22
148.5
 13
0.0
 23
0.0
 14
10.0
 24
10.0
 15
10.0
 25
10.0
 16
0.0
 26
0.0
 36
1.0
 17
0.0
 27
0.0
 37
0.0
 40
297.0
 41
0.7070707071
 42
50.0
 43
0.0
 44
0.0
 50
0.0
 51
0.0
 71
     0
 72
  2000
 73
     1
 74
     3
 75
     0
 76
     0
 77
     0
 78
     0
  0
ENDTAB
  0
TABLE
  2
LTYPE
 70
     6
  0
LTYPE
  2
CONTINUOUS
 70
     0
  3
Solid line
 72
    65
 73
     0
 40
0.0
  0
LTYPE
  2
HIDDEN
 70
     0
  3
Hidden __ __ __ __ __ __ __ __ __ __ __ __ __ __
 72
    65
 73
     2
 40
1.905
 49
1.27
 49
-0.635
  0
LTYPE
  2
PHANTOM
 70
     0
  3
Phantom ______  __  __  ______  __  __  ______
 72
    65
 73
     6
 40
12.7
 49
6.35
 49
-1.27
 49
1.27
 49
-1.27
 49
1.27
 49
-1.27
  0
LTYPE
  2
CENTER
 70
     0
  3
Center ____ _ ____ _ ____ _ ____ _ ____ _ ____
 72
    65
 73
     4
 40
10.16
 49
6.35
 49
-1.27
 49
1.27
 49
-1.27
  0
LTYPE
  2
CENTERX2
 70
     0
  3
Center (2x) ________  __  ________  __  _____
 72
    65
 73
     4
 40
20.32
 49
12.7
 49
-2.54
 49
2.54
 49
-2.54
  0
LTYPE
  2
DOT2
 70
     0
  3
Dot (.5x) ........................................
 72
    65
 73
     2
 40
0.635
 49
0.0
 49
-0.635
  0
ENDTAB
  0
TABLE
  2
LAYER
 70
    53
  0
LAYER
  2
0
 70
     0
 62
     7
  6
CONTINUOUS
  0
LAYER
  2
SLD-0
 70
     0
 62
     7
  6
CONTINUOUS
  0
LAYER
  2
LEVEL0
 70
     0
 62
     7
  6
CONTINUOUS
  0
LAYER
  2
1
 70
     0
 62
     7
  6
CONTINUOUS
  0
LAYER
  2
2
 70
     0
 62
     7
  6
CONTINUOUS
  0
LAYER
  2
3
 70
     0
 62
     7
  6
CONTINUOUS
  0
LAYER
  2
4
 70
     0
 62
     7
  6
CONTINUOUS
  0
LAYER
  2
5
 70
     0
 62
     7
  6
CONTINUOUS
  0
LAYER
  2
6
 70
     0
 62
     7
  6
CONTINUOUS
  0
LAYER
  2
7
 70
     0
 62
     7
  6
CONTINUOUS
  0
LAYER
  2
8
 70
     0
 62
     7
  6
CONTINUOUS
  0
LAYER
  2
9
 70
     0
 62
     7
  6
CONTINUOUS
  0
LAYER
  2
10
 70
     0
 62
     7
  6
CONTINUOUS
  0
LAYER
  2
11
 70
     0
 62
     7
  6
CONTINUOUS
  0
LAYER
  2
12
 70
     0
 62
     7
  6
CONTINUOUS
  0
LAYER
  2
13
 70
     0
 62
     7
  6
CONTINUOUS
  0
LAYER
  2
14
 70
     0
 62
     7
  6
CONTINUOUS
  0
LAYER
  2
15
 70
     0
 62
     7
  6
CONTINUOUS
  0
LAYER
  2
16
 70
     0
 62
     7
  6
CONTINUOUS
  0
LAYER
  2
17
 70
     0
 62
     7
  6
CONTINUOUS
  0
LAYER
  2
18
 70
     0
 62
     7
  6
CONTINUOUS
  0
LAYER
  2
19
 70
     0
 62
     7
  6
CONTINUOUS
  0
LAYER
  2
20
 70
     0
 62
     7
  6
CONTINUOUS
  0
LAYER
  2
21
 70
     0
 62
     7
  6
CONTINUOUS
  0
LAYER
  2
22
 70
     0
 62
     7
  6
CONTINUOUS
  0
LAYER
  2
23
 70
     0
 62
     7
  6
CONTINUOUS
  0
LAYER
  2
24
 70
     0
 62
     7
  6
CONTINUOUS
  0
LAYER
  2
25
 70
     0
 62
     7
  6
CONTINUOUS
  0
LAYER
  2
26
 70
     0
 62
     7
  6
CONTINUOUS
  0
LAYER
  2
27
 70
     0
 62
     7
  6
CONTINUOUS
  0
LAYER
  2
28
 70
     0
 62
     7
  6
CONTINUOUS
  0
LAYER
  2
29
 70
     0
 62
     7
  6
CONTINUOUS
  0
LAYER
  2
30
 70
     0
 62
     7
  6
CONTINUOUS
  0
LAYER
  2
31
 70
     0
 62
     7
  6
CONTINUOUS
  0
LAYER
  2
32
 70
     0
 62
     7
  6
CONTINUOUS
  0
LAYER
  2
33
 70
     0
 62
     7
  6
CONTINUOUS
  0
LAYER
  2
34
 70
     0
 62
     7
  6
CONTINUOUS
  0
LAYER
  2
35
 70
     0
 62
     7
  6
CONTINUOUS
  0
LAYER
  2
36
 70
     0
 62
     7
  6
CONTINUOUS
  0
LAYER
  2
37
 70
     0
 62
     7
  6
CONTINUOUS
  0
LAYER
  2
38
 70
     0
 62
     7
  6
CONTINUOUS
  0
LAYER
  2
39
 70
     0
 62
     7
  6
CONTINUOUS
  0
LAYER
  2
40
 70
     0
 62
     7
  6
CONTINUOUS
  0
LAYER
  2
41
 70
     0
 62
     7
  6
CONTINUOUS
  0
LAYER
  2
42
 70
     0
 62
     7
  6
CONTINUOUS
  0
LAYER
  2
43
 70
     0
 62
     7
  6
CONTINUOUS
  0
LAYER
  2
44
 70
     0
 62
     7
  6
CONTINUOUS
  0
LAYER
  2
45
 70
     0
 62
     7
  6
CONTINUOUS
  0
LAYER
  2
46
 70
     0
 62
     7
  6
CONTINUOUS
  0
LAYER
  2
47
 70
     0
 62
     7
  6
CONTINUOUS
  0
LAYER
  2
48
 70
     0
 62
     7
  6
CONTINUOUS
  0
LAYER
  2
49
 70
     0
 62
     7
  6
CONTINUOUS
  0
LAYER
  2
50
 70
     0
 62
     7
  6
CONTINUOUS
  0
ENDTAB
  0
TABLE
  2
STYLE
 70
     1
  0
STYLE
  2
STANDARD
 70
     0
 40
0.0
 41
1.0
 50
0.0
 71
     0
 42
2.0
  3
txt
  4

  0
ENDTAB
  0
TABLE
  2
VIEW
 70
     0
  0
ENDTAB
  0
TABLE
  2
UCS
 70
     0
  0
ENDTAB
  0
TABLE
  2
APPID
 70
     1
  0
APPID
  2
ACAD
 70
     0
  0
ENDTAB
  0
TABLE
  2
DIMSTYLE
 70
     6
  0
DIMSTYLE
  2
ISO-25
 70
     0
  3

  4

  5

  6

  7

 40
1.0
 41
2.5
 42
0.625
 43
3.75
 44
1.25
 45
0.0
 46
0.0
 47
0.0
 48
0.0
140
2.5
141
2.5
142
0.0
143
0.0393700787
144
1.0
145
0.0
146
1.0
147
0.625
 71
     0
 72
     0
 73
     0
 74
     0
 75
     0
 76
     0
 77
     1
 78
     8
170
     0
171
     3
172
     1
173
     0
174
     0
175
     0
176
     0
177
     0
178
     0
  0
DIMSTYLE
  2
SLDDIMSTYLE0
 70
     0
  3

  4

  5

  6
CLOSED
  7
CLOSED
 40
1.0
 41
2.0
 42
0.0625
 43
0.38
 44
0.0
 45
0.000000001
 46
0.0
 47
0.3
 48
0.2
140
2.0
141
0.09
142
0.0
143
0.0393700787
144
1.0
145
0.0
146
1.0
147
0.5
 71
     1
 72
     0
 73
     0
 74
     0
 75
     0
 76
     0
 77
     1
 78
    12
170
     1
171
     2
172
     0
173
     1
174
     0
175
     0
176
     0
177
     0
178
     0
  0
DIMSTYLE
  2
SLDDIMSTYLE1
 70
     0
  3

  4

  5

  6
CLOSED
  7
CLOSED
 40
1.0
 41
2.0
 42
0.0625
 43
0.38
 44
0.0
 45
0.000000001
 46
0.0
 47
0.0
 48
0.0
140
2.0
141
0.0
142
0.0
143
0.0393700787
144
1.0
145
0.0
146
1.0
147
0.5
 71
     0
 72
     0
 73
     0
 74
     0
 75
     0
 76
     0
 77
     1
 78
    12
170
     1
171
     2
172
     0
173
     1
174
     0
175
     0
176
     0
177
     0
178
     0
  0
DIMSTYLE
  2
SLDDIMSTYLE2
 70
     0
  3

  4

  5

  6
CLOSED
  7
CLOSED
 40
1.0
 41
2.0
 42
0.0625
 43
0.38
 44
0.0
 45
0.000000001
 46
0.0
 47
0.0
 48
0.0
140
2.0
141
0.09
142
0.0
143
0.0393700787
144
1.0
145
0.0
146
1.0
147
0.5
 71
     0
 72
     0
 73
     0
 74
     0
 75
     0
 76
     0
 77
     1
 78
    12
170
     1
171
     2
172
     1
173
     1
174
     0
175
     0
176
     0
177
     0
178
     0
  0
DIMSTYLE
  2
SLDDIMSTYLE3
 70
     0
  3
<>
  4
<>
  5

  6
NONE
  7
CLOSED
 40
1.0
 41
2.0
 42
0.0625
 43
0.38
 44
0.0
 45
0.000000001
 46
0.0
 47
0.0
 48
0.0
140
2.0
141
0.0
142
0.0
143
0.0393700787
144
1.0
145
0.0
146
1.0
147
0.5
 71
     0
 72
     0
 73
     1
 74
     1
 75
     0
 76
     0
 77
     0
 78
    12
170
     1
171
     2
172
     1
173
     1
174
     0
175
     0
176
     0
177
     0
178
     0
  0
DIMSTYLE
  2
SLDDIMSTYLE4
 70
     0
  3

  4

  5

  6
CLOSED
  7
CLOSED
 40
1.0
 41
2.0
 42
0.0625
 43
0.38
 44
0.0
 45
0.000000001
 46
0.0
 47
0.0
 48
0.0
140
2.0
141
0.09
142
0.0
143
0.0393700787
144
1.0
145
0.0
146
1.0
147
0.5
 71
     0
 72
     0
 73
     0
 74
     0
 75
     0
 76
     0
 77
     1
 78
    12
170
     1
171
     2
172
     0
173
     1
174
     0
175
     0
176
     0
177
     0
178
     0
  0
ENDTAB
  0
ENDSEC
  0
SECTION
  2
BLOCKS
  0
BLOCK
  8
0
  2
$MODEL_SPACE
 70
     0
 10
0.0
 20
0.0
 30
0.0
  3
$MODEL_SPACE
  1

  0
ENDBLK
  5
21
  8
0
  0
BLOCK
 67
     1
  8
0
  2
$PAPER_SPACE
 70
     0
 10
0.0
 20
0.0
 30
0.0
  3
$PAPER_SPACE
  1

  0
ENDBLK
  5
1D
 67
     1
  8
0
  0
BLOCK
  8
0
  2
_CLOSED
 70
     0
 10
0.0
 20
0.0
 30
0.0
  3
_CLOSED
  1

  0
LINE
  5
BA
  8
0
  6
BYBLOCK
 62
     0
 10
-1.0
 20
0.166667
 30
0.0
 11
0.0
 21
0.0
 31
0.0
  0
LINE
  5
BB
  8
0
  6
BYBLOCK
 62
     0
 10
0.0
 20
0.0
 30
0.0
 11
-1.0
 21
-0.166667
 31
0.0
  0
LINE
  5
BC
  8
0
  6
BYBLOCK
 62
     0
 10
-1.0
 20
0.166667
 30
0.0
 11
-1.0
 21
-0.166667
 31
0.0
  0
LINE
  5
BD
  8
0
  6
BYBLOCK
 62
     0
 10
0.0
 20
0.0
 30
0.0
 11
-1.0
 21
0.0
 31
0.0
  0
ENDBLK
  5
B9
  8
0
  0
BLOCK
  8
0
  2
_D
 70
     0
 10
0.0
 20
0.0
 30
0.0
  3
_D
  1

  0
INSERT
  5
C1
  8
LEVEL0
  2
_CLOSED
 10
78.3702766737
 20
237.2840266963
 30
-2.8
 41
2.0
 42
2.0
 50
180.0
  0
INSERT
  5
C2
  8
LEVEL0
  2
_CLOSED
 10
153.8700347835
 20
237.2840266963
 30
-2.8
 41
2.0
 42
2.0
 50
0.0
  0
LINE
  5
C3
  8
LEVEL0
 10
106.9983857042
 20
248.0347213624
 30
0.0
 11
106.5921356958
 21
248.0347213624
 31
0.0
  0
LINE
  5
C4
  8
LEVEL0
 10
106.5921356958
 20
248.0347213624
 30
0.0
 11
106.5921356958
 21
242.8624989753
 31
0.0
  0
LINE
  5
C5
  8
LEVEL0
 10
106.5921356958
 20
242.8624989753
 30
0.0
 11
106.9983857042
 21
242.8624989753
 31
0.0
  0
LINE
  5
C6
  8
LEVEL0
 10
123.6695655562
 20
248.0347213624
 30
0.0
 11
124.0758155646
 21
248.0347213624
 31
0.0
  0
LINE
  5
C7
  8
LEVEL0
 10
124.0758155646
 20
248.0347213624
 30
0.0
 11
124.0758155646
 21
242.8624989753
 31
0.0
  0
LINE
  5
C8
  8
LEVEL0
 10
124.0758155646
 20
242.8624989753
 30
0.0
 11
123.6695655562
 21
242.8624989753
 31
0.0
  0
LINE
  5
C9
  8
LEVEL0
 10
78.3702766737
 20
212.0840266963
 30
0.0
 11
78.3702766737
 21
238.2840266963
 31
0.0
  0
LINE
  5
CA
  8
LEVEL0
 10
153.8700347835
 20
212.0840266963
 30
0.0
 11
153.8700347835
 21
238.2840266963
 31
0.0
  0
LINE
  5
CB
  8
LEVEL0
 10
78.3702766737
 20
237.2840266963
 30
0.0
 11
153.8700347835
 21
237.2840266963
 31
0.0
  0
TEXT
  5
CC
  8
LEVEL0
 10
104.8096704645
 20
238.0211023497
 30
-2.8
 40
2.0
  1
  
 50
0.0
 41
0.7
 11
104.8096704645
 21
237.3145822258
 31
-2.8
 73
     1
  0
TEXT
  5
CD
  8
LEVEL0
 10
107.5061982147
 20
243.5995746287
 30
-2.8
 40
2.0
  1
2.972
 50
0.0
 41
0.7
 11
107.5061982147
 21
242.8930545049
 31
-2.8
 73
     1
  0
TEXT
  5
CE
  8
LEVEL0
 10
114.156198094
 20
243.5995746287
 30
-2.8
 40
2.0
  1
 
 50
0.0
 41
0.7
 11
114.156198094
 21
242.8930545049
 31
-2.8
 73
     1
  0
TEXT
  5
CF
  8
LEVEL0
 10
114.895087073
 20
246.1551302927
 30
-2.8
 40
2.0
  1
+
 50
0.0
 41
0.7
 11
114.895087073
 21
245.4486101689
 31
-2.8
 73
     1
  0
TEXT
  5
D0
  8
LEVEL0
 10
115.2603648543
 20
243.5690190992
 30
-2.8
 40
2.0
  1
-
 50
0.0
 41
0.7
 11
115.2603648543
 21
242.8624989753
 31
-2.8
 73
     1
  0
TEXT
  5
D1
  8
LEVEL0
 10
116.5117531664
 20
246.1551302927
 30
-2.8
 40
2.0
  1
0.012
 50
0.0
 41
0.7
 11
116.5117531664
 21
245.4486101689
 31
-2.8
 73
     1
  0
TEXT
  5
D2
  8
LEVEL0
 10
116.5117531664
 20
243.5690190992
 30
-2.8
 40
2.0
  1
0.008
 50
0.0
 41
0.7
 11
116.5117531664
 21
242.8624989753
 31
-2.8
 73
     1
  0
TEXT
  5
D3
  8
LEVEL0
 10
109.7228648023
 20
237.9905463545
 30
-2.8
 40
2.0
  1
75.5
 50
0.0
 41
0.7
 11
109.7228648023
 21
237.2840262307
 31
-2.8
 73
     1
  0
TEXT
  5
D4
  8
LEVEL0
 10
114.8950867237
 20
237.9905463545
 30
-2.8
 40
2.0
  1
 
 50
0.0
 41
0.7
 11
114.8950867237
 21
237.2840262307
 31
-2.8
 73
     1
  0
TEXT
  5
D5
  8
LEVEL0
 10
115.6339757027
 20
240.576657548
 30
-2.8
 40
2.0
  1
+
 50
0.0
 41
0.7
 11
115.6339757027
 21
239.8701374242
 31
-2.8
 73
     1
  0
TEXT
  5
D6
  8
LEVEL0
 10
115.9992534841
 20
237.9905463545
 30
-2.8
 40
2.0
  1
-
 50
0.0
 41
0.7
 11
115.9992534841
 21
237.2840262307
 31
-2.8
 73
     1
  0
TEXT
  5
D7
  8
LEVEL0
 10
117.2506422618
 20
240.576657548
 30
-2.8
 40
2.0
  1
0.3
 50
0.0
 41
0.7
 11
117.2506422618
 21
239.8701374242
 31
-2.8
 73
     1
  0
TEXT
  5
D8
  8
LEVEL0
 10
117.2506422618
 20
237.9905463545
 30
-2.8
 40
2.0
  1
0.2
 50
0.0
 41
0.7
 11
117.2506422618
 21
237.2840262307
 31
-2.8
 73
     1
  0
TEXT
  5
D9
  8
LEVEL0
 10
124.3805035365
 20
238.0211023497
 30
-2.8
 40
2.0
  1
  
 50
0.0
 41
0.7
 11
124.3805035365
 21
237.3145822258
 31
-2.8
 73
     1
  0
ENDBLK
  5
C0
  8
0
  0
BLOCK
  8
0
  2
_D_1
 70
     0
 10
0.0
 20
0.0
 30
0.0
  3
_D_1
  1

  0
INSERT
  5
DE
  8
LEVEL0
  2
_CLOSED
 10
66.7077776966
 20
214.6839057513
 30
-2.8
 41
2.0
 42
2.0
 50
90.0
  0
INSERT
  5
DF
  8
LEVEL0
  2
_CLOSED
 10
66.7077776966
 20
94.7841476414
 30
-2.8
 41
2.0
 42
2.0
 50
270.0
  0
LINE
  5
E0
  8
LEVEL0
 10
55.9570830306
 20
154.3059712526
 30
0.0
 11
55.9570830306
 21
153.8997212443
 31
0.0
  0
LINE
  5
E1
  8
LEVEL0
 10
55.9570830306
 20
153.8997212443
 30
0.0
 11
61.1293054176
 21
153.8997212443
 31
0.0
  0
LINE
  5
E2
  8
LEVEL0
 10
61.1293054176
 20
153.8997212443
 30
0.0
 11
61.1293054176
 21
154.3059712526
 31
0.0
  0
LINE
  5
E3
  8
LEVEL0
 10
55.9570830306
 20
170.9771511046
 30
0.0
 11
55.9570830306
 21
171.383401113
 31
0.0
  0
LINE
  5
E4
  8
LEVEL0
 10
55.9570830306
 20
171.383401113
 30
0.0
 11
61.1293054176
 21
171.383401113
 31
0.0
  0
LINE
  5
E5
  8
LEVEL0
 10
61.1293054176
 20
171.383401113
 30
0.0
 11
61.1293054176
 21
170.9771511046
 31
0.0
  0
LINE
  5
E6
  8
LEVEL0
 10
80.9701557286
 20
214.6839057513
 30
0.0
 11
65.7077776966
 21
214.6839057513
 31
0.0
  0
LINE
  5
E7
  8
LEVEL0
 10
80.9701557286
 20
94.7841476414
 30
0.0
 11
65.7077776966
 21
94.7841476414
 31
0.0
  0
LINE
  5
E8
  8
LEVEL0
 10
66.7077776966
 20
214.6839057513
 30
0.0
 11
66.7077776966
 21
94.7841476414
 31
0.0
  0
TEXT
  5
E9
  8
LEVEL0
 10
65.9707020433
 20
152.1172560129
 30
-2.8
 40
2.0
  1
  
 50
90.0
 41
0.7
 11
66.6772221671
 21
152.1172560129
 31
-2.8
 73
     1
  0
TEXT
  5
EA
  8
LEVEL0
 10
60.3922297643
 20
154.8137837631
 30
-2.8
 40
2.0
  1
4.720
 50
90.0
 41
0.7
 11
61.0987498881
 21
154.8137837631
 31
-2.8
 73
     1
  0
TEXT
  5
EB
  8
LEVEL0
 10
60.3922297643
 20
161.4637836424
 30
-2.8
 40
2.0
  1
 
 50
90.0
 41
0.7
 11
61.0987498881
 21
161.4637836424
 31
-2.8
 73
     1
  0
TEXT
  5
EC
  8
LEVEL0
 10
57.8366741003
 20
162.2026726214
 30
-2.8
 40
2.0
  1
+
 50
90.0
 41
0.7
 11
58.5431942241
 21
162.2026726214
 31
-2.8
 73
     1
  0
TEXT
  5
ED
  8
LEVEL0
 10
60.4227852938
 20
162.5679504028
 30
-2.8
 40
2.0
  1
-
 50
90.0
 41
0.7
 11
61.1293054176
 21
162.5679504028
 31
-2.8
 73
     1
  0
TEXT
  5
EE
  8
LEVEL0
 10
57.8366741003
 20
163.8193387148
 30
-2.8
 40
2.0
  1
0.012
 50
90.0
 41
0.7
 11
58.5431942241
 21
163.8193387148
 31
-2.8
 73
     1
  0
TEXT
  5
EF
  8
LEVEL0
 10
60.4227852938
 20
163.8193387148
 30
-2.8
 40
2.0
  1
0.008
 50
90.0
 41
0.7
 11
61.1293054176
 21
163.8193387148
 31
-2.8
 73
     1
  0
TEXT
  5
F0
  8
LEVEL0
 10
66.0012580385
 20
156.2915613718
 30
-2.8
 40
2.0
  1
119.9
 50
90.0
 41
0.7
 11
66.7077781623
 21
156.2915613718
 31
-2.8
 73
     1
  0
TEXT
  5
F1
  8
LEVEL0
 10
66.0012580385
 20
162.9415612511
 30
-2.8
 40
2.0
  1
 
 50
90.0
 41
0.7
 11
66.7077781623
 21
162.9415612511
 31
-2.8
 73
     1
  0
TEXT
  5
F2
  8
LEVEL0
 10
63.4151468449
 20
163.68045023
 30
-2.8
 40
2.0
  1
+
 50
90.0
 41
0.7
 11
64.1216669688
 21
163.68045023
 31
-2.8
 73
     1
  0
TEXT
  5
F3
  8
LEVEL0
 10
66.0012580385
 20
164.0457280114
 30
-2.8
 40
2.0
  1
-
 50
90.0
 41
0.7
 11
66.7077781623
 21
164.0457280114
 31
-2.8
 73
     1
  0
TEXT
  5
F4
  8
LEVEL0
 10
63.4151468449
 20
165.2971163235
 30
-2.8
 40
2.0
  1
0.3
 50
90.0
 41
0.7
 11
64.1216669688
 21
165.2971163235
 31
-2.8
 73
     1
  0
TEXT
  5
F5
  8
LEVEL0
 10
66.0012580385
 20
165.2971163235
 30
-2.8
 40
2.0
  1
0.2
 50
90.0
 41
0.7
 11
66.7077781623
 21
165.2971163235
 31
-2.8
 73
     1
  0
TEXT
  5
F6
  8
LEVEL0
 10
65.9707020433
 20
171.688089085
 30
-2.8
 40
2.0
  1
  
 50
90.0
 41
0.7
 11
66.6772221671
 21
171.688089085
 31
-2.8
 73
     1
  0
ENDBLK
  5
DD
  8
0
  0
BLOCK
  8
0
  2
_D_2
 70
     0
 10
0.0
 20
0.0
 30
0.0
  3
_D_2
  1

  0
INSERT
  5
FC
  8
LEVEL0
  2
_CLOSED
 10
153.7473718793
 20
97.4523094368
 30
-2.8
 41
2.0
 42
2.0
 50
165.0
  0
LINE
  5
FD
  8
LEVEL0
 10
169.3688596614
 20
99.6217137695
 30
0.0
 11
168.9764522863
 21
99.7268590088
 31
0.0
  0
LINE
  5
FE
  8
LEVEL0
 10
168.9764522863
 20
99.7268590088
 30
0.0
 11
168.1547018281
 21
96.6600445474
 31
0.0
  0
LINE
  5
FF
  8
LEVEL0
 10
168.1547018281
 20
96.6600445474
 30
0.0
 11
168.5471092031
 21
96.5548993081
 31
0.0
  0
LINE
  5
100
  8
LEVEL0
 10
176.7732847272
 20
97.6377040527
 30
0.0
 11
177.1656921022
 21
97.5325588135
 31
0.0
  0
LINE
  5
101
  8
LEVEL0
 10
177.1656921022
 20
97.5325588135
 30
0.0
 11
176.3439416439
 21
94.4657443521
 31
0.0
  0
LINE
  5
102
  8
LEVEL0
 10
176.3439416439
 20
94.4657443521
 30
0.0
 11
175.9515342689
 21
94.5708895913
 31
0.0
  0
LINE
  5
103
  8
LEVEL0
 10
153.7473718793
 20
97.4523094368
 30
0.0
 11
180.7303491397
 21
90.2222424705
 31
0.0
  0
LINE
  5
104
  8
LEVEL0
 10
153.7473718793
 20
97.4523094368
 30
0.0
 11
150.2701557286
 21
98.3840266963
 31
0.0
  0
TEXT
  5
105
  8
LEVEL0
 10
169.2204792857
 20
97.1059137935
 30
-2.8
 40
2.0
  1
0.142
 50
345.0
 41
0.7
 11
169.0376184219
 21
96.4234677591
 31
-2.8
 73
     1
  0
TEXT
  5
106
  8
LEVEL0
 10
169.091291242
 20
94.0426092294
 30
-2.8
 40
2.0
  1
R3.6
 50
345.0
 41
0.7
 11
168.9084303782
 21
93.360163195
 31
-2.8
 73
     1
  0
TEXT
  5
107
  8
LEVEL0
 10
176.0545365781
 20
92.2084469179
 30
-2.8
 40
2.0
  1
 TYP
 50
345.0
 41
0.7
 11
175.8716757143
 21
91.5260008834
 31
-2.8
 73
     1
  0
ENDBLK
  5
FB
  8
0
  0
BLOCK
  8
0
  2
_D_3
 70
     0
 10
0.0
 20
0.0
 30
0.0
  3
_D_3
  1

  0
INSERT
  5
10C
  8
LEVEL0
  2
_CLOSED
 10
114.9554700256
 20
93.9374814231
 30
-2.8
 41
2.0
 42
2.0
 50
75.0
  0
LINE
  5
10D
  8
LEVEL0
 10
102.6612842872
 20
71.7793056714
 30
0.0
 11
102.5561390479
 21
71.3868982964
 31
0.0
  0
LINE
  5
10E
  8
LEVEL0
 10
102.5561390479
 20
71.3868982964
 30
0.0
 11
105.6229535093
 21
70.5651478381
 31
0.0
  0
LINE
  5
10F
  8
LEVEL0
 10
105.6229535093
 20
70.5651478381
 30
0.0
 11
105.7280987486
 21
70.9575552132
 31
0.0
  0
LINE
  5
110
  8
LEVEL0
 10
104.645294004
 20
79.1837307372
 30
0.0
 11
104.7504392432
 21
79.5761381123
 31
0.0
  0
LINE
  5
111
  8
LEVEL0
 10
104.7504392432
 20
79.5761381123
 30
0.0
 11
107.8172537046
 21
78.754387654
 31
0.0
  0
LINE
  5
112
  8
LEVEL0
 10
107.8172537046
 20
78.754387654
 30
0.0
 11
107.7121084654
 21
78.361980279
 31
0.0
  0
LINE
  5
113
  8
LEVEL0
 10
114.9554700256
 20
93.9374814231
 30
0.0
 11
108.408367634
 21
69.5033626551
 31
0.0
  0
LINE
  5
114
  8
LEVEL0
 10
114.9554700256
 20
93.9374814231
 30
0.0
 11
116.1201557286
 21
98.2841476414
 31
0.0
  0
TEXT
  5
115
  8
LEVEL0
 10
105.1770842632
 20
71.6309252957
 30
-2.8
 40
2.0
  1
0.177
 50
75.0
 41
0.7
 11
105.8595302976
 21
71.4480644319
 31
-2.8
 73
     1
  0
TEXT
  5
116
  8
LEVEL0
 10
108.2403888273
 20
71.5017372521
 30
-2.8
 40
2.0
  1
R4.5
 50
75.0
 41
0.7
 11
108.9228348617
 21
71.3188763883
 31
-2.8
 73
     1
  0
ENDBLK
  5
10B
  8
0
  0
BLOCK
  8
0
  2
_D_4
 70
     0
 10
0.0
 20
0.0
 30
0.0
  3
_D_4
  1

  0
INSERT
  5
11C
  8
LEVEL0
  2
_CLOSED
 10
128.7761193456
 20
98.2841476414
 30
-2.8
 41
2.0
 42
2.0
 50
270.0
  0
INSERT
  5
11D
  8
LEVEL0
  2
_CLOSED
 10
128.7761193456
 20
94.7841476414
 30
-2.8
 41
2.0
 42
2.0
 50
90.0
  0
LINE
  5
11E
  8
LEVEL0
 10
122.6087582985
 20
75.6527951433
 30
0.0
 11
122.6087582985
 21
75.2465451349
 31
0.0
  0
LINE
  5
11F
  8
LEVEL0
 10
122.6087582985
 20
75.2465451349
 30
0.0
 11
125.7837582602
 21
75.2465451349
 31
0.0
  0
LINE
  5
120
  8
LEVEL0
 10
125.7837582602
 20
75.2465451349
 30
0.0
 11
125.7837582602
 21
75.6527951433
 31
0.0
  0
LINE
  5
121
  8
LEVEL0
 10
122.6087582985
 20
83.3184200436
 30
0.0
 11
122.6087582985
 21
83.7246700519
 31
0.0
  0
LINE
  5
122
  8
LEVEL0
 10
122.6087582985
 20
83.7246700519
 30
0.0
 11
125.7837582602
 21
83.7246700519
 31
0.0
  0
LINE
  5
123
  8
LEVEL0
 10
125.7837582602
 20
83.7246700519
 30
0.0
 11
125.7837582602
 21
83.3184200436
 31
0.0
  0
LINE
  5
124
  8
LEVEL0
 10
124.1201557286
 20
98.2841476414
 30
0.0
 11
129.7761193456
 21
98.2841476414
 31
0.0
  0
LINE
  5
125
  8
LEVEL0
 10
128.7761193456
 20
98.2841476414
 30
0.0
 11
128.7761193456
 21
102.1303014876
 31
0.0
  0
LINE
  5
126
  8
LEVEL0
 10
128.7761193456
 20
98.2841476414
 30
0.0
 11
128.7761193456
 21
94.7841476414
 31
0.0
  0
LINE
  5
127
  8
LEVEL0
 10
128.7761193456
 20
94.7841476414
 30
0.0
 11
128.7761193456
 21
73.4640799036
 31
0.0
  0
TEXT
  5
128
  8
LEVEL0
 10
128.0390436923
 20
73.4640799036
 30
-2.8
 40
2.0
  1
  
 50
90.0
 41
0.7
 11
128.7455638161
 21
73.4640799036
 31
-2.8
 73
     1
  0
TEXT
  5
129
  8
LEVEL0
 10
125.0772381363
 20
76.1606076538
 30
-2.8
 40
2.0
  1
0.138
 50
90.0
 41
0.7
 11
125.7837582602
 21
76.1606076538
 31
-2.8
 73
     1
  0
TEXT
  5
12A
  8
LEVEL0
 10
128.0695994546
 20
77.6383856117
 30
-2.8
 40
2.0
  1
3.5
 50
90.0
 41
0.7
 11
128.7761195785
 21
77.6383856117
 31
-2.8
 73
     1
  0
TEXT
  5
12B
  8
LEVEL0
 10
128.0390436923
 20
84.0293580239
 30
-2.8
 40
2.0
  1
  
 50
90.0
 41
0.7
 11
128.7455638161
 21
84.0293580239
 31
-2.8
 73
     1
  0
ENDBLK
  5
11B
  8
0
  0
BLOCK
  8
0
  2
_NONE
 70
     0
 10
0.0
 20
0.0
 30
0.0
  3
_NONE
  1

  0
ENDBLK
  5
130
  8
0
  0
BLOCK
  8
0
  2
_D_5
 70
     0
 10
0.0
 20
0.0
 30
0.0
  3
_D_5
  1

  0
INSERT
  5
134
  8
LEVEL0
  2
_CLOSED
 10
70.6176982798
 20
86.5494497392
 30
-2.8
 41
2.0
 42
2.0
 50
54.8142739997
  0
LINE
  5
135
  8
LEVEL0
 10
70.6176982798
 20
86.5494497392
 30
0.0
 11
63.611081526
 21
76.6116821401
 31
0.0
  0
LINE
  5
136
  8
LEVEL0
 10
72.9226131773
 20
89.8186036535
 30
0.0
 11
70.6176982798
 21
86.5494497392
 31
0.0
  0
LINE
  5
137
  8
LEVEL0
 10
63.611081526
 20
76.6116821401
 30
0.0
 11
30.6430250022
 21
76.6116821401
 31
0.0
  0
TEXT
  5
138
  8
LEVEL0
 10
30.6430250022
 20
77.318202264
 30
-2.8
 40
2.0
  1
MARK SCREW POSITIONS
 41
0.665
 11
30.6430250022
 21
76.6116821401
 31
-2.8
 73
     1
  0
ENDBLK
  5
133
  8
0
  0
BLOCK
  8
0
  2
_D_6
 70
     0
 10
0.0
 20
0.0
 30
0.0
  3
_D_6
  1

  0
INSERT
  5
13E
  8
LEVEL0
  2
_CLOSED
 10
49.7701557286
 20
88.1840266963
 30
-2.8
 41
2.0
 42
2.0
 50
270.0
  0
INSERT
  5
13F
  8
LEVEL0
  2
_CLOSED
 10
49.7701557286
 20
221.2840266963
 30
-2.8
 41
2.0
 42
2.0
 50
90.0
  0
LINE
  5
140
  8
LEVEL0
 10
43.6027946815
 20
158.8087487285
 30
0.0
 11
43.6027946815
 21
158.4024987201
 31
0.0
  0
LINE
  5
141
  8
LEVEL0
 10
43.6027946815
 20
158.4024987201
 30
0.0
 11
46.7777946431
 21
158.4024987201
 31
0.0
  0
LINE
  5
142
  8
LEVEL0
 10
46.7777946431
 20
158.4024987201
 30
0.0
 11
46.7777946431
 21
158.8087487285
 31
0.0
  0
LINE
  5
143
  8
LEVEL0
 10
43.6027946815
 20
166.4743736288
 30
0.0
 11
43.6027946815
 21
166.8806236371
 31
0.0
  0
LINE
  5
144
  8
LEVEL0
 10
43.6027946815
 20
166.8806236371
 30
0.0
 11
46.7777946431
 21
166.8806236371
 31
0.0
  0
LINE
  5
145
  8
LEVEL0
 10
46.7777946431
 20
166.8806236371
 30
0.0
 11
46.7777946431
 21
166.4743736288
 31
0.0
  0
LINE
  5
146
  8
LEVEL0
 10
66.2701557286
 20
88.1840266963
 30
0.0
 11
48.7701557286
 21
88.1840266963
 31
0.0
  0
LINE
  5
147
  8
LEVEL0
 10
66.2701557286
 20
221.2840266963
 30
0.0
 11
48.7701557286
 21
221.2840266963
 31
0.0
  0
LINE
  5
148
  8
LEVEL0
 10
49.7701557286
 20
88.1840266963
 30
0.0
 11
49.7701557286
 21
221.2840266963
 31
0.0
  0
TEXT
  5
149
  8
LEVEL0
 10
49.0330800752
 20
156.6200334888
 30
-2.8
 40
2.0
  1
  
 50
90.0
 41
0.7
 11
49.7396001991
 21
156.6200334888
 31
-2.8
 73
     1
  0
TEXT
  5
14A
  8
LEVEL0
 10
46.0712745193
 20
159.316561239
 30
-2.8
 40
2.0
  1
5.240
 50
90.0
 41
0.7
 11
46.7777946431
 21
159.316561239
 31
-2.8
 73
     1
  0
TEXT
  5
14B
  8
LEVEL0
 10
49.0636358376
 20
159.3165613554
 30
-2.8
 40
2.0
  1
133.1
 50
90.0
 41
0.7
 11
49.7701559614
 21
159.3165613554
 31
-2.8
 73
     1
  0
TEXT
  5
14C
  8
LEVEL0
 10
49.0330800752
 20
167.1853116091
 30
-2.8
 40
2.0
  1
  
 50
90.0
 41
0.7
 11
49.7396001991
 21
167.1853116091
 31
-2.8
 73
     1
  0
ENDBLK
  5
13D
  8
0
  0
BLOCK
  8
0
  2
_D_7
 70
     0
 10
0.0
 20
0.0
 30
0.0
  3
_D_7
  1

  0
INSERT
  5
151
  8
LEVEL0
  2
_CLOSED
 10
71.7701557286
 20
62.1559956999
 30
-2.8
 41
2.0
 42
2.0
 50
180.0
  0
INSERT
  5
152
  8
LEVEL0
  2
_CLOSED
 10
160.4701557286
 20
62.1559956999
 30
-2.8
 41
2.0
 42
2.0
 50
0.0
  0
LINE
  5
153
  8
LEVEL0
 10
111.1627724676
 20
68.323356747
 30
0.0
 11
110.7565224592
 21
68.323356747
 31
0.0
  0
LINE
  5
154
  8
LEVEL0
 10
110.7565224592
 20
68.323356747
 30
0.0
 11
110.7565224592
 21
65.1483567853
 31
0.0
  0
LINE
  5
155
  8
LEVEL0
 10
110.7565224592
 20
65.1483567853
 30
0.0
 11
111.1627724676
 21
65.1483567853
 31
0.0
  0
LINE
  5
156
  8
LEVEL0
 10
118.8283973678
 20
68.323356747
 30
0.0
 11
119.2346473762
 21
68.323356747
 31
0.0
  0
LINE
  5
157
  8
LEVEL0
 10
119.2346473762
 20
68.323356747
 30
0.0
 11
119.2346473762
 21
65.1483567853
 31
0.0
  0
LINE
  5
158
  8
LEVEL0
 10
119.2346473762
 20
65.1483567853
 30
0.0
 11
118.8283973678
 21
65.1483567853
 31
0.0
  0
LINE
  5
159
  8
LEVEL0
 10
71.7701557286
 20
82.6840266963
 30
0.0
 11
71.7701557286
 21
61.1559956999
 31
0.0
  0
LINE
  5
15A
  8
LEVEL0
 10
160.4701557286
 20
82.6840266963
 30
0.0
 11
160.4701557286
 21
61.1559956999
 31
0.0
  0
LINE
  5
15B
  8
LEVEL0
 10
71.7701557286
 20
62.1559956999
 30
0.0
 11
160.4701557286
 21
62.1559956999
 31
0.0
  0
TEXT
  5
15C
  8
LEVEL0
 10
108.9740572278
 20
62.8930713532
 30
-2.8
 40
2.0
  1
  
 41
0.7
 11
108.9740572278
 21
62.1865512294
 31
-2.8
 73
     1
  0
TEXT
  5
15D
  8
LEVEL0
 10
111.6705849781
 20
65.8548769092
 30
-2.8
 40
2.0
  1
3.492
 41
0.7
 11
111.6705849781
 21
65.1483567853
 31
-2.8
 73
     1
  0
TEXT
  5
15E
  8
LEVEL0
 10
112.4094740734
 20
62.8625155909
 30
-2.8
 40
2.0
  1
88.7
 41
0.7
 11
112.4094740734
 21
62.155995467
 31
-2.8
 73
     1
  0
TEXT
  5
15F
  8
LEVEL0
 10
119.5393353482
 20
62.8930713532
 30
-2.8
 40
2.0
  1
  
 41
0.7
 11
119.5393353482
 21
62.1865512294
 31
-2.8
 73
     1
  0
ENDBLK
  5
150
  8
0
  0
BLOCK
  8
0
  2
_D_8
 70
     0
 10
0.0
 20
0.0
 30
0.0
  3
_D_8
  1

  0
INSERT
  5
164
  8
LEVEL0
  2
_CLOSED
 10
61.4958312895
 20
88.1840266963
 30
-2.8
 41
2.0
 42
2.0
 50
270.0
  0
INSERT
  5
165
  8
LEVEL0
  2
_CLOSED
 10
61.4958312895
 20
94.7841476414
 30
-2.8
 41
2.0
 42
2.0
 50
90.0
  0
LINE
  5
166
  8
LEVEL0
 10
55.3284702424
 20
100.48063489
 30
0.0
 11
55.3284702424
 21
100.0743848817
 31
0.0
  0
LINE
  5
167
  8
LEVEL0
 10
55.3284702424
 20
100.0743848817
 30
0.0
 11
58.503470204
 21
100.0743848817
 31
0.0
  0
LINE
  5
168
  8
LEVEL0
 10
58.503470204
 20
100.0743848817
 30
0.0
 11
58.503470204
 21
100.48063489
 31
0.0
  0
LINE
  5
169
  8
LEVEL0
 10
55.3284702424
 20
108.1462597903
 30
0.0
 11
55.3284702424
 21
108.5525097987
 31
0.0
  0
LINE
  5
16A
  8
LEVEL0
 10
55.3284702424
 20
108.5525097987
 30
0.0
 11
58.503470204
 21
108.5525097987
 31
0.0
  0
LINE
  5
16B
  8
LEVEL0
 10
58.503470204
 20
108.5525097987
 30
0.0
 11
58.503470204
 21
108.1462597903
 31
0.0
  0
LINE
  5
16C
  8
LEVEL0
 10
66.2701557286
 20
88.1840266963
 30
0.0
 11
60.4958312895
 21
88.1840266963
 31
0.0
  0
LINE
  5
16D
  8
LEVEL0
 10
80.9701557286
 20
94.7841476414
 30
0.0
 11
60.4958312895
 21
94.7841476414
 31
0.0
  0
LINE
  5
16E
  8
LEVEL0
 10
61.4958312895
 20
88.1840266963
 30
0.0
 11
61.4958312895
 21
94.7841476414
 31
0.0
  0
LINE
  5
16F
  8
LEVEL0
 10
61.4958312895
 20
94.7841476414
 30
0.0
 11
61.4958312895
 21
110.3349757285
 31
0.0
  0
TEXT
  5
170
  8
LEVEL0
 10
60.7587556361
 20
98.2919196503
 30
-2.8
 40
2.0
  1
  
 50
90.0
 41
0.7
 11
61.46527576
 21
98.2919196503
 31
-2.8
 73
     1
  0
TEXT
  5
171
  8
LEVEL0
 10
57.7969500802
 20
100.9884474005
 30
-2.8
 40
2.0
  1
0.260
 50
90.0
 41
0.7
 11
58.503470204
 21
100.9884474005
 31
-2.8
 73
     1
  0
TEXT
  5
172
  8
LEVEL0
 10
60.7893113985
 20
102.4662253584
 30
-2.8
 40
2.0
  1
6.6
 50
90.0
 41
0.7
 11
61.4958315223
 21
102.4662253584
 31
-2.8
 73
     1
  0
TEXT
  5
173
  8
LEVEL0
 10
60.7587556361
 20
108.8571977706
 30
-2.8
 40
2.0
  1
  
 50
90.0
 41
0.7
 11
61.46527576
 21
108.8571977706
 31
-2.8
 73
     1
  0
ENDBLK
  5
163
  8
0
  0
BLOCK
  8
0
  2
_D_9
 70
     0
 10
0.0
 20
0.0
 30
0.0
  3
_D_9
  1

  0
INSERT
  5
178
  8
LEVEL0
  2
_CLOSED
 10
78.3702766737
 20
72.1840266963
 30
-2.8
 41
2.0
 42
2.0
 50
0.0
  0
INSERT
  5
179
  8
LEVEL0
  2
_CLOSED
 10
71.7701557286
 20
72.1840266963
 30
-2.8
 41
2.0
 42
2.0
 50
180.0
  0
LINE
  5
17A
  8
LEVEL0
 10
82.508024649
 20
78.3513877434
 30
0.0
 11
82.1017746406
 21
78.3513877434
 31
0.0
  0
LINE
  5
17B
  8
LEVEL0
 10
82.1017746406
 20
78.3513877434
 30
0.0
 11
82.1017746406
 21
75.1763877818
 31
0.0
  0
LINE
  5
17C
  8
LEVEL0
 10
82.1017746406
 20
75.1763877818
 30
0.0
 11
82.508024649
 21
75.1763877818
 31
0.0
  0
LINE
  5
17D
  8
LEVEL0
 10
90.1736495493
 20
78.3513877434
 30
0.0
 11
90.5798995576
 21
78.3513877434
 31
0.0
  0
LINE
  5
17E
  8
LEVEL0
 10
90.5798995576
 20
78.3513877434
 30
0.0
 11
90.5798995576
 21
75.1763877818
 31
0.0
  0
LINE
  5
17F
  8
LEVEL0
 10
90.5798995576
 20
75.1763877818
 30
0.0
 11
90.1736495493
 21
75.1763877818
 31
0.0
  0
LINE
  5
180
  8
LEVEL0
 10
78.3702766737
 20
97.3840266963
 30
0.0
 11
78.3702766737
 21
71.1840266963
 31
0.0
  0
LINE
  5
181
  8
LEVEL0
 10
71.7701557286
 20
82.6840266963
 30
0.0
 11
71.7701557286
 21
71.1840266963
 31
0.0
  0
LINE
  5
182
  8
LEVEL0
 10
78.3702766737
 20
72.1840266963
 30
0.0
 11
92.3623654875
 21
72.1840266963
 31
0.0
  0
LINE
  5
183
  8
LEVEL0
 10
78.3702766737
 20
72.1840266963
 30
0.0
 11
71.7701557286
 21
72.1840266963
 31
0.0
  0
TEXT
  5
184
  8
LEVEL0
 10
80.3193094092
 20
72.9211023497
 30
-2.8
 40
2.0
  1
  
 50
0.0
 41
0.7
 11
80.3193094092
 21
72.2145822258
 31
-2.8
 73
     1
  0
TEXT
  5
185
  8
LEVEL0
 10
83.0158371595
 20
75.8829079057
 30
-2.8
 40
2.0
  1
0.260
 50
0.0
 41
0.7
 11
83.0158371595
 21
75.1763877818
 31
-2.8
 73
     1
  0
TEXT
  5
186
  8
LEVEL0
 10
84.4936151174
 20
72.8905465873
 30
-2.8
 40
2.0
  1
6.6
 50
0.0
 41
0.7
 11
84.4936151174
 21
72.1840264635
 31
-2.8
 73
     1
  0
TEXT
  5
187
  8
LEVEL0
 10
90.8845875296
 20
72.9211023497
 30
-2.8
 40
2.0
  1
  
 50
0.0
 41
0.7
 11
90.8845875296
 21
72.2145822258
 31
-2.8
 73
     1
  0
ENDBLK
  5
177
  8
0
  0
BLOCK
  8
0
  2
SW_SYMBOL_MOD_CL
 70
     0
 10
0.0
 20
0.0
 30
0.0
  3
SW_SYMBOL_MOD_CL
  1

  0
TEXT
  5
18B
  8
LEVEL0
 62
     0
 10
141.6122324159
 20
208.5626911315
 30
0.0
 40
782.874617737
  1
C
 41
0.7
 72
     1
 11
400.0
 21
600.0
 31
0.0
 73
     2
  0
TEXT
  5
18C
  8
LEVEL0
 62
     0
 10
341.6122324159
 20
-91.4373088685
 30
0.0
 40
782.874617737
  1
L
 41
0.7
 72
     1
 11
600.0
 21
300.0
 31
0.0
 73
     2
  0
ENDBLK
  5
18A
  8
0
  0
BLOCK
  8
0
  2
SW_CENTERMARKSYMBOL_0
 70
     0
 10
0.0
 20
0.0
 30
0.0
  3
SW_CENTERMARKSYMBOL_0
  1

  0
LINE
  5
191
  8
LEVEL0
 62
     0
 10
0.0
 20
0.0
 30
0.0
 11
0.0
 21
2.5
 31
0.0
  0
LINE
  5
192
  8
LEVEL0
 62
     0
 10
0.0
 20
0.0
 30
0.0
 11
-2.5
 21
0.0
 31
0.0
  0
LINE
  5
193
  8
LEVEL0
 62
     0
 10
0.0
 20
0.0
 30
0.0
 11
0.0
 21
-2.5
 31
0.0
  0
LINE
  5
194
  8
LEVEL0
 62
     0
 10
0.0
 20
0.0
 30
0.0
 11
2.5
 21
0.0
 31
0.0
  0
LINE
  5
195
  8
LEVEL0
 62
     0
 10
0.0
 20
2.5
 30
0.0
 11
0.0
 21
4.5
 31
0.0
  0
LINE
  5
196
  8
LEVEL0
 62
     0
 10
-2.5
 20
0.0
 30
0.0
 11
-4.5
 21
0.0
 31
0.0
  0
LINE
  5
197
  8
LEVEL0
 62
     0
 10
0.0
 20
-2.5
 30
0.0
 11
0.0
 21
-4.5
 31
0.0
  0
LINE
  5
198
  8
LEVEL0
 62
     0
 10
2.5
 20
0.0
 30
0.0
 11
4.5
 21
0.0
 31
0.0
  0
ENDBLK
  5
190
  8
0
  0
BLOCK
  8
0
  2
SW_CENTERMARKSYMBOL_1
 70
     0
 10
0.0
 20
0.0
 30
0.0
  3
SW_CENTERMARKSYMBOL_1
  1

  0
LINE
  5
19D
  8
LEVEL0
 62
     0
 10
0.0
 20
0.0
 30
0.0
 11
0.0
 21
2.5
 31
0.0
  0
LINE
  5
19E
  8
LEVEL0
 62
     0
 10
0.0
 20
0.0
 30
0.0
 11
-2.5
 21
0.0
 31
0.0
  0
LINE
  5
19F
  8
LEVEL0
 62
     0
 10
0.0
 20
0.0
 30
0.0
 11
0.0
 21
-2.5
 31
0.0
  0
LINE
  5
1A0
  8
LEVEL0
 62
     0
 10
0.0
 20
0.0
 30
0.0
 11
2.5
 21
0.0
 31
0.0
  0
LINE
  5
1A1
  8
LEVEL0
 62
     0
 10
0.0
 20
2.5
 30
0.0
 11
0.0
 21
4.5
 31
0.0
  0
LINE
  5
1A2
  8
LEVEL0
 62
     0
 10
-2.5
 20
0.0
 30
0.0
 11
-4.5
 21
0.0
 31
0.0
  0
LINE
  5
1A3
  8
LEVEL0
 62
     0
 10
0.0
 20
-2.5
 30
0.0
 11
0.0
 21
-4.5
 31
0.0
  0
LINE
  5
1A4
  8
LEVEL0
 62
     0
 10
2.5
 20
0.0
 30
0.0
 11
4.5
 21
0.0
 31
0.0
  0
ENDBLK
  5
19C
  8
0
  0
BLOCK
  8
0
  2
SW_CENTERMARKSYMBOL_2
 70
     0
 10
0.0
 20
0.0
 30
0.0
  3
SW_CENTERMARKSYMBOL_2
  1

  0
LINE
  5
1A9
  8
LEVEL0
 62
     0
 10
0.0
 20
0.0
 30
0.0
 11
0.0
 21
2.5
 31
0.0
  0
LINE
  5
1AA
  8
LEVEL0
 62
     0
 10
0.0
 20
0.0
 30
0.0
 11
-2.5
 21
0.0
 31
0.0
  0
LINE
  5
1AB
  8
LEVEL0
 62
     0
 10
0.0
 20
0.0
 30
0.0
 11
0.0
 21
-2.5
 31
0.0
  0
LINE
  5
1AC
  8
LEVEL0
 62
     0
 10
0.0
 20
0.0
 30
0.0
 11
2.5
 21
0.0
 31
0.0
  0
LINE
  5
1AD
  8
LEVEL0
 62
     0
 10
0.0
 20
2.5
 30
0.0
 11
0.0
 21
4.5
 31
0.0
  0
LINE
  5
1AE
  8
LEVEL0
 62
     0
 10
-2.5
 20
0.0
 30
0.0
 11
-4.5
 21
0.0
 31
0.0
  0
LINE
  5
1AF
  8
LEVEL0
 62
     0
 10
0.0
 20
-2.5
 30
0.0
 11
0.0
 21
-4.5
 31
0.0
  0
LINE
  5
1B0
  8
LEVEL0
 62
     0
 10
2.5
 20
0.0
 30
0.0
 11
4.5
 21
0.0
 31
0.0
  0
ENDBLK
  5
1A8
  8
0
  0
BLOCK
  8
0
  2
SW_CENTERMARKSYMBOL_3
 70
     0
 10
0.0
 20
0.0
 30
0.0
  3
SW_CENTERMARKSYMBOL_3
  1

  0
LINE
  5
1B5
  8
LEVEL0
 62
     0
 10
0.0
 20
0.0
 30
0.0
 11
0.0
 21
2.5
 31
0.0
  0
LINE
  5
1B6
  8
LEVEL0
 62
     0
 10
0.0
 20
0.0
 30
0.0
 11
-2.5
 21
0.0
 31
0.0
  0
LINE
  5
1B7
  8
LEVEL0
 62
     0
 10
0.0
 20
0.0
 30
0.0
 11
0.0
 21
-2.5
 31
0.0
  0
LINE
  5
1B8
  8
LEVEL0
 62
     0
 10
0.0
 20
0.0
 30
0.0
 11
2.5
 21
0.0
 31
0.0
  0
LINE
  5
1B9
  8
LEVEL0
 62
     0
 10
0.0
 20
2.5
 30
0.0
 11
0.0
 21
4.5
 31
0.0
  0
LINE
  5
1BA
  8
LEVEL0
 62
     0
 10
-2.5
 20
0.0
 30
0.0
 11
-4.5
 21
0.0
 31
0.0
  0
LINE
  5
1BB
  8
LEVEL0
 62
     0
 10
0.0
 20
-2.5
 30
0.0
 11
0.0
 21
-4.5
 31
0.0
  0
LINE
  5
1BC
  8
LEVEL0
 62
     0
 10
2.5
 20
0.0
 30
0.0
 11
4.5
 21
0.0
 31
0.0
  0
ENDBLK
  5
1B4
  8
0
  0
BLOCK
  8
0
  2
SW_CENTERMARKSYMBOL_4
 70
     0
 10
0.0
 20
0.0
 30
0.0
  3
SW_CENTERMARKSYMBOL_4
  1

  0
LINE
  5
1C1
  8
LEVEL0
 62
     0
 10
0.0
 20
0.0
 30
0.0
 11
0.0
 21
2.5
 31
0.0
  0
LINE
  5
1C2
  8
LEVEL0
 62
     0
 10
0.0
 20
0.0
 30
0.0
 11
-2.5
 21
0.0
 31
0.0
  0
LINE
  5
1C3
  8
LEVEL0
 62
     0
 10
0.0
 20
0.0
 30
0.0
 11
0.0
 21
-2.5
 31
0.0
  0
LINE
  5
1C4
  8
LEVEL0
 62
     0
 10
0.0
 20
0.0
 30
0.0
 11
2.5
 21
0.0
 31
0.0
  0
LINE
  5
1C5
  8
LEVEL0
 62
     0
 10
0.0
 20
5.0
 30
0.0
 11
0.0
 21
139.4621842431
 31
0.0
  0
LINE
  5
1C6
  8
LEVEL0
 62
     0
 10
-5.0
 20
0.0
 30
0.0
 11
-7.0
 21
0.0
 31
0.0
  0
LINE
  5
1C7
  8
LEVEL0
 62
     0
 10
0.0
 20
-5.0
 30
0.0
 11
0.0
 21
-7.0
 31
0.0
  0
LINE
  5
1C8
  8
LEVEL0
 62
     0
 10
5.0
 20
0.0
 30
0.0
 11
7.0
 21
0.0
 31
0.0
  0
ENDBLK
  5
1C0
  8
0
  0
ENDSEC
  0
SECTION
  2
ENTITIES
  0
CIRCLE
  5
A7
  8
0
  6
CONTINUOUS
 62
     7
 10
160.4701557286
 20
88.1840266963
 30
0.0
 40
2.0
  0
CIRCLE
  5
A8
  8
0
  6
CONTINUOUS
 62
     7
 10
160.4701557286
 20
221.2840266963
 30
0.0
 40
2.0
  0
ARC
  5
A9
  8
0
  6
CONTINUOUS
 62
     7
 10
150.2701557286
 20
98.3840266963
 30
0.0
 40
3.599879054928365
 50
270.0
 51
0.0
  0
LINE
  5
AA
  8
0
  6
CONTINUOUS
 62
     7
 10
153.8700347835
 20
98.3840266963
 30
0.0
 11
153.8700347835
 21
211.0840266963
 31
0.0
  0
ARC
  5
AB
  8
0
  6
CONTINUOUS
 62
     7
 10
150.2701557286
 20
211.0840266963
 30
0.0
 40
3.599879054928351
 50
0.0
 51
90.0
  0
LINE
  5
AC
  8
0
  6
CONTINUOUS
 62
     7
 10
150.2701557286
 20
214.6839057513
 30
0.0
 11
81.9701557286
 21
214.6839057513
 31
0.0
  0
ARC
  5
AD
  8
0
  6
CONTINUOUS
 62
     7
 10
81.9701557286
 20
211.0840266963
 30
0.0
 40
3.599879054928365
 50
90.0
 51
180.0
  0
LINE
  5
AE
  8
0
  6
CONTINUOUS
 62
     7
 10
78.3702766737
 20
211.0840266963
 30
0.0
 11
78.3702766737
 21
98.3840266963
 31
0.0
  0
ARC
  5
AF
  8
0
  6
CONTINUOUS
 62
     7
 10
81.9701557286
 20
98.3840266963
 30
0.0
 40
3.59987905492838
 50
180.0
 51
270.0
  0
LINE
  5
B0
  8
0
  6
CONTINUOUS
 62
     7
 10
81.9701557286
 20
94.7841476414
 30
0.0
 11
113.2917286038
 21
94.7841476414
 31
0.0
  0
ARC
  5
B1
  8
0
  6
CONTINUOUS
 62
     7
 10
116.1201557286
 20
98.2841476414
 30
0.0
 40
4.499999999999996
 50
231.057558731
 51
308.942441269
  0
LINE
  5
B2
  8
0
  6
CONTINUOUS
 62
     7
 10
118.9485828533
 20
94.7841476414
 30
0.0
 11
150.2701557286
 21
94.7841476414
 31
0.0
  0
CIRCLE
  5
B3
  8
0
  6
CONTINUOUS
 62
     7
 10
71.7701557286
 20
221.2840266963
 30
0.0
 40
2.000000000000014
  0
CIRCLE
  5
B4
  8
0
  6
CONTINUOUS
 62
     7
 10
71.7701557286
 20
88.1840266963
 30
0.0
 40
2.000000000000014
  0
DIMENSION
  5
B5
  8
LEVEL0
  2
_D
 10
153.8700347835
 20
237.2840266963
 30
0.0
 11
115.3339759795
 21
237.2840266963
 31
0.0
 70
   160
  1
<>
  3
SLDDIMSTYLE0
 13
78.3702766737
 23
211.0840266963
 33
0.0
 14
153.8700347835
 24
211.0840266963
 34
0.0
  0
DIMENSION
  5
DA
  8
LEVEL0
  2
_D_1
 10
66.7077776966
 20
94.7841476414
 30
0.0
 11
66.7077776966
 21
162.6415615279
 31
0.0
 70
   160
  1
<>
  3
SLDDIMSTYLE0
 13
81.9701557286
 23
214.6839057513
 33
0.0
 14
81.9701557286
 24
94.7841476414
 34
0.0
 50
90.0
  0
DIMENSION
  5
F7
  8
LEVEL0
  2
_D_2
 10
150.2701557286
 20
98.3840266963
 30
0.0
 11
174.1204009524
 21
91.9933854288
 31
0.0
 70
   164
  1
<> TYP
  3
SLDDIMSTYLE1
 15
153.7473718793
 25
97.4523094368
 35
0.0
 40
0.0
  0
DIMENSION
  5
108
  8
LEVEL0
  2
_D_3
 10
116.1201557286
 20
98.2841476414
 30
0.0
 11
109.5301569148
 21
73.6899099259
 31
0.0
 70
   164
  1
<>
  3
SLDDIMSTYLE1
 15
114.9554700256
 25
93.9374814231
 35
0.0
 40
0.0
  0
DIMENSION
  5
117
  8
LEVEL0
  2
_D_4
 10
128.7761193456
 20
94.7841476414
 30
0.0
 11
128.7761193456
 21
79.4856079427
 31
0.0
 70
   160
  1
<>
  3
SLDDIMSTYLE2
 13
123.1201557286
 23
98.2841476414
 33
0.0
 14
118.9485828533
 24
94.7841476414
 34
0.0
 50
90.0
  0
DIMENSION
  5
12C
  8
LEVEL0
  2
_D_5
 10
72.9226131773
 20
89.8186036535
 30
0.0
 11
46.3333032641
 21
78.1991821209
 31
0.0
 70
   163
  1
MARK SCREW POSITIONS
  3
SLDDIMSTYLE3
 15
70.6176982798
 25
86.5494497392
 35
0.0
 40
0.0
  0
DIMENSION
  5
139
  8
LEVEL0
  2
_D_6
 10
49.7701557286
 20
221.2840266963
 30
0.0
 11
49.7701557286
 21
162.6415615279
 31
0.0
 70
   160
  1
<>
  3
SLDDIMSTYLE4
 13
67.2701557286
 23
88.1840266963
 33
0.0
 14
67.2701557286
 24
221.2840266963
 34
0.0
 50
90.0
  0
DIMENSION
  5
14D
  8
LEVEL0
  2
_D_7
 10
160.4701557286
 20
62.1559956999
 30
0.0
 11
114.995585267
 21
62.1559956999
 31
0.0
 70
   160
  1
<>
  3
SLDDIMSTYLE4
 13
71.7701557286
 23
83.6840266963
 33
0.0
 14
160.4701557286
 24
83.6840266963
 34
0.0
 50
0.0
  0
DIMENSION
  5
160
  8
LEVEL0
  2
_D_8
 10
61.4958312895
 20
94.7841476414
 30
0.0
 11
61.4958312895
 21
104.3134476894
 31
0.0
 70
   160
  1
<>
  3
SLDDIMSTYLE4
 13
67.2701557286
 23
88.1840266963
 33
0.0
 14
81.9701557286
 24
94.7841476414
 34
0.0
 50
90.0
  0
DIMENSION
  5
174
  8
LEVEL0
  2
_D_9
 10
71.7701557286
 20
72.1840266963
 30
0.0
 11
86.3408374484
 21
72.1840266963
 31
0.0
 70
   160
  1
<>
  3
SLDDIMSTYLE4
 13
78.3702766737
 23
98.3840266963
 33
0.0
 14
71.7701557286
 24
83.6840266963
 34
0.0
  0
INSERT
  5
18D
  8
LEVEL0
  2
SW_SYMBOL_MOD_CL
 10
117.6228179617
 20
233.7761410133
 30
0.0
 41
0.0025546875
 42
0.0025546875
 43
0.0025546875
  0
INSERT
  5
199
  8
LEVEL0
  2
SW_CENTERMARKSYMBOL_0
 10
71.7701557286
 20
221.2840266963
 30
0.0
  0
INSERT
  5
1A5
  8
LEVEL0
  2
SW_CENTERMARKSYMBOL_1
 10
160.4701557286
 20
221.2840266963
 30
0.0
  0
INSERT
  5
1B1
  8
LEVEL0
  2
SW_CENTERMARKSYMBOL_2
 10
71.7701557286
 20
88.1840266963
 30
0.0
  0
INSERT
  5
1BD
  8
LEVEL0
  2
SW_CENTERMARKSYMBOL_3
 10
160.4701557286
 20
88.1840266963
 30
0.0
  0
INSERT
  5
1C9
  8
LEVEL0
  2
SW_CENTERMARKSYMBOL_4
 10
116.1201557286
 20
98.2841476414
 30
0.0
  0
ENDSEC
  0
EOF
